#VERSION:0.83;
#TITLE:E.T.;
#SUBTITLE:;
#ARTIST:Katy Perry;
#TITLETRANSLIT:;
#SUBTITLETRANSLIT:;
#ARTISTTRANSLIT:;
#GENRE:;
#ORIGIN:;
#TAGS:;
#CREDIT:;
#BANNER:E.T.-bn.png;
#BACKGROUND:E.T.-bg.png;
#PREVIEWVID:;
#JACKET:E.T.-jacket.png;
#CDIMAGE:;
#DISCIMAGE:;
#LYRICSPATH:;
#CDTITLE:;
#MUSIC:E.T..ogg;
#OFFSET:0.000000;
#SAMPLESTART:44.799999;
#SAMPLELENGTH:20.000000;
#SELECTABLE:YES;
#DISPLAYBPM:150.000000;
#BPMS:0.000000=150.000000;
#STOPS:;
#DELAYS:;
#WARPS:;
#TIMESIGNATURES:0.000000=4=4;
#TICKCOUNTS:0.000000=4;
#COMBOS:0.000000=1;
#SPEEDS:0.000000=1.000000=0.000000=0;
#SCROLLS:0.000000=1.000000;
#FAKES:;
#LABELS:0.000000=Song Start;
#BGCHANGES:;
#KEYSOUNDS:;
#ATTACKS:
;

//---------------dance-single - ----------------
#NOTEDATA:;
#CHARTNAME:;
#CHARTHASH:254365142:
#STEPSTYPE:dance-single;
#BANNER:;
#DESCRIPTION:;
#CHARTSTYLE:;
#DIFFICULTY:Hard;
#METER:11;
#METERF:0.000000;
#RADARVALUES:0.493764,0.527163,0.302630,0.653043,0.000000,434.000000,396.000000,38.000000,82.000000,0.000000,0.000000,0.000000,0.000000,0.000000,0.493764,0.527163,0.302630,0.653043,0.000000,434.000000,396.000000,38.000000,82.000000,0.000000,0.000000,0.000000,0.000000,0.000000;
#CREDIT:;
#DISPLAYBPM:150.000000;
#NOTES:
0000
0000
0000
0000
,
0000
0000
0000
0000
,
0000
0000
0000
0000
,
0000
0000
0000
0000
,
0010
0000
0100
0000
0101
0001
0001
0000
,
1000
1000
2000
0000
3020
0100
0130
0000
,
0010
1000
0001
1000
0200
0010
0310
0000
,
0100
1000
0001
0100
0002
0010
0013
0000
,
1000
0000
0001
0000
1100
0100
0100
0000
,
0001
0010
0200
0000
2300
0001
3001
0000
,
0010
0001
0100
0001
2000
0100
3100
0000
,
1000
0001
0010
0100
0020
0001
0031
0000
,
0110
0000
0001
0000
1001
1000
0100
0000
,
0010
0001
0100
0000
1010
0001
1000
0000
,
0100
1000
0010
0100
0002
0010
0013
0000
,
0100
0010
0001
0100
2000
0010
3010
0000
,
1100
0000
0001
0000
0011
0100
1000
0000
,
0010
0100
0100
0000
1001
1000
0001
0000
,
1000
0010
1000
0001
0200
0010
0310
0000
,
1000
1010
0102
1003
,
2100
0000
0001
0000
3010
0100
0010
2000
,
0001
0100
3010
1000
,
0102
0000
0010
0000
1003
0010
0100
0002
,
0000
1000
1003
0000
0010
0100
0001
0000
,
0021
0000
1000
0000
0130
0010
0001
2000
,
0010
0100
3001
1002
,
1003
0010
1000
0010
0100
0001
0100
0001
,
0010
0100
0010
0001
2000
0100
3100
0000
,
1001
0000
0010
0000
0102
1000
1003
0000
,
0010
0010
0010
0000
2100
0001
3001
0000
,
0010
1000
0010
0001
0020
0100
0130
0000
,
0001
1000
0001
0100
0020
1000
1030
0000
,
0110
0000
0001
0000
2010
0010
3010
0000
,
1000
1000
1000
0000
0012
0100
0103
0000
,
0001
1000
0100
0001
0200
0010
0310
0000
,
0100
1000
0010
1000
0002
0100
0103
0000
,
0010
0000
0001
0100
0020
1000
1030
0000
,
0001
0100
0010
0100
0001
0010
0100
2000
,
0010
0000
3100
0000
1200
0001
0301
0000
,
0100
1000
0010
1000
0001
0010
0100
2000
,
0010
0000
3001
0000
0102
1000
1003
0000
,
0010
1000
0010
0001
0010
1000
0001
0200
,
1000
0000
0310
0000
0210
0001
0301
0000
,
0010
0001
0100
0001
0010
0100
1000
0001
,
0202
0000
0300
0000
1000
0000
0013
0200
,
0000
0302
0000
0203
0000
2300
0000
0000
,
3020
0000
0000
0000
0001
0000
1030
0002
,
0000
0023
0000
0230
0000
2300
0000
0000
,
3020
0000
0200
0330
,
1001
0000
1000
0010
0000
0100
0002
0000
,
0000
0000
0000
0000
,
0000
0000
0020
0033
,
2200
0000
0000
0300
0000
3001
1000
0001
,
0020
0000
0130
1000
0002
0000
0203
0000
,
0320
0000
0000
0000
0000
0000
1030
0001
,
0010
1000
0010
0001
0200
0000
0320
0000
,
2030
0000
0000
0000
0000
0000
0000
0001
,
3002
0000
0013
0100
0000
1000
0002
0200
,
0000
0000
0000
0000
,
0000
0000
0000
0303
,
0000
0000
0000
0000
,
2002
3003
0220
0330
,
1010
0000
0001
0000
1200
1000
1300
0000
,
0001
0001
0001
0000
0021
0100
0130
0000
,
1000
0001
1000
0010
0200
0001
0301
0000
,
0010
1000
0010
0001
0200
0001
0301
0000
,
1010
0000
0100
0000
0120
1000
1030
0000
,
0100
0100
0100
0000
2100
0001
3001
0000
,
0010
0001
0100
0001
2000
0100
3100
0000
,
1000
0001
0010
1000
0020
0001
0031
0000
,
0100
0000
0010
1000
0002
0100
0103
0000
,
1000
0001
0100
1000
0100
0010
1000
0002
,
0010
0000
1003
0000
0201
0010
0310
0000
,
0100
1000
0100
0001
0010
0100
1000
0002
,
0100
0000
1003
0000
2010
0001
3001
0000
,
1000
0001
0010
0100
0010
1000
0010
0200
,
0010
0000
1300
0000
2100
0001
3001
0000
,
1002
0000
0100
0000
0010
0000
1003
0001
;

//---------------dance-single - ----------------
#NOTEDATA:;
#CHARTNAME:;
#CHARTHASH:0:
#STEPSTYPE:dance-single;
#BANNER:;
#DESCRIPTION:;
#CHARTSTYLE:;
#DIFFICULTY:Medium;
#METER:9;
#METERF:0.000000;
#RADARVALUES:0.386820,0.434134,0.286702,0.557476,0.000000,340.000000,304.000000,36.000000,70.000000,0.000000,0.000000,0.000000,0.000000,0.000000,0.386820,0.434134,0.286702,0.557476,0.000000,340.000000,304.000000,36.000000,70.000000,0.000000,0.000000,0.000000,0.000000,0.000000;
#CREDIT:;
#DISPLAYBPM:150.000000;
#NOTES:
0000
0000
0000
0000
,
0000
0000
0000
0000
,
0000
0000
0000
0000
,
0000
0000
0000
0000
,
0001
0100
0110
0000
,
1000
0001
0100
0000
1001
0000
0000
0000
,
0010
1000
0010
1000
0002
0000
2003
0000
,
3100
0010
0100
0010
0002
0000
2003
0000
,
3010
1000
1100
0000
,
0001
1000
0010
0000
0101
0000
0000
0000
,
1000
0100
1000
0100
0020
0000
0032
0000
,
1003
0001
1000
0001
0200
0000
0320
0000
,
1030
0100
0011
0000
,
0001
0100
0010
0000
1010
0000
0000
0000
,
1000
0001
0010
0001
2000
0000
3200
0000
,
0310
0100
1000
0100
0020
0000
0032
0000
,
1003
0001
1001
0000
,
0010
1000
0100
0000
0110
0000
0000
0000
,
0001
1000
0010
1000
0002
0000
0203
0000
,
0310
2000
3002
0103
,
0022
0000
0030
0000
1000
0000
0013
0200
,
0001
1000
1300
0010
,
2020
0000
0030
0000
0100
0000
3001
1000
,
0000
0020
0100
0000
1030
0000
0001
0000
,
0202
0000
0300
0000
0010
0000
0103
2000
,
0001
0100
3010
1100
,
0001
0000
0010
0100
1000
0000
0010
0100
,
0001
0000
1000
0001
0200
0000
0310
0000
,
1001
0001
1100
0100
,
1000
0001
0100
0000
0110
0000
0000
0000
,
1000
0001
1000
0001
0100
0000
0100
0000
,
0010
1000
0010
1000
0001
0000
0001
0000
,
0011
0100
1010
0001
,
1000
0010
0100
0000
0101
0000
0000
0000
,
0001
0010
0001
0010
0100
0000
0100
0000
,
1000
0001
1000
0001
0010
0000
0010
0000
,
0001
0100
1010
0001
,
0020
0000
0032
0000
2003
0000
3010
0200
,
1000
0301
0011
0100
,
0020
0000
2030
0000
3200
0000
0310
0002
,
0010
1003
1100
0010
,
2000
0000
3002
0000
0023
0000
0031
0200
,
0010
0301
0101
1000
,
0100
0000
0110
0000
1001
0000
1000
0001
,
0200
0000
0010
0000
,
1000
1000
0002
0303
,
0020
0000
0001
0000
,
1000
1000
0200
0330
,
2000
0000
0002
3003
,
0010
0000
0001
0100
0000
0010
2000
0000
,
0000
0000
0000
0000
,
0000
0000
0002
3003
,
0020
0000
0000
0000
0000
0000
1030
0001
,
0010
0000
0010
0001
0200
0000
0320
0000
,
0230
0000
0000
0000
0000
0000
0301
1000
,
0001
0000
0010
0100
2000
0000
3002
0000
,
0203
0000
0000
0000
0000
0000
0300
0001
,
1000
0000
0001
1000
0000
0001
2000
0000
,
0000
0000
0000
0000
,
0000
0000
0000
3000
,
0000
0000
0000
0000
,
2002
3003
0220
0330
,
0101
1000
1010
0100
,
0001
1000
0010
0000
1001
0000
0000
0000
,
1000
0100
1000
0100
0010
0000
0010
0000
,
0001
1000
0001
1000
0100
0000
0100
0000
,
1100
0001
0011
0010
,
0001
0100
1000
0000
1001
0000
0000
0000
,
0100
1000
0100
1000
0010
0000
0010
0000
,
0100
0001
0100
0001
0010
0000
0010
0000
,
0001
0100
1010
1000
,
0002
0000
0023
0000
2030
0000
3010
0200
,
0010
1300
1100
0001
,
0200
0000
0302
0000
2003
0000
3001
0020
,
0100
1030
0011
0001
,
2000
0000
3002
0000
0203
0000
0301
0020
,
1000
0031
0101
0100
,
0001
0000
0001
0000
0001
0000
1000
0001
;

//---------------dance-single - ----------------
#NOTEDATA:;
#CHARTNAME:;
#CHARTHASH:0:
#STEPSTYPE:dance-single;
#BANNER:;
#DESCRIPTION:;
#CHARTSTYLE:;
#DIFFICULTY:Easy;
#METER:6;
#METERF:0.000000;
#RADARVALUES:0.261672,0.309598,0.238918,0.127423,0.000000,230.000000,200.000000,30.000000,16.000000,0.000000,0.000000,0.000000,0.000000,0.000000,0.261672,0.309598,0.238918,0.127423,0.000000,230.000000,200.000000,30.000000,16.000000,0.000000,0.000000,0.000000,0.000000,0.000000;
#CREDIT:;
#DISPLAYBPM:150.000000;
#NOTES:
0000
0000
0000
0000
,
0000
0000
0000
0000
,
0000
0000
0000
0000
,
0000
0000
0000
0000
,
0010
0000
1001
0000
,
0100
0100
0110
0000
,
0001
0001
0010
0100
,
1000
1000
0010
0100
,
0001
0000
0011
0000
,
1000
1000
1100
0000
,
0010
0010
1000
0001
,
0010
0010
0001
0100
,
1000
0000
1010
0000
,
0001
0001
0101
0000
,
0010
0001
0100
0100
,
0001
1000
0010
0010
,
0100
0000
0110
0000
,
0001
0001
1001
0000
,
1000
0010
0100
0001
,
0000
0010
0010
0010
,
0002
0000
0100
0013
,
2000
0000
0000
3001
,
0020
0000
1000
0031
,
0200
0000
0000
0310
,
2000
0000
0001
3010
,
0200
0000
0000
0301
,
0010
0010
0001
0001
,
1000
0001
0100
0100
,
0110
0000
1001
0000
,
0001
0001
0011
0000
,
0010
0001
0100
0010
,
1000
0100
0010
0001
,
0101
0000
1100
0000
,
0010
0010
1010
0000
,
0100
1000
0010
1000
,
0100
0010
0001
1000
,
0010
0000
1001
0000
,
0001
0010
0100
1000
,
0010
0000
0110
0000
,
0100
0010
1000
0001
,
0010
0000
0101
0000
,
0001
1000
0100
0010
,
0001
0000
1010
0000
,
0010
0010
0010
1000
,
0002
0000
0000
0000
,
0000
0000
0000
0003
,
2000
0000
0000
0000
,
0000
0000
0000
3000
,
0020
0000
0130
0000
,
0001
0000
1000
0000
,
0200
0000
0000
0000
,
0000
0300
0110
0000
,
2002
0000
0000
3000
,
1000
1000
0010
0103
,
0020
0000
0000
0000
,
0001
0001
1000
0130
,
2000
0000
0000
0000
,
0010
0010
0100
3001
,
0020
0000
0000
0000
,
0000
0000
0000
0030
,
0000
0000
0000
0000
,
0002
0000
1003
0000
,
1100
0000
0101
0000
,
1000
0001
1001
0000
,
0100
0010
0100
0001
,
0010
0100
1000
1000
,
1010
0000
0101
0000
,
0010
0100
1001
0000
,
1000
0010
0100
0100
,
0001
0010
0001
1000
,
0010
0000
1010
0000
,
1000
0001
0010
0001
,
0100
0000
0110
0000
,
0010
0100
0001
1000
,
0100
0000
1100
0000
,
1000
0010
0100
0001
,
0010
0000
0110
0000
,
0001
0100
0010
1000
;

//---------------dance-single - ----------------
#NOTEDATA:;
#CHARTNAME:;
#CHARTHASH:0:
#STEPSTYPE:dance-single;
#BANNER:;
#DESCRIPTION:;
#CHARTSTYLE:;
#DIFFICULTY:Beginner;
#METER:3;
#METERF:0.000000;
#RADARVALUES:0.145626,0.247679,0.063712,0.079639,0.000000,128.000000,120.000000,8.000000,10.000000,0.000000,0.000000,0.000000,0.000000,0.000000,0.145626,0.247679,0.063712,0.079639,0.000000,128.000000,120.000000,8.000000,10.000000,0.000000,0.000000,0.000000,0.000000,0.000000;
#CREDIT:;
#DISPLAYBPM:150.000000;
#NOTES:
// measure 0
0000
0000
0000
0000
,  // measure 1
0000
0000
0000
0000
,  // measure 2
0000
0000
0000
0000
,  // measure 3
0000
0000
0000
0000
,  // measure 4
0001
0000
0001
0000
,  // measure 5
1000
0000
0000
0000
,  // measure 6
0010
0000
0010
0000
,  // measure 7
0100
0000
0100
0000
,  // measure 8
0010
0000
0010
0000
,  // measure 9
0010
0000
0000
0000
,  // measure 10
1000
0000
1000
0000
,  // measure 11
0001
0000
0001
0000
,  // measure 12
1000
0000
0100
0000
,  // measure 13
0000
0000
0001
0000
,  // measure 14
1000
0000
0010
0000
,  // measure 15
0100
0000
0001
0000
,  // measure 16
0010
0000
0100
0000
,  // measure 17
0000
0000
1000
0000
,  // measure 18
0010
0000
0010
0000
,  // measure 19
0000
0000
0000
0000
,  // measure 20
1000
0000
0001
0000
,  // measure 21
2000
0000
3000
0000
,  // measure 22
0010
0000
0100
0000
,  // measure 23
0020
0000
0030
0000
,  // measure 24
0100
0000
0001
0000
,  // measure 25
0200
0000
0300
0000
,  // measure 26
0001
0000
0001
0000
,  // measure 27
0001
0000
0001
0000
,  // measure 28
1000
0000
1000
0000
,  // measure 29
0010
0000
0010
0000
,  // measure 30
0100
0000
0100
0000
,  // measure 31
0001
0000
1000
0000
,  // measure 32
0001
0000
0001
0000
,  // measure 33
0010
0000
0100
0000
,  // measure 34
1000
0000
1000
0000
,  // measure 35
0010
0000
0010
0000
,  // measure 36
0000
0000
0110
0000
,  // measure 37
0001
0001
0001
0001
,  // measure 38
0000
0000
1001
0000
,  // measure 39
1000
1000
1000
1000
,  // measure 40
0000
0000
1001
0000
,  // measure 41
0010
0010
0010
0010
,  // measure 42
0000
0000
0110
0000
,  // measure 43
0100
0100
0100
0100
,  // measure 44
0000
0000
0000
0000
,  // measure 45
0000
0000
0000
0000
,  // measure 46
0002
0000
0000
0000
,  // measure 47
0003
0000
0000
0000
,  // measure 48
2000
0000
0000
0000
,  // measure 49
3000
0000
0000
0000
,  // measure 50
0020
0000
0000
0000
,  // measure 51
0030
0000
0000
0000
,  // measure 52
0200
0000
0000
0000
,  // measure 53
0300
0000
0000
0000
,  // measure 54
0002
0000
0000
0000
,  // measure 55
0003
0000
0000
0000
,  // measure 56
0020
0000
0000
0000
,  // measure 57
0030
0000
0000
0000
,  // measure 58
0200
0000
0000
0000
,  // measure 59
0000
0000
0000
0300
,  // measure 60
0000
0000
0000
0000
,  // measure 61
1000
0000
0001
0000
,  // measure 62
0100
0000
0100
0000
,  // measure 63
0010
0000
0010
0000
,  // measure 64
1000
0000
0001
0000
,  // measure 65
0010
0000
0100
0000
,  // measure 66
1000
0000
1000
0000
,  // measure 67
0001
0000
0001
0000
,  // measure 68
0010
0000
0001
0000
,  // measure 69
1000
0000
1000
0000
,  // measure 70
0000
0000
0110
0000
,  // measure 71
0010
0010
0010
0010
,  // measure 72
0000
0000
1001
0000
,  // measure 73
1000
1000
1000
1000
,  // measure 74
0000
0000
1001
0000
,  // measure 75
0001
0001
0001
0001
,  // measure 76
0000
0000
0110
0000
,  // measure 77
0100
0100
0100
0100
;
