#TITLE:Dynasty;
#SUBTITLE:;
#ARTIST:Yooh;
#TITLETRANSLIT:;
#SUBTITLETRANSLIT:;
#ARTISTTRANSLIT:;
#GENRE:;
#CREDIT:;
#BANNER:Dynasty-bn.png;
#BACKGROUND:Dynasty-bg.png;
#LYRICSPATH:;
#CDTITLE:;
#MUSIC:Dynasty.ogg;
#OFFSET:0.952000;
#SAMPLESTART:67.302002;
#SAMPLELENGTH:20.000000;
#SELECTABLE:YES;
#DISPLAYBPM:189.000000;
#BPMS:0.000000=189.000000
;
#STOPS:64.000000=1.588000,
208.000000=0.317000
;
#BGCHANGES:;
#KEYSOUNDS:;
#ATTACKS:;

//---------------dance-single - ----------------
#NOTES:
     dance-single:
     :
     Hard:
     15:
     0.814214,1.011382,0.257896,0.068772,0.361054,663.000000,633.000000,30.000000,8.000000,0.000000,0.000000,0.814214,1.011382,0.257896,0.068772,0.361054,663.000000,633.000000,30.000000,8.000000,0.000000,0.000000:
0000
0000
0000
0000
,
0000
0000
0000
0000
,
0000
0000
0000
0000
,
0000
0000
0000
0000
,
0000
0000
0000
0000
,
0000
0000
0000
0000
,
0000
0000
0000
0000
,
0000
0000
0000
0000
,
0000
0000
0000
0000
,
0001
0010
1000
0100
0010
0001
0100
0010
,
1000
0001
1000
0100
0010
0001
0100
0000
,
0010
1000
0001
1000
0100
0010
0001
0100
,
0001
0010
0100
1000
0010
1000
0001
0000
,
1000
0010
0001
0010
0001
1000
0100
0010
,
1000
0010
0001
0100
0001
0100
1000
0100
,
1000
0010
0001
0100
0001
0010
0100
1000
,
0022
0000
0000
0000
0000
0000
0000
0000
0000
0000
0000
0000
0000
0033
0000
0000
0001
0000
0000
0000
1000
0000
0000
0000
0001
0000
0000
0000
0000
0000
0000
0000
0100
0000
0000
0000
0000
0000
0000
0000
0010
0000
0000
0000
0000
0000
0000
0000
1000
0000
0000
0000
0000
0000
0000
0000
0100
0000
0000
0000
0000
0000
0000
0000
,
0010
0000
0000
0000
0010
0000
0000
0000
0010
0000
0000
0000
0001
0100
0001
0000
,
0010
0100
1000
0010
0100
0000
0100
0000
,
0100
0000
0000
0000
0001
0010
0001
0000
0100
0000
0010
0000
1000
0000
0100
0000
,
0001
0000
0001
0000
0001
0000
0010
0001
,
1000
0001
0010
0000
0010
1000
0001
1000
,
0010
0000
0000
0000
0001
0100
0001
0000
0010
0000
0100
0000
1000
0000
0010
0000
,
0110
0000
0000
0000
0110
0000
0000
0000
0110
0000
0000
0000
0001
0010
0001
0000
,
1000
0100
0010
0100
1100
0000
1100
0000
,
1100
0000
0001
1000
0010
0100
0010
0100
,
0001
1000
0001
0100
0010
0001
1000
0010
,
0100
0010
1000
0001
1000
0100
0010
0100
,
1000
0001
1000
0001
1000
0000
0010
0000
0100
0000
0001
0000
0010
0000
0100
0000
,
1000
0000
0000
0001
0010
0000
0000
0001
0100
0000
0010
0000
1000
0000
0100
0000
,
0010
0000
0001
0000
0100
0000
0010
0000
1000
0000
0000
0100
0010
0000
0000
0100
,
1000
0001
0100
0001
0010
0001
1000
0100
,
0010
0000
0000
0001
0100
0000
0000
0001
1000
0000
0100
0000
0010
0000
0001
0000
,
1000
0001
0010
0100
1000
0010
1000
0001
,
0100
0000
0110
0001
1000
0100
0010
0001
,
1000
0000
0000
0100
0010
0000
0000
0001
1000
0000
0010
0000
1000
0000
0001
0000
,
0010
0000
0100
0000
1000
0000
0010
0000
0100
0000
0000
0010
0100
0000
0000
0001
,
0010
1000
0001
0010
0100
1000
0010
0100
,
0001
0010
0001
0100
1000
0010
1000
0100
,
0010
0001
0100
0010
1001
0000
1000
0001
,
0010
0000
0100
0000
1000
0000
0000
1000
0100
0000
0000
0100
0010
0000
0000
0010
,
0001
0000
0000
0000
0101
0000
0000
0000
0101
0000
0000
0000
0010
0000
0000
0010
,
1000
0000
0000
1000
0100
0000
0000
0100
0010
0000
0000
0000
0011
0000
0000
0000
,
0011
0000
0000
0000
0100
0000
0000
0100
0001
0000
0000
0001
0010
0000
0000
0010
,
0100
1001
1001
2020
,
3030
0000
0001
0000
1000
0000
0010
0000
0100
0000
0000
0010
1000
0000
0000
0010
,
1000
0000
0000
0001
1000
0000
0000
0000
0100
0000
0010
0000
0001
0000
0100
0000
,
1010
0000
0000
0000
0101
0000
0000
1000
0100
0000
0010
0000
0001
0000
0100
0000
,
0010
0100
0001
0000
0001
0010
0100
0010
,
0001
0000
0000
1000
0100
0000
0010
0000
0001
0000
1000
0000
0001
0000
0000
0000
,
0100
0010
1000
0001
1000
0000
0100
0010
,
1000
0100
0010
0001
1100
0000
0110
0000
,
0022
0000
0000
0000
0000
0000
0000
0000
0000
0000
0000
0000
0000
0033
0000
0000
0001
0000
0000
0000
1000
0000
0000
0000
0001
0000
0000
0000
1000
0000
0000
0000
0001
0000
0000
0000
0100
0000
0000
0000
0010
0000
0000
0000
0100
0000
0000
0000
0010
0000
0000
0000
0000
0000
0000
0000
1000
0000
0000
0000
0000
0000
0000
0000
,
0001
0010
0100
1000
0010
1000
0001
1000
,
0100
0010
0100
0000
1000
0000
0001
0000
0010
0000
0001
0000
0100
0000
0001
0000
,
1000
0000
0001
0000
0010
0000
0001
0000
1000
0100
1000
0000
0010
0000
0100
0000
,
0001
1000
0001
0000
0010
0100
0010
0100
0010
0000
0001
0000
0100
0000
1000
0000
,
0010
1000
0010
0000
0001
0000
0100
0000
0010
0000
1000
0000
0100
0000
0010
0000
,
0001
0000
1000
0000
0001
0000
0100
0000
0001
0010
0001
0000
1000
0000
0010
0000
,
1000
0100
0010
0001
0100
0001
0010
1000
,
0100
0001
0100
0000
0010
0000
0100
0000
1000
0000
0001
0000
0100
0000
0001
0000
,
0010
0000
0100
0000
1000
0000
0010
0000
1000
0100
1000
0000
0001
0000
0010
0000
,
0001
0100
0001
0100
0001
0010
0001
0010
0001
0000
0100
0000
0010
1000
0010
1000
,
0010
0100
0010
1000
0100
0010
0011
0000
,
1000
0000
0001
0000
1000
0000
0010
0000
0100
0001
1000
0000
0100
1000
0001
0000
,
0100
0010
1000
0001
1000
0010
1000
0100
,
0010
0001
1000
0000
0010
1000
0001
0000
0010
0000
0100
0000
1000
0001
0100
0000
,
0001
0010
0100
0000
1000
0000
0001
0000
1000
0001
0010
0000
0100
0000
1000
0000
,
0010
0000
0100
0000
0010
1000
0100
0000
0010
0000
0001
0000
1000
0010
1000
0001
,
1000
0100
1000
0100
0010
0000
0001
0000
0100
0000
0010
0000
1000
0100
1000
0000
,
0001
0100
0001
0000
0010
0100
0010
0000
0001
1000
0010
1000
0001
0000
0100
0000
,
0010
1000
0100
1000
0001
1000
0010
0100
,
0001
0010
0001
0000
1000
0100
0010
0100
1000
0000
0001
0000
0100
0010
1000
0000
,
0100
0010
0001
0000
1000
0001
0100
0010
1000
0000
0100
0000
0010
0000
0001
0000
,
1000
0001
1000
0010
1000
0100
0010
0001
,
0100
0010
0100
0001
1000
0010
1000
0100
,
0001
0010
0001
1000
1100
0000
0110
0000
,
0011
1010
1001
0101
,
1100
0000
0001
0000
0010
0000
0001
0000
0100
0000
1000
0001
0010
0000
0100
0000
,
1000
0000
0010
0000
1000
0000
0001
0100
0010
0000
1000
0000
0001
0000
1000
0000
,
0100
0000
0010
0001
0100
0000
0001
0000
1000
0000
0100
0000
0010
0000
0001
1000
,
0100
0000
0010
0000
0100
0000
1000
0000
0010
0000
1000
0100
0010
0000
0100
0000
,
1000
0000
0001
0000
1000
0000
0010
0100
0001
0000
0010
0000
0001
0000
0100
0000
,
1000
0000
0010
1000
0001
0000
0010
0000
0100
0000
1000
0000
0010
0000
0100
0001
,
1000
0000
0010
0100
0001
0100
0010
1000
,
0001
1000
0010
1000
0100
0000
1000
0001
,
0100
0010
1000
0100
1000
0010
1000
0001
,
2200
0000
0000
0000
,
0000
0000
0000
0000
,
0000
0000
0000
0000
,
0000
0000
3300
0000
;

//---------------dance-single - ----------------
#NOTES:
     dance-single:
     :
     Medium:
     13:
     0.628775,0.700187,0.386844,0.154738,0.008597,512.000000,467.000000,45.000000,18.000000,0.000000,0.000000,0.628775,0.700187,0.386844,0.154738,0.008597,512.000000,467.000000,45.000000,18.000000,0.000000,0.000000:
0000
0000
0000
0000
,
0000
0000
0000
0000
,
0000
0000
0000
0000
,
0000
0000
0000
0000
,
0000
0000
0000
0000
,
0000
0000
0000
0000
,
0000
0000
0000
0000
,
0000
0000
0000
0000
,
0000
0000
0000
0000
,
0001
0000
0010
0001
1000
0000
0010
1000
,
0100
0010
0001
0000
1000
0001
0100
0000
,
0001
0000
0010
0100
1000
0000
0010
1000
,
0001
1000
0100
0000
0010
0001
0100
0000
,
0001
1000
0100
0010
0000
0000
0001
1000
,
0010
0100
0000
0000
0001
0010
0001
0010
,
0001
0000
1000
0010
1000
0010
1000
0000
,
0220
0000
0000
0000
0330
0000
1010
0000
0000
0000
0000
0000
0000
0000
0000
0001
0000
0000
0010
0000
0000
0100
0000
0000
,
1000
1000
1000
1100
,
0000
0010
1000
0001
0100
0000
0100
0000
,
0100
0000
0101
0000
0000
0100
0010
1000
,
0001
0001
0001
0100
,
0001
0010
0001
0000
0100
0000
1000
0010
,
1000
0000
0100
1000
0000
0001
0100
0010
,
2000
0000
3002
0000
0023
0000
0130
0010
,
0000
0001
1000
0100
2000
0000
3020
0000
,
0230
0000
0301
0010
0100
0010
0001
0000
,
1000
0010
0100
0010
1000
0000
0001
0100
,
0010
0100
0001
0000
1000
0100
0010
0100
,
1000
0001
1000
0010
1000
0100
0001
0000
,
0011
0000
1100
0000
0100
1000
0010
1000
,
0001
1000
0100
0000
1001
0000
1010
0000
,
0001
0100
1000
0001
1000
0100
0010
0000
,
0110
0000
0011
0000
1010
0000
1000
0001
,
0010
1000
0100
0000
1100
0000
1010
0000
,
1001
0000
0011
0001
0100
0010
1000
0000
,
1001
0000
0011
0000
1100
0001
0010
0001
,
0100
0010
1000
0000
1100
0000
0101
0000
,
1010
0010
1000
0001
0010
0001
1000
0000
,
0001
1000
0100
1000
0001
0000
0100
0010
,
1000
0001
0010
0100
0110
0000
0001
1000
,
0001
1000
0001
0000
0100
0000
1000
0000
,
0010
0100
0001
0010
,
0001
1000
0010
1000
,
0100
0010
0001
0100
,
0001
0010
1000
1100
,
0000
0001
1000
0010
0100
0000
0110
0000
,
1001
1000
0100
0001
,
0101
0000
0010
1000
0001
1000
0100
0000
,
0010
0001
0100
0010
,
1000
0000
0001
0000
0010
0100
1000
0000
,
0010
0000
1000
0001
0100
0000
0001
1000
,
0100
1000
0001
0000
0011
0000
0110
0000
,
2200
0000
0000
0000
3300
0000
0001
0000
0000
1000
0000
0000
0010
0000
0000
0100
0000
0000
0010
0000
0000
1000
0000
0000
,
0100
0010
0002
0000
2003
0000
3010
0100
,
0010
1000
0001
0010
0100
1000
0010
1000
,
0100
0010
0001
0000
0010
0001
1000
0010
,
0100
0001
0010
0100
1000
0001
1000
0000
,
0100
1000
0010
0100
0001
1000
0010
1000
,
0001
1000
0100
0000
0010
0001
1000
0100
,
1000
0001
0200
0000
0320
0000
1030
0001
,
1000
0100
0010
0100
1000
0001
0100
0001
,
0010
0001
0100
0000
1000
0010
1000
0001
,
0010
0001
0100
0010
1000
0100
0010
0001
,
0101
0000
0000
1000
0001
1000
0100
0000
,
0001
0010
0100
1000
0010
1000
0100
1000
,
0010
0100
0110
0000
1010
0000
1001
0001
,
1000
0001
0010
0100
1000
0010
0100
0010
,
0100
0001
0010
0100
1000
0001
0010
0001
,
0010
0100
1000
0010
0100
0001
0100
0001
,
0010
0100
1000
0001
1000
0100
0110
0000
,
0011
0000
0101
0000
0010
1000
0001
0010
,
0100
1000
1010
0000
0101
0010
0100
0001
,
1000
0001
1000
0100
0010
0001
0100
0010
,
0100
0010
0100
0010
1000
0100
1001
0000
,
0001
0010
0100
1000
0010
0000
0101
0000
,
0010
0001
0100
0001
0010
0100
1000
0000
,
1000
0001
0010
0001
0100
0000
0010
0000
,
1000
1100
0101
1010
,
0011
0000
0010
0100
0000
0100
1000
0000
,
1000
0010
0000
0010
0100
0000
0100
0001
,
0000
0001
1000
0000
1000
0010
0000
0010
,
0100
0000
0100
0010
0000
0010
1000
0000
,
1000
0001
0000
0001
0100
0000
0100
0001
,
0000
0001
0010
0000
0010
0100
0000
0100
,
2000
0000
0001
0000
0010
0000
3001
1000
,
0010
1000
0100
0010
0002
0000
1000
0000
,
0100
0000
1003
0001
0010
0001
1000
0100
,
2200
0000
0000
0000
,
0000
0000
0000
0000
,
0000
0000
0000
0000
,
0000
0000
3300
0000
;

//---------------dance-single - ----------------
#NOTES:
     dance-single:
     :
     Easy:
     8:
     0.405265,0.583490,0.257896,0.068772,0.000000,330.000000,300.000000,30.000000,8.000000,0.000000,0.000000,0.405265,0.583490,0.257896,0.068772,0.000000,330.000000,300.000000,30.000000,8.000000,0.000000,0.000000:
0000
0000
0000
0000
,
0000
0000
0000
0000
,
0000
0000
0000
0000
,
0000
0000
0000
0000
,
0000
0000
0000
0000
,
0000
0000
0000
0000
,
0000
0000
0000
0000
,
0000
0000
0000
0000
,
0000
0000
0000
0000
,
0001
0000
0000
1000
0000
0000
0010
0000
,
0000
0100
0000
0000
0001
0000
0010
0000
,
0100
0000
0000
1000
0000
0000
0010
0000
,
0000
1000
0000
0000
0001
0000
0100
0000
,
0001
0000
0000
0011
0000
0000
1000
0000
,
0000
1010
0000
0000
0002
0000
0100
0000
,
0103
2000
0100
3100
,
0220
0330
0001
0000
0000
0000
1000
0000
,
0100
0010
0100
1000
,
0000
0001
0100
0010
,
1000
0010
0000
1000
,
0100
0010
0001
0100
,
0100
0100
0010
0010
,
0010
1001
0000
0010
,
1000
0100
0010
0011
,
0000
0001
0100
0010
,
1000
1010
0001
0100
,
0010
1000
0100
1000
,
1000
1000
0001
0001
,
0001
0000
1001
0000
0000
0010
0000
0000
,
1000
0001
0100
0010
,
0000
1000
0000
0000
0001
0000
1000
0000
,
0100
0000
0010
0000
0000
0001
0000
0000
,
0100
0010
1000
0100
,
0000
0010
0000
0000
0001
0000
1000
0000
,
0001
0000
0110
0000
0000
0001
0000
0000
,
0010
0100
1000
0010
,
0000
0100
0000
0000
0001
0000
0010
0000
,
1000
0100
1000
0001
,
0010
0100
1000
1100
,
0000
0001
0101
0010
,
0010
1000
0100
1000
,
0001
0100
0001
1000
,
0100
1000
0001
0100
,
0001
1000
0100
1000
,
0001
0100
0001
0011
,
0000
1100
0001
0001
,
0001
1000
0010
1000
,
0001
0010
0001
1000
,
0010
1000
0001
0010
,
0001
1000
0010
1000
,
0001
0010
0001
0100
,
0100
0100
1001
0110
,
2002
3003
0100
0000
1001
0000
0001
0000
,
1000
0100
0010
0100
,
1000
0010
1000
0100
,
0001
1000
0001
0010
,
0100
1000
0010
1000
,
0100
0010
0001
0100
,
0010
1000
0101
1000
,
0001
0010
0100
1000
,
1100
0010
1000
0100
,
0010
0001
1001
0100
,
0010
0110
0001
1000
,
1010
0001
0010
0011
,
0100
0000
1000
0000
0001
1000
0010
0000
,
0100
0001
0010
0000
0001
0000
0100
0000
,
1000
0001
0100
0000
0010
1000
0100
0000
,
1000
0000
0001
0000
0010
0001
0100
0000
,
1010
0000
0001
0100
1000
0000
0101
0000
,
0010
1000
0010
1000
0010
0000
0001
0000
,
0100
0000
0001
0000
0010
0001
1000
0000
,
0010
0100
0001
0000
1000
0000
0100
0000
,
1000
0010
0100
0000
0001
1000
0010
0000
,
0100
0010
1100
0101
,
0100
0010
1000
0000
0001
0000
1000
0000
,
0010
0000
0010
0000
0010
0100
0001
0000
,
0010
1000
0100
0100
,
0100
0100
0100
0100
,
0110
0000
0000
0001
0000
0000
0100
0000
,
0000
0010
0000
0000
1000
0000
0000
0001
,
0000
0000
1000
0000
0000
0100
0000
0000
,
0010
0000
0000
0100
0000
0000
0010
0000
,
0000
0001
0000
0000
1000
0000
0000
0010
,
0000
0000
1000
0000
0000
0001
0000
0000
,
0101
0010
1000
0100
,
0010
0001
1100
0001
,
1000
0100
0010
0001
,
2002
0000
0000
0000
,
0000
0000
0000
0000
,
0000
0000
0000
0000
,
0000
0000
3003
0000
;

//---------------dance-single - ----------------
#NOTES:
     dance-single:
     :
     Beginner:
     4:
     0.195264,0.272295,0.085965,0.017193,0.000000,159.000000,149.000000,10.000000,2.000000,0.000000,0.000000,0.195264,0.272295,0.085965,0.017193,0.000000,159.000000,149.000000,10.000000,2.000000,0.000000,0.000000:
// measure 0
0000
0000
0000
0000
,  // measure 1
0000
0000
0000
0000
,  // measure 2
0000
0000
0000
0000
,  // measure 3
0000
0000
0000
0000
,  // measure 4
0000
0000
0000
0000
,  // measure 5
0000
0000
0000
0000
,  // measure 6
0000
0000
0000
0000
,  // measure 7
0000
0000
0000
0000
,  // measure 8
0000
0000
0000
0000
,  // measure 9
0001
0000
0001
0000
,  // measure 10
0001
0000
0001
0000
,  // measure 11
1000
0000
1000
0000
,  // measure 12
1000
0000
1000
0000
,  // measure 13
0010
0000
0000
0010
,  // measure 14
0000
0000
0100
0000
,  // measure 15
0000
0100
0000
0000
,  // measure 16
0110
1001
0000
0000
,  // measure 17
1000
0000
0000
0001
,  // measure 18
0000
0000
0010
0000
,  // measure 19
0000
0001
0000
0000
,  // measure 20
0100
0000
0000
0010
,  // measure 21
0000
0000
1000
0000
,  // measure 22
0000
0100
0000
0000
,  // measure 23
0010
0010
0010
0010
,  // measure 24
0000
0000
0001
0001
,  // measure 25
0001
0001
0000
0000
,  // measure 26
1000
0000
0000
1000
,  // measure 27
0000
0000
0100
0000
,  // measure 28
0000
0110
0000
0000
,  // measure 29
0001
0001
0001
0001
,  // measure 30
0000
0000
0100
0100
,  // measure 31
0100
0100
0000
0000
,  // measure 32
0010
0010
0010
0010
,  // measure 33
0000
0000
1000
0000
,  // measure 34
0000
1001
0000
0000
,  // measure 35
1000
1000
1000
1000
,  // measure 36
0000
0000
0001
0001
,  // measure 37
0001
0001
0000
0000
,  // measure 38
0010
0000
0000
0100
,  // measure 39
0000
0000
1000
0000
,  // measure 40
0000
0010
0000
0000
,  // measure 41
0100
0000
0000
0010
,  // measure 42
0000
0000
0100
0000
,  // measure 43
0000
0001
0000
0000
,  // measure 44
0010
0000
0000
0001
,  // measure 45
0000
0000
1000
1000
,  // measure 46
1000
1000
0000
0000
,  // measure 47
0010
0000
0000
0100
,  // measure 48
0000
0000
0010
0000
,  // measure 49
0000
1000
0000
0000
,  // measure 50
0100
0000
0000
0010
,  // measure 51
0000
0000
0001
0001
,  // measure 52
0001
0000
1001
0000
,  // measure 53
0000
0100
0100
0100
,  // measure 54
0100
0000
0000
1000
,  // measure 55
1000
1000
1000
0000
,  // measure 56
0000
0001
0001
0001
,  // measure 57
0001
0000
0000
1000
,  // measure 58
0000
0000
0110
0000
,  // measure 59
0000
0010
0010
0010
,  // measure 60
0010
0000
0000
1000
,  // measure 61
1000
1000
1000
0000
,  // measure 62
0000
0100
0000
0000
,  // measure 63
0010
0000
0000
0001
,  // measure 64
0000
0000
1001
0000
,  // measure 65
0000
1000
0001
1000
,  // measure 66
0001
0000
0000
0100
,  // measure 67
0010
0100
0010
0000
,  // measure 68
0000
1000
0100
1000
,  // measure 69
0100
0000
0000
0010
,  // measure 70
0001
0010
0001
0000
,  // measure 71
0000
1000
0010
1000
,  // measure 72
0010
0000
0000
0100
,  // measure 73
0001
0100
0001
0000
,  // measure 74
0000
1000
0000
0000
,  // measure 75
0010
0000
0000
1000
,  // measure 76
1000
1000
1000
0000
,  // measure 77
0000
0001
0000
0000
,  // measure 78
0110
0000
0000
0010
,  // measure 79
0000
0000
0100
0000
,  // measure 80
0000
0001
0000
0000
,  // measure 81
0010
0000
0000
0100
,  // measure 82
0000
0000
1000
0000
,  // measure 83
0000
0010
0000
0000
,  // measure 84
0110
0000
0000
0000
,  // measure 85
0000
0000
0001
0000
,  // measure 86
0000
1000
0000
0000
,  // measure 87
2002
0000
0000
0000
,  // measure 88
0000
0000
0000
0000
,  // measure 89
0000
0000
0000
0000
,  // measure 90
0000
0000
3003
0000
;
