#TITLE:Dummy;
#ARTIST:RAM;
#BANNER:Dummy.png;
#BACKGROUND:Dummy-bg.png;
#JACKET:Dummy-jacket.png;
#MUSIC:Dummy.ogg;
#SAMPLESTART:23.3;
#SAMPLELENGTH:20;
#DISPLAYBPM:175;
#BPMS:0=175;
#BGCHANGES:;

//---------------dance-single - ----------------
#NOTES:
     dance-single:
     :
     Beginner:
     2:
     :
0000
0000
0000
0000
,
0000
0000
0000
0000
,
0000
0000
0000
0000
,
0000
0000
0000
0000
,
0000
0000
0000
0000
,
0002
0000
0000
0003
,
0001
0000
0000
0000
,
2000
0000
0000
3000
,
1000
0000
0000
0000
,
0010
0000
0010
0000
,
0010
0000
0000
0000
,
1000
0000
1000
0000
,
1000
0000
0000
0000
,
0001
0000
0001
0000
,
0001
0000
0000
0000
,
0100
0000
0100
0000
,
0100
0000
0000
0000
,
0001
0000
0000
0000
,
0010
0000
0000
0000
,
0100
0000
0000
0000
,
1000
0000
0000
0000
,
0001
0000
0000
0000
,
0100
0000
0000
0000
,
0010
0000
0000
0000
,
1000
0000
0001
0000
,
1000
0000
0000
0000
,
0010
0000
0000
0000
,
0100
0000
0000
0000
,
0001
0000
0000
0000
,
1000
0000
0000
0000
,
0100
0000
0000
0000
,
0010
0000
0000
0000
,
0001
0000
0000
0000
,
2000
0000
0000
3000
,
1000
0000
0000
0000
,
0001
0000
0000
0000
,
0100
0000
0000
0000
,
0002
0000
0000
0003
,
0001
0000
0000
0000
,
1000
0000
0000
0000
,
0100
0000
0000
0000
,
0020
0000
0000
0030
,
0010
0000
0000
0000
,
0001
0000
0000
0000
,
1000
0000
0000
0000
,
0010
0000
0000
0000
,
0100
0000
0000
0000
,
0001
0000
0000
0000
,
1000
0000
0000
0000
,
0001
0000
1000
0000
,
0001
0000
0000
0000
,
0010
0000
0100
0000
,
0010
0000
0000
0000
,
0001
0000
0100
0000
,
0001
0000
0000
0000
,
1000
0000
0100
0000
,
1000
0000
0000
0000
,
0010
0000
0100
0000
,
0010
0000
0000
0000
,
1000
0000
0001
0000
,
1000
0000
0000
0000
,
0001
0000
0010
0000
,
0001
0000
0000
0000
,
1000
0000
0010
0000
,
1000
0000
0000
0000
,
1001
0000
0000
0000
,
0000
0000
0000
0000
;

//---------------dance-single - ----------------
#NOTES:
     dance-single:
     :
     Easy:
     4:
     :
0000
0000
0000
0000
,
0000
0000
0000
0000
,
0000
0000
0000
0000
,
0000
0000
0000
0000
,
0000
0000
0000
0000
,
0001
0000
0100
0000
,
1000
0000
0100
0000
,
0001
0000
0100
0000
,
1000
0000
0000
0000
,
0001
0000
0010
0000
,
0100
0000
1000
0000
,
0010
0000
0100
0000
,
0001
0000
0000
0000
,
1000
0000
0010
0000
,
0100
0000
0001
0000
,
0010
0000
0100
0000
,
1000
0000
0000
0000
,
0100
0000
0010
0000
,
0001
1000
0001
0000
,
0100
0000
0010
0000
,
1000
0001
1000
0000
,
0010
0000
0100
0000
,
0001
1000
0001
0000
,
0010
0000
0100
0000
,
1000
0001
1000
0000
,
0100
0000
1000
0000
,
0001
0010
0001
0000
,
0100
0000
0001
0000
,
1000
0010
1000
0000
,
0001
0000
1000
0000
,
0100
0010
0100
0000
,
1000
0000
0001
0000
,
0100
0000
0000
0000
,
0001
0000
1000
0000
,
0001
0000
1000
0000
,
0010
0000
0100
0000
,
0001
0001
1000
1000
,
0100
0000
0010
0000
,
0100
0000
0010
0000
,
0001
0000
1000
0000
,
0100
0100
0010
0010
,
0001
0000
0100
0000
,
1000
0000
0100
0000
,
0001
0000
0100
0000
,
1000
1000
0001
0001
,
0020
0000
0030
0000
,
0002
0000
0003
0000
,
2000
0000
3000
0000
,
0200
0000
0300
0000
,
1000
0000
0010
0000
,
0100
0100
0001
0000
,
0010
0000
0100
0000
,
1000
1000
0001
0000
,
0100
0000
0010
0000
,
0100
0100
0001
0000
,
0010
0000
0001
0000
,
1000
1000
0100
0000
,
1000
0000
0010
0000
,
1000
0001
1000
0000
,
0100
0000
0010
0000
,
0001
1000
0001
0000
,
0100
0000
0010
0000
,
1000
0010
1000
0000
,
0100
0000
0010
0000
,
0001
0000
1000
0000
,
0010
0000
0000
0000
,
0000
0000
0000
0000
;

//---------------dance-single - ----------------
#NOTES:
     dance-single:
     :
     Medium:
     7:
     :
0000
0000
0000
0000
,
0000
0000
0000
0000
,
0000
0000
0000
0000
,
0000
0000
0000
0000
,
0000
0000
0000
0000
,
0100
0000
1000
0000
0001
0000
0000
0100
,
0000
0000
0001
0000
0000
0010
0000
0000
,
0100
0000
0010
0000
0001
0000
0000
1000
,
0000
0000
0000
0000
,
0010
0000
1000
0000
0001
0000
0000
1000
,
0000
0000
0100
0000
0000
0010
0000
0000
,
0001
0000
1000
0000
0001
0000
0000
0100
,
0000
0000
0000
0000
,
0010
0000
1000
0000
0100
0000
0000
1000
,
0000
0000
0010
0000
0000
0100
0000
0000
,
0001
0010
0100
1000
,
1001
0000
0000
0000
,
0001
0000
0100
0000
0010
0100
0000
0001
,
0000
0001
0000
0010
0100
0000
1000
0000
,
0010
0000
1000
0000
0100
1000
0000
0010
,
0000
0010
0000
0100
0001
0000
0010
0000
,
0001
0000
1000
0000
0100
1000
0000
0001
,
0000
0001
0000
0100
0010
0000
1000
0000
,
0100
0000
1000
0000
0001
1000
0000
0100
,
0000
0100
0000
0000
1100
0000
0101
0000
,
1000
0000
0100
0000
0010
0001
0000
0100
,
0000
0100
0000
0010
1000
0000
0100
0000
,
1000
0000
0010
0000
0100
0001
0000
0010
,
0000
0010
0000
0001
0100
0000
0010
0000
,
0100
0000
0001
0000
1000
0001
0000
0010
,
0000
0010
0000
0100
1000
0000
0001
0000
,
1000
0010
0100
0001
,
1001
0000
0000
0000
,
1000
0000
0001
0000
1000
0100
0000
0010
,
0000
0001
0000
0000
0000
0000
0000
0000
,
0100
0010
1000
0100
,
0010
0001
0100
0010
,
1000
0000
0001
0000
0010
0001
0000
0100
,
0000
0010
0000
0000
0000
0000
0000
0000
,
1000
0001
0010
0100
,
1000
0001
0010
0100
,
0010
0000
0001
0000
1000
0010
0000
1000
,
0000
0100
0000
0000
0000
0000
0000
0000
,
1000
0001
0100
0010
,
1000
0001
0100
0010
,
0100
0000
0001
0000
1000
0100
0000
0010
,
0000
0001
0000
0000
0000
0000
0000
0000
,
1000
0000
0001
0000
,
0200
0000
0000
0300
,
0010
1000
0001
0000
0010
0000
0100
0000
,
0010
0001
1000
0010
,
0100
0001
1000
0000
0100
0000
0010
0000
,
0001
1000
0001
0100
,
0001
0010
1000
0000
0010
0000
0100
0000
,
1000
0010
1000
0001
,
1000
0010
0001
0000
0010
0000
0100
0000
,
0010
1000
1100
0101
,
0001
0010
0100
0000
1000
0000
0010
0000
,
1000
0001
0010
0100
,
1000
0001
0100
0000
0010
0000
0100
0000
,
0001
1000
0001
0010
,
0001
0100
1000
0000
0100
0000
0010
0000
,
1000
0001
1000
0010
,
1000
0100
0001
0000
0100
0000
0010
0000
,
0001
0000
1000
0000
0001
0000
0000
0010
,
0100
0000
0000
0000
,
0000
0000
0000
0000
;

//---------------dance-single - ----------------
#NOTES:
     dance-single:
     :
     Hard:
     10:
     :
0000
0000
0000
0000
,
0000
0000
0000
0000
,
0000
0000
0000
0000
,
0000
0000
0000
0000
,
0000
0000
0000
0000
,
1000
0100
0010
0000
0001
0000
0000
1000
,
0000
0000
0001
0000
0000
1000
0000
0000
,
0100
1000
0010
0000
1000
0000
0000
0001
,
0000
0000
0000
0000
,
0100
0001
0010
0000
0001
0000
0001
1000
,
0000
1000
0010
0000
0010
0100
0000
0100
,
0001
1000
0010
0000
1000
0000
1000
0001
,
0000
0000
0000
0000
,
0100
0001
0010
0000
0001
0000
0001
1000
,
0000
1000
0010
0000
0010
0100
0000
0100
,
0001
0010
0100
1000
0001
0010
0100
1000
,
0020
0000
0000
0030
,
0100
0000
0101
0000
0010
1000
0100
0010
,
0000
0011
0000
0100
1000
0000
0001
0000
,
0100
0000
0110
0000
0001
1000
0010
0100
,
0000
0101
0000
0010
1000
0000
0001
0000
,
0010
0000
0110
0000
0001
1000
0100
1000
,
0000
1010
0000
0001
1000
0000
0100
0000
,
1000
0000
1001
0000
0010
1000
0001
0010
,
0000
0110
0000
1000
0001
1000
0001
1000
,
0100
0000
0110
0000
0001
0010
0100
1000
,
0000
1001
0000
0010
1000
0000
0100
0000
,
0010
0000
0011
0000
0100
0010
0001
1000
,
0000
1010
0000
0001
0100
0000
0001
0000
,
0010
0000
0110
0000
1000
0100
0001
0100
,
0000
1100
0000
0010
0001
0000
0100
0000
,
0001
0010
0100
1000
0001
0010
0100
2000
,
0000
0000
0000
3000
,
0010
0000
1000
0000
0001
0010
0000
0100
,
0000
1000
0000
0000
0001
1000
0010
0000
,
1000
0100
0010
0001
0100
0010
0100
0001
,
1000
0100
0010
0000
0001
0100
0010
0000
,
1000
0000
0010
0000
1000
0001
0000
0010
,
0000
0100
0000
0000
0010
0001
1000
0000
,
0010
1000
0100
0010
0001
0100
1000
0100
,
0001
0010
0100
0000
1000
0010
0100
0000
,
0001
0000
0010
0000
0001
1000
0000
0010
,
0000
0100
0000
0000
0001
1000
0100
0000
,
0010
0001
0010
0100
1000
0010
1000
0001
,
1000
0100
0010
0000
0001
0100
0010
0000
,
1000
0000
0100
0000
0010
0001
0000
1000
,
0000
0010
0000
0000
0000
0000
0000
0000
,
1000
0000
0000
0000
0001
2000
0000
0000
,
0001
0001
0001
3001
,
0100
0000
0110
0000
0001
0010
0100
1000
,
0000
0000
1001
0000
0000
0000
0100
0000
0010
0000
0000
0001
0000
0000
1000
0000
,
0010
0000
0110
0000
0001
1000
0100
0010
,
0000
0000
0011
0000
0000
0000
0100
0000
1000
0000
0000
0010
0000
0000
0100
0000
,
0010
0000
1010
0000
0001
0010
1000
0010
,
0000
0000
0011
0000
0000
0000
0100
0000
0010
0000
0000
0001
0000
0000
0100
0000
,
0010
0000
1010
0000
0100
0001
1000
0100
,
0000
0110
0000
0001
1000
0001
1000
0001
,
0100
0000
0110
0000
0001
0010
0100
1000
,
0000
0000
1010
0000
0000
0000
0100
0000
0001
0000
0000
0010
0000
0000
0100
0000
,
1000
0000
1010
0000
0001
0010
0100
0010
,
0000
0000
0011
0000
0000
0000
1000
0000
0010
0000
0000
1000
0000
0000
0001
0000
,
0010
0000
0110
0000
1000
0001
0100
0010
,
0000
0000
1010
0000
0000
0000
0100
0000
0001
0000
0000
0010
0000
0000
0100
0000
,
1000
0000
1001
0000
0100
0010
0001
0100
,
0000
0000
0001
0000
1000
0000
0000
0010
,
0100
0000
0000
0000
,
0000
0000
0000
0000
;

//---------------dance-single - ----------------
#NOTES:
     dance-single:
     :
     Challenge:
     13:
     :
0000
0000
0000
0000
,
0000
0000
0000
0000
,
0000
0000
0000
0000
,
0000
0000
0000
0000
,
0000
0000
0000
0000
,
1000
0001
0100
0000
0100
0000
0001
1000
,
0000
1000
0100
0000
0100
0010
0000
0010
,
0001
1000
0010
0000
0010
0000
1000
0100
,
0002
1000
0200
0303
,
0010
1000
0100
0000
1100
0000
0001
0011
,
0000
1000
1010
0000
0100
0101
0000
0001
,
0010
0100
1000
0000
1001
0000
0001
0100
,
0110
0000
1000
0010
1000
0001
0100
0000
,
0001
0010
0100
0000
1100
0000
1000
1010
,
0000
0100
0101
0000
0010
0011
0000
0001
,
1000
1000
0001
0001
0100
0100
0010
0010
,
1000
0000
0110
0000
1001
0001
1000
0100
,
0011
0000
1100
0000
0001
0100
0010
0100
,
0001
0010
0100
1000
0001
0000
0100
0000
,
1010
0000
0101
0000
1000
0010
1000
0001
,
0010
0100
1000
0010
0100
0000
0001
0000
,
0101
0000
1100
0000
0010
1000
0100
0010
,
0001
0100
0001
1000
0100
0000
0010
0000
,
0011
0000
1010
0000
1000
0100
0010
0001
,
0000
0100
0000
0001
1000
1000
0001
0001
,
0110
0000
1001
0000
0100
0001
0010
0100
,
1000
0010
1000
0001
0010
0000
0100
0000
,
1001
0000
0110
0000
1000
0010
1000
0001
,
0010
0001
0100
0010
1000
0000
0001
0000
,
1100
0000
1010
0000
0010
1000
0001
1000
,
0100
0010
0001
0100
1000
0000
0001
0000
,
0101
0000
0011
0000
0100
0001
1000
0010
,
0000
0100
1001
0000
0110
0000
0001
1000
,
0100
0000
1000
0000
0001
0100
0000
0010
,
1000
0100
0001
0100
1000
0010
0100
0001
,
0020
0000
0000
0000
0031
0000
0000
1000
0002
0000
0100
0000
0103
0000
0010
0000
,
1000
0000
0001
0000
0010
0000
0000
0001
0100
0000
0010
0000
1000
0000
0000
0000
,
0100
0000
0010
0000
0001
1000
0001
0100
,
0010
0001
0010
1000
0100
0010
0001
0100
,
0020
0000
0000
0000
1030
0000
0000
0001
2000
0000
0100
0000
3100
0000
0010
0000
,
0001
0100
1010
0000
0101
0010
1000
0001
,
0010
0000
0001
0000
1000
0001
0010
0100
,
1000
0010
0001
0010
0100
1000
0100
0001
,
0020
0000
0000
0000
0130
0000
0000
1000
0002
0000
0100
0000
0103
0000
0010
0000
,
1000
0000
0001
0000
0010
0000
0001
0100
0001
0000
1000
0000
0010
0100
0010
0000
,
1000
0000
0001
0000
0010
0100
0000
0110
,
0000
1001
0000
1000
0001
0000
0100
0000
,
0002
0000
0000
0000
1003
0000
0000
0010
2000
0000
0100
0000
3100
0000
0010
0000
,
0001
0011
1100
1000
,
1010
0000
0011
0000
1000
0001
0010
0100
,
1000
0000
0010
0000
0100
0000
0001
0000
0010
0000
0100
1000
0000
0100
1000
0000
,
1001
0000
1100
0000
1000
0010
0100
0001
,
0010
0000
0100
0000
1000
0000
0001
0000
0010
0000
0001
0100
0000
0001
0100
0000
,
0101
0000
0110
0000
1000
0001
1000
0010
,
0100
0000
0001
0000
0010
0000
0100
0000
1000
0000
0001
1000
0000
0001
1000
0000
,
1001
0000
0110
0000
1000
0010
1000
0001
,
0010
0100
1000
0001
0100
0100
0010
0010
,
1010
0000
1100
0000
0010
0001
0100
0001
,
0010
0000
0100
0000
1000
0000
0010
0000
1000
0000
0001
0100
0000
0001
0100
0000
,
0101
0000
0011
0000
1000
0010
0100
0001
,
0010
0000
1000
0000
0010
0000
0001
0000
0100
0000
0010
1000
0000
0010
1000
0000
,
1100
0000
0011
0000
1000
0001
0010
0100
,
0010
0000
0001
0000
1000
0000
0001
0000
0100
0000
0010
1000
0000
0010
1000
0000
,
1010
0000
0101
0000
1000
0100
0010
0001
,
0000
0100
0110
0000
1001
1000
0001
0010
,
0100
0000
0000
0000
;

//---------------dance-double - ----------------
#NOTES:
     dance-double:
     :
     Easy:
     4:
     :
00000000
00000000
00000000
00000000
,
00000000
00000000
00000000
00000000
,
00000000
00000000
00000000
00000000
,
00000000
00000000
00000000
00000000
,
00000000
00000000
00000000
00000000
,
00001000
00000000
00010000
00000000
,
00001000
00000000
00010000
00000000
,
00000100
00000000
00000010
00000000
,
00000100
00000000
00000000
00000000
,
00001000
00000000
00000001
00000000
,
00001000
00000000
00000001
00000000
,
00000100
00000000
00000010
00000000
,
00000100
00000000
00000000
00000000
,
00000010
00000000
00001000
00000000
,
00000010
00000000
00001000
00000000
,
00000100
00000000
00010000
00000000
,
00000100
00000000
00000000
00000000
,
00010000
00000000
00001000
00000000
,
00010000
01000000
10000000
00000000
,
00100000
00000000
10000000
00000000
,
01000000
00100000
00010000
00000000
,
01000000
00000000
00001000
00000000
,
00010000
00000100
00001000
00000000
,
00000010
00000000
00001000
00000000
,
00000001
00000100
00001000
00000000
,
00010000
00000000
00001000
00000000
,
00010000
00100000
10000000
00000000
,
01000000
00000000
00100000
00000000
,
00010000
00100000
00001000
00000000
,
00010000
00000000
00000010
00000000
,
00001000
00000100
00010000
00000000
,
00000100
00000000
00000010
00000000
,
00000100
00000000
00000000
00000000
,
00000001
00000000
00000010
00000000
,
00000100
00000000
00001000
00000000
,
00000001
00000000
00000100
00000000
,
00001000
00001000
00010000
00010000
,
00001000
00000000
00100000
00000000
,
00010000
00000000
01000000
00000000
,
00100000
00000000
10000000
00000000
,
00010000
00010000
10000000
10000000
,
00010000
00000000
00100000
00000000
,
01000000
00000000
00100000
00000000
,
00001000
00000000
00010000
00000000
,
00000100
00000100
00000010
00000010
,
00000200
00000000
00000300
00000000
,
00020000
00000000
00030000
00000000
,
00002000
00000000
00003000
00000000
,
02000000
00000000
03000000
00000000
,
00100000
00000000
10000000
00000000
,
01000000
01000000
01000000
00000000
,
00100000
00000000
00001000
00000000
,
00010000
00010000
00010000
00000000
,
00000010
00000000
00001000
00000000
,
00000100
00000100
00000100
00000000
,
00000010
00000000
00000001
00000000
,
00000100
00000100
00000100
00000000
,
00000010
00000000
00010000
00000000
,
00001000
00010000
00001000
00000000
,
01000000
00000000
00010000
00000000
,
00100000
01000000
00100000
00000000
,
00001000
00000000
01000000
00000000
,
00010000
10000000
00010000
00000000
,
00100000
00000000
10000000
00000000
,
01000000
00000000
00010000
00000000
,
00001000
00000000
00000000
00000000
,
00000000
00000000
00000000
00000000
;

//---------------dance-double - ----------------
#NOTES:
     dance-double:
     :
     Medium:
     7:
     :
00000000
00000000
00000000
00000000
,
00000000
00000000
00000000
00000000
,
00000000
00000000
00000000
00000000
,
00000000
00000000
00000000
00000000
,
00000000
00000000
00000000
00000000
,
00000010
00000000
00001000
00000000
00000001
00000000
00000000
00000010
,
00000000
00000000
00000001
00000000
00000000
00000100
00000000
00000000
,
00001000
00000000
00010000
00000000
00000100
00000000
00000000
00010000
,
00000000
00000000
00000000
00000000
,
00001000
00000000
01000000
00000000
00010000
00000000
00000000
00100000
,
00000000
00000000
01000000
00000000
00000000
10000000
00000000
00000000
,
00100000
00000000
10000000
00000000
01000000
00000000
00000000
00100000
,
00000000
00000000
00000000
00000000
,
00001000
00000000
00100000
00000000
00010000
00000000
00000000
01000000
,
00000000
00000000
00001000
00000000
00000000
00010000
00000000
00000000
,
00000100
00000010
00000001
00000100
,
00001001
00000000
00000000
00000000
,
00000010
00000000
00010000
00000000
00000100
00001000
00000000
00000001
,
00000000
00000001
00000000
00000010
00000100
00000000
00010000
00000000
,
00001000
00000000
01000000
00000000
00100000
10000000
00000000
01000000
,
00000000
01000000
00000000
10000000
00010000
00000000
00100000
00000000
,
00001000
00000000
01000000
00000000
00100000
10000000
00000000
00010000
,
00000000
00010000
00000000
00100000
00001000
00000000
00010000
00000000
,
00000010
00000000
00001000
00000000
00000001
00000010
00000000
00000100
,
00000000
00000100
00000000
00000000
00001100
00000000
00000101
00000000
,
00001000
00000000
00000010
00000000
00010000
00001000
00000000
00100000
,
00000000
00100000
00000000
00010000
01000000
00000000
00100000
00000000
,
10000000
00000000
01000000
00000000
00010000
00001000
00000000
01000000
,
00000000
01000000
00000000
00001000
00010000
00000000
00001000
00000000
,
00000100
00000000
00000001
00000000
00000010
00000100
00000000
00010000
,
00000000
00010000
00000000
00001000
00010000
00000000
00000010
00000000
,
00001000
00000100
00010000
00001000
,
00011000
00000000
00000000
00000000
,
00010000
00000000
01000000
00000000
10000000
00100000
00000000
01000000
,
00000000
00010000
00000000
00000000
00000000
00000000
00000000
00000000
,
00100000
00010000
01000000
00100000
,
10000000
01000000
00010000
00001000
,
00010000
00000000
00000100
00000000
00000010
00000001
00000000
00001000
,
00000000
00000100
00000000
00000000
00000000
00000000
00000000
00000000
,
00000010
00000001
00000100
00000010
,
00000100
00000001
00000010
00001000
,
00010000
00000000
00001000
00000000
00100000
00010000
00000000
10000000
,
00000000
00100000
00000000
00000000
00000000
00000000
00000000
00000000
,
01000000
00100000
10000000
00010000
,
10000000
00100000
00010000
00001000
,
00100000
00000000
01000000
00000000
10000000
01000000
00000000
00010000
,
00000000
00001000
00000000
00000000
00000000
00000000
00000000
00000000
,
00000100
00000000
00000001
00000000
,
00000020
00000000
00000000
00000030
,
00000001
00000100
00000001
00000000
00000010
00000000
00000100
00000000
,
00010000
00001000
01000000
00001000
,
00100000
00010000
00100000
00000000
01000000
00000000
10000000
00000000
,
00100000
00010000
00001000
00100000
,
00001000
00010000
00001000
00000000
01000000
00000000
00100000
00000000
,
10000000
01000000
00010000
00001000
,
00010000
00000100
00010000
00000000
00000010
00000000
00000100
00000000
,
00000001
00000010
00001100
00000101
,
00000010
00010000
00001000
00000000
00010000
00000000
00000100
00000000
,
00000010
00000001
00000100
00001000
,
00010000
00001000
01000000
00000000
00100000
00000000
00010000
00000000
,
00001000
00100000
01000000
00100000
,
00010000
01000000
00100000
00000000
10000000
00000000
01000000
00000000
,
00100000
00001000
01000000
00100000
,
10000000
01000000
00010000
00000000
00001000
00000000
00000100
00000000
,
00000001
00000000
00000010
00000000
00000100
00000000
00000000
00001000
,
00000001
00000000
00000000
00000000
,
00000000
00000000
00000000
00000000
;

//---------------dance-double - ----------------
#NOTES:
     dance-double:
     :
     Hard:
     11:
     :
00000000
00000000
00000000
00000000
,
00000000
00000000
00000000
00000000
,
00000000
00000000
00000000
00000000
,
00000000
00000000
00000000
00000000
,
00000000
00000000
00000000
00000000
,
00010000
01000000
00100000
00000000
10000000
00000000
00000000
00010000
,
00000000
00000000
01000000
00000000
00000000
00100000
00000000
00000000
,
00010000
00001000
00100000
00000000
00001000
00000000
00000000
00010000
,
00000000
00000000
00000000
00000000
,
00000010
00001000
00000100
00000000
00000010
00000000
00000001
00000100
,
00000000
00000010
00000100
00000000
00000001
00000100
00000000
00000001
,
00000010
00000100
00010000
00000000
00001000
00000000
01000000
00100000
,
00000000
00000000
00000000
00000000
,
01000000
00001000
00100000
00000000
01000000
00000000
10000000
00100000
,
00000000
01000000
00100000
00000000
10000000
00100000
00000000
01000000
,
00100000
10000000
01000000
10000000
00010000
00100000
00001000
00010000
,
00002000
00000000
00000000
00003000
,
00010000
00000100
00000010
00000000
00000001
00000100
00000001
00001000
,
00000000
00000010
00000000
00010000
00001000
00010000
00000100
00000000
,
00000010
00000001
00000100
00000000
00000010
00010000
00001000
00010000
,
00000000
00000100
00000000
00010000
00001000
00100000
01000000
00000000
,
10000000
00010000
01000000
00000000
00100000
10000000
01000000
00010000
,
00000000
00001000
00000000
01000000
00100000
10000000
01000000
00000000
,
10000000
00100000
00010000
00000000
00001000
00010000
00000010
00001000
,
00000000
00000100
00000000
00000010
00000010
00000010
00000010
00000010
,
00000100
00001000
00000001
00000000
00000010
00000001
00000100
00001000
,
00000000
00010000
00000000
00000100
00000010
00000100
00010000
00000000
,
00001000
01000000
00010000
00000000
01000000
00100000
10000000
01000000
,
00000000
00100000
00000000
00001000
00010000
00100000
10000000
00000000
,
01000000
00100000
00001000
00000000
00010000
00000010
00000100
00000001
,
00000000
00000010
00000000
00000001
00000100
00001000
00010000
00000000
,
00001000
00100000
01000000
00100000
00001000
00010000
00001000
02000000
,
00000000
00000000
00000000
03000000
,
00010000
00000000
10000000
00000000
01000000
00010000
00000000
00001000
,
00000000
00200000
00000000
00000000
00000000
00000000
00300000
00000000
,
00001000
00010000
00100000
00010000
00001000
00100000
00010000
01000000
,
00100000
10000000
00010000
00100000
00010000
01000000
00001000
00000000
,
00010000
00000000
00001000
00000000
00000100
00000001
00000000
00000010
,
00000000
00000200
00000000
00000000
00000000
00000000
00000300
00000000
,
00001000
00000001
00000010
00001000
00010000
00000010
00010000
00001000
,
00000100
00001000
00010000
00000100
00000010
00000001
00000100
00000000
,
00000010
00000000
00000100
00000000
00000001
00000010
00000000
00000100
,
00000000
00020000
00000000
00000000
00000000
00000000
00030000
00000000
,
00000010
00010000
00001000
00100000
00001000
00010000
01000000
00010000
,
00001000
01000000
00001000
00100000
00010000
01000000
00100000
00000000
,
10000000
00000000
01000000
00000000
00100000
00001000
00000000
00010000
,
00000000
00002000
00000000
00000000
00000000
00000000
00003000
00000000
,
00010000
00000000
00000000
00000000
00000100
00020000
00000000
00000000
,
00001000
01000000
00001000
01030000
,
10000000
00100000
01000000
00001000
00010000
00100000
10000000
01000000
,
00000000
00000000
00100000
00000000
00000000
00000000
01000000
00000000
00010000
00000000
00000000
01000000
00000000
00000000
10000000
00000000
,
00100000
01000000
00001000
00100000
00010000
00100000
00001000
00010000
,
00000000
00000000
00000010
00000000
00000000
00000000
00000100
00000000
00001000
00000000
00000000
00000100
00000000
00000000
00000001
00000000
,
00000010
00000100
00000010
00000001
00001000
00000010
00010000
00000010
,
00000000
00000000
00000100
00000000
00000000
00000000
00000001
00000000
00000010
00000000
00000000
00001000
00000000
00000000
00010000
00000000
,
00001000
01000000
00100000
10000000
01000000
00010000
00001000
01000000
,
00000000
00100000
00000000
10000000
10000000
10000000
10000000
10000000
,
01000000
00100000
00001000
00100000
00010000
01000000
00001000
00010000
,
00000000
00000000
00000100
00000000
00000000
00000000
00000010
00000000
00000001
00000000
00000000
00000100
00000000
00000000
00001000
00000000
,
00010000
00000100
00000010
00000100
00000001
00000100
00001000
00000001
,
00000000
00000000
00000100
00000000
00000000
00000000
00000010
00000000
00000100
00000000
00000000
00000001
00000000
00000000
00000010
00000000
,
00001000
00010000
00001000
01000000
00100000
00010000
00001000
00100000
,
00000000
00000000
01000000
00000000
00000000
00000000
10000000
00000000
00010000
00000000
00000000
01000000
00000000
00000000
00100000
00000000
,
10000000
01000000
00010000
01000000
00100000
00001000
00010000
00000010
,
00000000
00000000
00000100
00000000
00000010
00000000
00000000
00010000
,
00001000
00000000
00000000
00000000
,
00000000
00000000
00000000
00000000
;
