#VERSION:0.83;
#TITLE:Drive in Sunday;
#SUBTITLE:;
#ARTIST:Tomoyuki Uchida;
#TITLETRANSLIT:;
#SUBTITLETRANSLIT:;
#ARTISTTRANSLIT:;
#GENRE:;
#ORIGIN:;
#TAGS:;
#CREDIT:;
#BANNER:Drive in Sunday-bn.png;
#BACKGROUND:Drive in Sunday-bg.png;
#PREVIEWVID:;
#JACKET:Drive in Sunday-jacket.png;
#CDIMAGE:;
#DISCIMAGE:;
#LYRICSPATH:;
#CDTITLE:;
#MUSIC:Drive in Sunday.ogg;
#OFFSET:0.000000;
#SAMPLESTART:74.634003;
#SAMPLELENGTH:20.000000;
#SELECTABLE:YES;
#DISPLAYBPM:123.000000;
#BPMS:0.000000=123.000000;
#STOPS:;
#DELAYS:;
#WARPS:;
#TIMESIGNATURES:0.000000=4=4;
#TICKCOUNTS:0.000000=4;
#COMBOS:0.000000=1;
#SPEEDS:0.000000=1.000000=0.000000=0;
#SCROLLS:0.000000=1.000000;
#FAKES:;
#LABELS:0.000000=Song Start;
#BGCHANGES:;
#KEYSOUNDS:;
#ATTACKS:
;

//---------------dance-single - ----------------
#NOTEDATA:;
#CHARTNAME:;
#CHARTHASH:1476191990:
#STEPSTYPE:dance-single;
#BANNER:;
#DESCRIPTION:;
#CHARTSTYLE:;
#DIFFICULTY:Hard;
#METER:15;
#METERF:0.000000;
#RADARVALUES:0.678271,0.714706,0.470588,0.403361,0.869748,565.000000,509.000000,56.000000,48.000000,0.000000,0.000000,0.000000,0.000000,0.000000,0.678271,0.714706,0.470588,0.403361,0.869748,565.000000,509.000000,56.000000,48.000000,0.000000,0.000000,0.000000,0.000000,0.000000;
#CREDIT:;
#DISPLAYBPM:123.000000;
#NOTES:
0000
0000
0000
0000
,
0000
0000
0000
0000
,
0000
0000
0000
0000
,
0000
0000
0000
0000
,
0010
0000
1000
0010
0000
0100
0001
0100
0002
0000
0023
0000
0230
0000
2300
0000
,
3010
0000
1000
0001
0000
0000
0010
0100
0020
0000
0032
0000
2003
0000
3200
0000
,
1300
0000
0000
1100
0000
0000
0101
0000
0000
0010
0000
0010
0010
0000
0100
0000
,
0001
0000
0010
0000
0100
1000
0000
0001
0000
0001
0100
0000
0010
1000
0001
0000
,
1000
0000
0100
0010
0000
0010
0001
0000
0001
0100
0000
0100
0010
0000
1000
0000
,
0001
0000
1000
0100
0000
1000
0000
0010
0100
0001
0100
0001
1000
0000
0010
0000
,
0100
0000
1001
0000
0001
1000
0000
0020
0000
1030
0002
0000
0203
0000
0320
0000
,
1030
0000
1000
0000
0001
0010
0000
0100
0000
0100
1000
0000
0010
0100
0001
0000
,
0010
0000
0001
1000
0000
1000
0010
0000
0100
0000
0002
0000
2003
0000
3200
0000
,
0310
0000
0001
0200
0000
0010
0000
0310
1000
0001
1000
0001
1000
0000
0100
0000
,
1000
0000
0110
0000
0001
0100
0000
0020
0000
1030
0002
0000
2003
0000
3200
0000
,
0310
0000
0001
1000
0000
0010
0000
1000
0000
0001
0000
0100
0020
0000
2030
0000
,
3100
0000
1000
0001
0000
0001
0100
0000
0100
0010
0000
0010
1000
0000
0001
0000
,
1000
0000
0100
0010
0000
0001
0000
0100
0000
0001
0000
1000
0010
0000
0100
0000
,
0101
0000
0000
1010
0000
0000
1100
0000
0000
0011
0000
0000
1000
0000
0001
0000
,
1002
0000
0000
0103
0000
0000
0110
0000
1000
0000
0001
0000
0001
0100
0000
0000
,
1010
0000
0000
0101
0000
0000
1100
0000
0001
0000
0100
0000
0200
0010
0000
0000
,
0301
0000
0000
0000
1000
0000
0010
0000
0000
0000
1000
0000
0000
0000
0100
0000
0010
0000
0000
0000
0001
0000
0000
0000
0011
0000
0000
0000
0000
0000
1000
0001
,
1000
0000
0000
0000
0001
0000
0000
0000
0100
0000
0000
0000
0000
0000
0000
0000
0001
0000
0000
0000
1000
0000
0000
0000
0100
0000
0000
0000
0000
0000
0000
0000
0000
0010
0000
0000
0010
0000
0000
0000
0000
0000
0001
0000
0000
0000
0000
0000
,
0100
0000
0010
0000
0010
1000
0000
0001
0000
1000
0010
0000
0100
0001
0010
0000
,
0100
0000
1000
0001
0000
1000
0010
0000
0100
0001
0000
0010
0100
0000
1000
0000
,
0001
0000
1000
0010
0000
0100
0000
0010
1000
0001
1000
0001
0100
0000
0010
0000
,
1000
0000
1100
0000
0001
1000
0000
0020
0000
0130
0002
0000
2003
0000
3200
0000
,
0310
0000
0001
0000
1000
0010
0000
0010
0000
1000
0100
0000
1000
0001
0100
0000
,
0010
0000
1000
0001
0000
0010
0100
0000
1000
0000
0020
0000
0230
0000
0302
0000
,
2003
0000
3100
0010
0000
0001
0000
1000
0001
0100
0001
0100
0010
0000
1000
0000
,
0100
0000
0011
0000
0100
0001
0000
2000
0000
3010
0200
0000
0320
0000
2030
0000
,
3001
0000
1000
0010
0000
0100
0000
0010
0000
1000
0000
0001
1000
0000
0100
0000
,
0110
0000
0000
0011
0000
0000
0101
0000
0000
1100
0000
0000
0010
0000
0100
0000
,
0010
0000
1000
0001
0000
0010
0000
0001
0000
0100
0000
0010
1000
0000
0100
0000
,
1100
0000
0000
0110
0000
0000
0011
0000
0000
1001
0000
0000
0100
0000
0010
0000
,
1010
0000
0000
1100
0000
0000
0101
0000
1000
0000
0001
0000
1000
0100
0000
0000
,
0110
0000
0000
0011
0000
0000
1001
0000
0100
0000
0010
0000
1000
0010
0000
0000
,
0100
0000
0000
0000
0001
0000
0010
0000
0000
0000
0001
0000
0000
0000
1000
0000
0100
0000
0010
0000
0001
0000
0000
0000
0100
0000
0000
0000
0000
0000
0001
1000
,
0001
1020
2030
3001
,
1001
0000
1001
0000
1000
0010
0000
0100
0000
0001
1000
0000
0100
0000
0010
0000
,
0011
0000
0000
1100
0000
0000
0101
0000
1000
0001
0000
0001
0100
0000
0010
0000
,
1000
0000
0100
0000
0100
0010
0000
0001
0000
0100
0000
0001
1000
0000
0100
0000
,
1000
0000
0010
0100
0000
0100
0001
0000
1000
0010
0000
1000
0010
0000
0100
0000
,
0001
0000
0010
0100
0000
0100
1000
0000
0010
0000
1000
0001
0000
0001
0100
0000
,
0010
0000
1000
0001
0000
1000
0100
0000
0010
0001
0000
0001
0100
0000
0010
0000
,
1000
0000
0000
0000
0100
0000
0000
0000
0100
0000
0010
0000
0000
0000
0001
0000
0000
0000
1000
0000
0010
0000
0000
0000
0100
0000
0000
0000
0000
0000
0001
1000
,
0001
2100
3002
0103
,
0010
0000
0110
0000
1000
0001
0000
0010
0000
0010
0000
0001
0100
0000
1000
0000
,
0010
0000
1000
0001
0000
0001
0010
0000
0100
1000
0000
1000
0010
0000
0100
0000
,
0001
0000
0001
0000
0001
1000
0000
0010
0000
1000
0000
0100
0010
0000
0001
0000
,
0100
0000
0010
1000
0000
0010
1000
0000
0001
0010
0000
0001
0100
0000
0010
0000
,
1000
0000
0100
1000
0000
1000
0001
0000
0100
0000
0010
1000
0000
0001
0100
0000
,
0110
0000
0000
0000
0000
0000
0000
0000
0000
1001
0000
0000
0000
0000
0000
0000
0000
0000
1000
0000
0001
0000
1000
0000
0001
0000
0000
0100
0000
0000
0000
0000
0000
0100
0000
0000
0010
0000
0000
0000
0000
0000
1000
0000
0000
0000
0000
0000
,
1100
0000
0000
1100
0000
1000
0001
0000
0200
0000
0000
0320
0000
0000
1030
0000
,
1001
0101
1010
0011
,
1100
0000
0001
0000
0001
0000
0000
0000
1001
0000
0000
1001
0000
0000
1001
0000
,
0000
0000
0110
0000
0110
0000
0000
1000
0001
0000
1000
0001
0000
1000
0001
0100
,
0010
1000
0010
1000
0010
1000
0010
1000
0010
1000
0000
0002
0000
0013
0001
0100
,
0001
0010
0100
1000
0000
0010
0100
0020
0000
2030
0000
3002
0000
0203
0020
0300
,
0000
1030
0100
0010
0001
0010
0100
1000
0000
0001
1000
0010
0100
0000
0100
0000
,
0101
0000
0000
0000
0000
0000
0000
0000
0000
1100
0000
0000
0000
0000
0000
0000
0000
0000
0101
0000
0000
0000
0000
0000
1000
0000
0001
0000
1000
0000
0001
0000
0000
0000
0000
0000
0110
0000
0000
0000
0000
0000
0000
0000
0000
0000
0000
0000
;

//---------------dance-single - ----------------
#NOTEDATA:;
#CHARTNAME:;
#CHARTHASH:0:
#STEPSTYPE:dance-single;
#BANNER:;
#DESCRIPTION:;
#CHARTSTYLE:;
#DIFFICULTY:Medium;
#METER:12;
#METERF:0.000000;
#RADARVALUES:0.501801,0.536029,0.336134,0.554622,0.378151,418.000000,378.000000,40.000000,66.000000,0.000000,0.000000,0.000000,0.000000,0.000000,0.501801,0.536029,0.336134,0.554622,0.378151,418.000000,378.000000,40.000000,66.000000,0.000000,0.000000,0.000000,0.000000,0.000000;
#CREDIT:;
#DISPLAYBPM:123.000000;
#NOTES:
0000
0000
0000
0000
,
0000
0000
0000
0000
,
0000
0000
0000
0000
,
0000
0000
0000
0000
,
0010
0000
0100
0000
0001
0000
1000
0001
1000
0000
0010
0000
0100
0000
0001
0000
,
0020
0000
1000
0000
1030
0000
0001
1000
0002
0000
0100
0000
0103
0000
0010
0000
,
1010
0000
0000
1010
0000
0000
1010
0000
0000
0000
0000
0000
0000
0000
0100
0000
,
1001
0000
0010
0000
1000
0000
0100
0000
0010
0000
0001
0000
1000
0100
1000
0000
,
0020
0000
0000
0230
0000
0000
0302
0000
0000
2003
0000
0000
3010
0000
1000
0000
,
0001
0000
0010
0000
0100
0000
0000
0000
1000
0001
1000
0001
0000
0000
0000
0000
,
0000
0000
0110
0000
0100
0010
0000
2000
0000
0000
0001
0000
3002
0000
0103
0000
,
0110
0000
0001
0000
1000
0000
0100
0000
1000
0000
0010
0000
0100
0001
0100
0000
,
0002
0000
0000
0023
0000
0000
0230
0000
0000
0000
1300
0000
0010
0000
0100
0000
,
0001
0000
1000
0200
0000
0000
0000
0000
1300
0001
1000
0001
0000
0000
0000
0000
,
0000
0000
1000
0000
1000
0001
0000
0020
0000
0000
0100
0000
0130
0000
1000
0000
,
0001
0100
0010
0100
1000
0100
0001
1000
,
0020
0000
0000
1000
0000
0000
0001
0000
0000
1030
0000
0000
0010
0000
0100
0000
,
0001
0010
1000
0010
0100
0010
1000
0010
,
0002
0000
0000
0203
0000
0000
0320
0000
0000
2030
0000
0000
3010
0000
0100
0000
,
0002
0000
0000
2003
0000
0000
3200
0000
0000
0000
0010
0000
0310
0100
0000
0000
,
2000
0000
0000
3020
0000
0000
0230
0000
0000
0000
0001
0000
0301
1000
0000
0000
,
1010
0000
0010
0000
1000
0000
0001
0000
0010
0000
0100
0000
1100
0000
0000
0001
,
1000
0000
0000
0000
1100
0000
0000
0000
0001
0000
0000
0000
0101
0000
0000
0000
0000
0000
0000
0000
0000
0100
0000
0000
,
1001
0000
0010
0000
1000
0000
0001
0000
1000
0000
0100
0000
0010
0001
0010
0000
,
0200
0000
0000
2300
0000
0000
3020
0000
0000
0230
0000
0000
0301
0000
1000
0000
,
0010
0000
1000
0000
0001
0100
0000
0000
0001
1000
0001
1000
0000
0000
0000
0000
,
0000
0000
0010
0000
0010
1000
0000
0002
0000
0000
1000
0000
2003
0000
3100
0000
,
0110
0000
0010
0000
0100
0000
1000
0000
0001
0000
0100
0000
0001
1000
0001
0000
,
0020
0000
0000
0032
0000
0000
2003
0000
0000
0000
3001
0000
0100
0000
0010
0000
,
1000
0000
0100
0020
0000
0000
0000
0000
0031
1000
0001
1000
0000
0000
0000
0000
,
0000
0000
0010
0000
0010
1000
0000
0002
0000
0000
0100
0000
0203
0000
0310
0000
,
1000
0001
0010
1000
0010
0100
0010
0001
,
0200
0000
0000
0320
0000
0000
2030
0000
0000
3002
0000
0000
0013
0000
0100
0000
,
0001
0100
1000
0010
1000
0001
0100
0010
,
2000
0000
0000
3002
0000
0000
0023
0000
0000
0230
0000
0000
1300
0000
0010
0000
,
0200
0000
0000
0302
0000
0000
2003
0000
0000
0000
0010
0000
3010
0100
0000
0000
,
0020
0000
0000
2030
0000
0000
3200
0000
0000
0000
0001
0000
0301
0100
0000
0000
,
1100
0000
0001
0000
1000
0000
0010
0000
0100
0000
0001
0000
0011
0000
0000
1000
,
0001
0102
1003
2100
,
0000
0000
0001
0000
3001
1000
0000
0010
0000
0200
0000
0000
0310
0000
1000
0000
,
0001
0000
0000
0011
0000
0000
2100
0000
0000
3001
0000
0000
1000
0000
0100
0000
,
0000
0000
0010
0000
0010
0001
0000
1000
0000
0002
0000
0000
0103
0000
0010
0000
,
1000
0000
0000
1010
0000
0000
0102
0000
0000
0000
0000
0000
0013
0000
0100
0000
,
1000
0000
0000
0001
0000
0000
0100
0000
0010
0000
0000
1000
0000
0000
0001
0000
,
1000
0000
0000
0010
0000
0100
0000
0000
0110
0000
0000
0000
0001
0000
1000
0000
,
0000
0000
1001
0000
0010
1000
0000
0001
0000
0010
0000
0000
0100
0000
0000
1000
,
0001
1000
1010
0011
,
0000
0000
0100
0000
0100
0010
0000
1000
0000
0002
0000
0000
1003
0000
0010
0000
,
0100
0000
0000
0101
0000
0000
1200
0000
0000
0310
0000
0000
1000
0000
0001
0000
,
0000
0000
0010
0000
0010
0100
0000
1000
0000
0002
0000
0000
1003
0000
0010
0000
,
0100
0000
0000
1010
0000
0000
0012
0000
0000
0000
0000
0000
1003
0000
0001
0000
,
0010
0000
0000
0001
0000
0000
1000
0000
0010
0000
0000
1000
0000
0200
0000
0000
,
2300
0000
0000
3002
0000
0000
0103
0000
0020
0000
0000
0000
0130
0000
0001
0000
,
1001
0000
0000
1001
0000
0000
0001
0000
1000
0000
0000
0010
0000
0000
0100
0000
,
0001
0011
1100
0101
,
2010
0000
0001
0000
0001
0000
0000
0000
0001
0000
0000
0001
0000
0000
3001
0000
,
0000
0000
0100
0000
0200
0000
0000
0000
0010
0000
0000
0010
0000
0000
0310
0000
,
1000
0000
0001
0000
0010
0000
0100
0000
1000
0000
0000
1010
0000
0000
0001
0000
,
1000
0001
1000
0010
0100
0001
0010
0100
,
0000
0000
1000
0000
0001
0000
0010
0100
0000
0010
0100
0000
1000
0000
0001
0000
,
0101
0000
0000
0101
0000
0000
0101
0000
0000
0000
1001
0000
0110
0000
0000
0000
;

//---------------dance-single - ----------------
#NOTEDATA:;
#CHARTNAME:;
#CHARTHASH:0:
#STEPSTYPE:dance-single;
#BANNER:;
#DESCRIPTION:;
#CHARTSTYLE:;
#DIFFICULTY:Easy;
#METER:8;
#METERF:0.000000;
#RADARVALUES:0.344538,0.382878,0.235294,0.151261,0.012605,287.000000,259.000000,28.000000,18.000000,0.000000,0.000000,0.000000,0.000000,0.000000,0.344538,0.382878,0.235294,0.151261,0.012605,287.000000,259.000000,28.000000,18.000000,0.000000,0.000000,0.000000,0.000000,0.000000;
#CREDIT:;
#DISPLAYBPM:123.000000;
#NOTES:
0000
0000
0000
0000
,
0000
0000
0000
0000
,
0000
0000
0000
0000
,
0000
0000
0000
0000
,
0010
0000
0000
0100
0001
0010
0100
1000
,
0020
0000
0030
1000
0002
0000
0003
0000
,
1000
0000
0000
1000
0000
0000
1000
0000
0000
0000
0000
0000
0000
0000
0010
0000
,
0100
0000
0001
0000
1000
0000
0010
0100
,
0001
0000
1000
0000
0010
0000
1000
0100
,
0010
0000
0001
0000
1001
0010
0100
0000
,
0000
1000
0001
0000
1000
0000
0010
0100
,
0001
0000
0010
0000
1000
0000
0001
0100
,
0010
0000
0100
0000
0001
0000
0010
0100
,
1000
0001
1000
0000
0110
0001
1000
0000
,
0000
0010
0100
0000
0001
0000
1000
0100
,
1000
0010
0100
0001
,
0010
0100
1000
0010
,
1000
0001
1000
0100
,
0010
0001
0100
0010
,
1001
0001
0100
0010
,
0110
1000
0100
0001
,
1001
0001
0100
1000
,
0110
0000
0000
0000
1001
0000
0000
1000
,
0001
0000
0010
0000
1000
0000
0010
0100
,
0010
0000
1000
0000
0100
0000
1000
0001
,
0010
0000
0100
0000
0110
0001
1000
0000
,
0000
0010
1000
0000
0100
0000
1000
0001
,
0010
0000
0100
0000
1000
0000
0010
0100
,
0001
0000
0010
0000
0001
0000
0100
1000
,
0010
1000
0010
0000
1001
0010
0100
0000
,
0000
0001
0010
0000
0001
0000
0100
0010
,
1000
0001
0010
0100
,
1000
0001
1000
0010
,
0100
0010
1000
0001
,
0010
0100
0010
0001
,
0110
1000
0010
0100
,
1001
0010
0100
0001
,
0110
1000
0001
0100
,
1001
0020
0230
0320
,
0130
0000
0001
0010
1000
0000
0010
0100
,
0002
2003
0010
0100
,
3001
0000
0010
0001
1000
0000
0010
0100
,
0020
2030
0100
3001
,
1100
0001
0101
1000
,
1100
0000
0101
0000
1100
0000
0010
0100
,
0000
0100
0001
0000
0010
0000
0100
0000
,
1000
0020
0230
0320
,
0130
0000
0001
1000
0100
0000
0010
0100
,
0020
0032
0100
1003
,
0001
0000
1000
0010
0100
0000
0001
0010
,
2000
3002
0100
0013
,
0011
1000
1010
0001
,
0011
1010
0011
0100
,
1001
0000
0000
1001
0000
0000
0000
0000
0010
0000
0000
0000
0100
0000
0000
0000
,
0001
0010
0100
1000
,
1001
0100
0010
0100
,
0001
0010
1000
0001
,
0020
0001
1030
0010
,
0001
0000
0100
0000
0010
0000
1000
0001
,
0000
1000
0010
0200
0000
0301
1000
0001
,
0100
0000
0000
0100
0000
0000
0100
0000
0000
0000
0110
0000
0110
0000
0000
0000
;

//---------------dance-single - ----------------
#NOTEDATA:;
#CHARTNAME:;
#CHARTHASH:0:
#STEPSTYPE:dance-single;
#BANNER:;
#DESCRIPTION:;
#CHARTSTYLE:;
#DIFFICULTY:Beginner;
#METER:4;
#METERF:0.000000;
#RADARVALUES:0.175270,0.255252,0.168067,0.000000,0.000000,146.000000,126.000000,20.000000,0.000000,0.000000,0.000000,0.000000,0.000000,0.000000,0.175270,0.255252,0.168067,0.000000,0.000000,146.000000,126.000000,20.000000,0.000000,0.000000,0.000000,0.000000,0.000000,0.000000;
#CREDIT:;
#DISPLAYBPM:123.000000;
#NOTES:
// measure 0
0000
0000
0000
0000
,  // measure 1
0000
0000
0000
0000
,  // measure 2
0000
0000
0000
0000
,  // measure 3
0000
0000
0000
0000
,  // measure 4
0010
0000
1000
1000
,  // measure 5
1000
0000
0001
0000
,  // measure 6
1001
1001
0000
0000
,  // measure 7
1001
0000
0000
0100
,  // measure 8
0100
0000
0010
0000
,  // measure 9
1000
0000
0001
0000
,  // measure 10
0000
0010
0010
0000
,  // measure 11
1001
0000
0000
0001
,  // measure 12
0001
0000
1000
0000
,  // measure 13
0010
0010
0000
0000
,  // measure 14
0000
0100
0100
0000
,  // measure 15
0001
0001
0001
0000
,  // measure 16
1000
0000
0100
0000
,  // measure 17
0010
0010
0010
0000
,  // measure 18
0001
0000
1000
0000
,  // measure 19
1001
0000
0000
0100
,  // measure 20
0100
0000
0000
0010
,  // measure 21
0010
0000
0000
1000
,  // measure 22
1000
0000
1001
0000
,  // measure 23
0110
0000
0000
0010
,  // measure 24
0010
0000
1000
0000
,  // measure 25
0001
0000
1000
0000
,  // measure 26
0000
0100
0100
0000
,  // measure 27
0110
0000
0000
0100
,  // measure 28
0100
0000
1000
0000
,  // measure 29
0001
0001
0000
0000
,  // measure 30
0000
1000
1000
0000
,  // measure 31
0010
0010
0010
0000
,  // measure 32
1000
0000
0001
0000
,  // measure 33
0010
0010
0010
0000
,  // measure 34
0100
0000
0010
0000
,  // measure 35
0110
0000
0000
0001
,  // measure 36
0001
0000
0000
1000
,  // measure 37
1000
0000
0000
0010
,  // measure 38
0010
0000
0110
0000
,  // measure 39
0000
0001
0001
0000
,  // measure 40
1000
1000
1000
0000
,  // measure 41
0000
0010
0010
0000
,  // measure 42
0100
0100
0100
0000
,  // measure 43
0110
0000
0001
0000
,  // measure 44
0100
0100
0100
0000
,  // measure 45
1000
1000
1000
0000
,  // measure 46
0001
0000
0110
0000
,  // measure 47
0000
0010
0010
0000
,  // measure 48
1000
1000
1000
0000
,  // measure 49
0000
0010
0010
0000
,  // measure 50
0100
0100
0100
0000
,  // measure 51
1001
0000
0010
0000
,  // measure 52
0110
0000
0100
0000
,  // measure 53
1001
0000
0000
0000
,  // measure 54
0010
0010
0010
0000
,  // measure 55
0110
0000
0000
0000
,  // measure 56
0000
0001
0001
0001
,  // measure 57
0001
0000
0000
1000
,  // measure 58
1000
0000
0000
0110
,  // measure 59
0000
0100
0100
0000
,  // measure 60
1001
1001
0000
0110
;
