#TITLE:Dragon Blade;
#SUBTITLE:-The Arrange-;
#ARTIST:BEMANI Sound Team "Asaki" & RENO;
#TITLETRANSLIT:;
#SUBTITLETRANSLIT:;
#ARTISTTRANSLIT:;
#GENRE:;
#CREDIT:;
#BANNER:Dragon Blade -The Arrange--bn.png;
#BACKGROUND:Dragon Blade -The Arrange--bg.png;
#LYRICSPATH:;
#CDTITLE:;
#MUSIC:Dragon Blade -The Arrange-.ogg;
#OFFSET:0.000000;
#SAMPLESTART:22.153999;
#SAMPLELENGTH:20.000000;
#SELECTABLE:YES;
#DISPLAYBPM:130.000000:260.000000;
#BPMS:0.000000=260.000000
,64.000000=130.000000
,76.000000=260.000000
,148.000000=130.000000
,200.000000=260.000000
,309.000000=130.000000
,317.000000=260.000000
,361.000000=130.000000
,370.000000=260.000000
;
#STOPS:291.500000=0.693000,
365.000000=0.462000
;
#BGCHANGES:;
#KEYSOUNDS:;
#ATTACKS:;

//---------------dance-single - ----------------
#NOTES:
     dance-single:
     :
     Challenge:
     20:
     1.267827,2.001450,0.558783,0.427305,1.257262,1080.000000,1012.000000,68.000000,52.000000,0.000000,0.000000,1.267827,2.001450,0.558783,0.427305,1.257262,1080.000000,1012.000000,68.000000,52.000000,0.000000,0.000000:
0000
0000
0000
0000
,
0000
0000
0000
0000
,
0000
0000
0000
0000
,
0000
0000
0000
0000
,
0000
0010
1000
0100
0000
0100
0001
0000
,
0011
0000
0001
0100
0000
0010
1000
0000
,
0100
0010
0000
1100
0000
0001
0010
1000
,
0001
0100
1000
0100
0002
0000
0003
0000
,
0010
0001
1000
0010
1000
0100
1000
0100
,
0010
0001
0100
0010
1000
0001
1000
0200
,
0000
1300
0001
0010
0100
0001
0100
2000
,
0000
3010
0100
0001
1000
0100
0001
0020
,
0000
0130
1000
0010
1000
0100
0010
0001
,
0100
0010
0100
0001
0010
0100
1000
0002
,
0000
1003
0001
0010
1000
0010
0100
2000
,
0000
3010
0100
0010
1000
0001
0100
0010
,
1000
0001
1000
0100
0000
0100
0010
0000
1001
0000
0001
0010
0000
0100
1000
0000
,
0010
1000
0000
1010
0000
0001
1000
0100
0000
0100
0010
0000
0001
0100
0000
0101
,
0000
1000
0001
0010
0000
0010
0100
0000
0110
0000
1000
0001
0000
0010
0100
0000
,
1000
0010
1000
0010
1000
0000
0001
0000
0010
0100
0010
0100
0010
0000
0001
0000
,
1000
0100
1000
0100
1000
0000
0010
0000
0100
0001
0100
0001
0100
0000
0010
0000
,
1000
0100
0010
0100
0001
0100
0010
0100
,
1000
0010
0100
1000
0100
0001
0100
0010
,
1000
0100
0001
0100
1000
0010
0001
0010
,
0100
1000
0100
0001
0020
0100
0130
0000
,
1000
1000
0010
0100
0001
0001
0010
0100
,
0010
0010
0001
1000
0100
0100
1000
0001
,
0110
0110
0000
1100
0000
0101
0000
0001
,
1000
0010
0000
0202
0000
0000
0300
0000
,
0013
1000
0010
0100
0010
1000
0010
0001
,
0100
0010
0001
0010
1000
0100
0010
0100
,
0001
0100
0010
0100
0001
0100
0010
1000
,
0010
0001
0100
1000
0200
0010
0310
2010
,
0000
3001
1000
0010
1000
0100
0010
0021
,
0000
1030
0010
0001
0100
0010
1000
1200
,
0000
0000
0310
0000
0001
0100
0001
0000
0010
0000
0100
0000
1000
0000
1002
0000
,
0000
0000
0013
0000
0001
0100
0001
0100
0010
1000
0010
1000
0100
0000
0010
0000
,
0012
0000
0000
0000
0000
0000
0000
0000
0000
0000
0000
0000
1003
0000
0000
0010
0000
0000
1000
0000
0000
0010
0000
0000
0100
0000
0001
0000
1000
0000
0100
0000
1000
0000
0001
0000
0100
0000
0001
0000
1000
0000
0100
0000
1000
0000
0001
0000
,
0010
0000
0000
0011
0000
0000
1200
0000
0001
0001
1000
1000
0001
0001
1000
1300
,
0110
0000
0001
0100
0010
1000
0100
0010
0011
0000
0001
1000
0001
0100
0010
1000
,
1010
0000
1000
0001
1000
0100
0010
0001
0101
0000
0010
1000
0001
0010
0100
1000
,
2001
0000
0000
0000
3010
0100
0010
1000
0000
1100
0000
0110
0000
0011
0000
1001
,
1001
0000
0000
0000
0010
0000
0100
0000
0000
0000
0001
0000
1000
0100
1000
0000
0010
0000
0001
0000
0100
0000
0001
0000
0010
0000
0100
0000
1000
0000
0010
0000
,
0102
0000
1000
1003
2100
0000
0001
3001
0012
0000
1000
1003
2010
0000
0001
3001
,
1000
0000
0200
0000
0000
0000
0310
0000
0002
0000
0000
0000
0103
0000
0020
0000
0000
0000
1030
0000
0002
0000
0000
0000
0013
0001
0010
0100
1000
0000
0001
0000
,
0100
0000
0000
0100
0000
0000
0000
0000
0000
0010
0000
0000
0000
0000
0000
0010
0000
0000
1000
0000
0000
0002
0000
0000
0000
0000
0000
0000
0000
0000
0000
0000
0000
0000
0000
0000
1003
0000
0100
0000
0010
0000
0001
0000
0010
0000
0100
0000
,
1000
1000
0000
0010
0100
1000
0100
0001
0100
1000
0100
0010
0100
0002
0000
0000
,
0013
0000
0010
0000
0000
0000
0001
0000
0100
0000
1000
0000
0100
0000
0010
0000
0100
0001
0100
0001
1000
0000
0010
0000
0200
0000
0000
0000
0000
0000
0000
0000
,
0301
0001
0000
0010
1000
1000
0010
0100
0001
0001
0010
0100
1000
1000
0000
0000
,
1100
0000
0000
0000
0101
0000
0000
0000
0011
0000
0000
0000
1010
0000
0000
0000
1000
0100
1000
0100
0010
0001
0010
0001
1000
0010
1000
0010
0100
0001
0100
0001
,
0010
0001
0010
0001
0010
0100
1000
0000
0010
1000
0010
1000
0100
0010
0001
0000
,
1000
0001
1000
0001
1000
0100
0010
0000
0001
1000
0001
1000
0001
0100
0010
0000
,
1000
0100
0010
0001
0010
0100
1000
0000
0001
0010
0100
1000
0100
0010
0001
0000
,
0100
0100
0010
0010
1000
1000
0001
0001
,
0010
1000
0010
0100
0010
0001
0010
0000
0100
0001
0100
0010
0100
1000
0100
0000
,
0001
0010
1000
0100
1000
0010
0001
0000
1000
0100
0001
0010
0001
0100
1000
0000
,
0010
1000
0100
0010
0001
0100
1000
0000
0010
1000
0001
0010
0100
1000
0001
0000
,
1000
0100
1000
0001
0100
0001
1000
0100
1000
0001
0100
0001
,
0020
0000
0031
0100
1000
0100
0010
1000
,
0001
0010
1000
0001
0100
1000
0010
0100
,
0002
1000
1003
0010
0100
0001
0100
0010
,
2000
0100
3100
0020
0001
0031
0200
0010
,
0320
0000
1030
0001
0010
1000
0010
0100
,
0020
0001
0031
2000
0010
3010
0200
0000
,
0301
0010
1000
0010
0001
0000
0100
0010
0100
0000
0001
0000
1000
0000
0100
0000
,
0010
0000
0001
0100
0001
0000
1000
0100
1000
0010
0100
0001
1000
0100
0010
0001
,
0100
0010
1000
0001
0000
0000
0110
0110
,
0000
0000
0010
1000
1100
1100
0000
0000
,
0001
0010
0100
1000
0000
0000
1001
1001
,
0000
0000
0010
0100
0101
0101
0000
0000
,
1000
1000
1000
1000
0000
0000
0001
0001
,
0000
0000
0010
0010
0010
0010
0000
0000
,
0001
0001
0001
0001
0000
0000
0010
0020
,
0000
0030
0000
0000
1001
0000
0000
0000
0000
0000
0000
0000
0000
0000
0000
0000
0100
0000
0000
0000
0110
0000
0000
0000
0000
0000
0000
0000
0000
0000
0000
0000
,
0001
0011
0000
0000
0100
1100
0100
0000
,
1000
0101
0000
0010
1001
0000
0100
1010
,
0000
0000
0000
1001
0000
0000
0000
0000
0000
0100
0000
0000
0100
0000
0000
0100
0000
0000
0001
0000
0010
0000
0100
0000
,
1000
0000
0000
0000
0100
0000
0000
0000
0010
0000
0000
0000
0001
0000
0000
0100
0000
0000
0010
0000
0000
0100
0000
0000
1000
0000
0000
0100
0000
0000
0001
0000
0000
1000
0000
0000
0000
0000
0000
1010
0000
0000
0101
0000
0000
0000
0000
0000
,
1010
0000
0101
0000
0000
0000
0010
0000
1000
0100
1000
0100
0010
0001
0010
0001
1000
0010
1000
0010
0100
0001
0100
0001
1000
0010
0001
0100
0010
0100
0001
1000
,
0010
0010
1000
0010
0100
1000
0100
0010
,
1000
0100
0001
0100
0010
0001
0100
1000
,
0100
0001
0011
0011
0000
1001
1000
0010
,
0100
0001
0100
0000
0110
0000
0110
0000
1000
0100
1000
0100
0010
0100
0010
0100
,
0001
0100
0001
0100
1000
0000
0010
0000
0100
0000
1000
0000
0100
0000
0001
0000
,
0010
0100
0001
0100
0010
0001
0100
0010
,
0001
0010
1000
0001
1000
0100
0001
0100
,
0010
0000
1000
0000
0010
0001
0010
0001
0100
0010
0100
0010
1000
0100
1000
0100
,
1000
0001
1000
0002
0000
0000
0013
0000
0001
0000
0100
0000
0010
0000
1000
0000
,
0100
2010
0000
3001
1000
0010
0100
0001
,
0010
0000
1200
0000
0000
0000
1300
0000
0010
0100
0001
0100
0010
0000
1000
0000
,
0001
0000
0000
1000
0000
0000
0100
0000
0000
1000
0000
0000
0001
0000
0000
0000
0001
0000
0000
0000
0001
0000
0000
0000
0010
0000
0000
0000
0010
0000
0000
0000
0010
0000
0000
0000
0100
0000
0000
0000
0100
0000
0000
0000
0100
0000
0000
0000
,
1000
0000
0000
0000
1000
0000
0000
0000
2000
0000
0000
0000
0000
0000
0000
0000
0000
0000
0000
0000
3000
0000
0000
0000
0202
0000
0000
0000
0000
0000
0000
0000
0000
0000
0000
0000
0300
0000
0000
2000
0000
0000
0003
0000
0000
3001
0000
0000
,
0010
0001
0010
0100
1000
0010
1000
0001
1000
0100
0010
0001
1000
0010
0100
0001
0010
0000
0000
0000
0001
0000
0000
0000
1000
0000
0000
0000
0010
0000
0000
0000
,
0001
0010
0100
0001
0100
0010
0100
1000
,
0100
0010
1000
0001
0200
0000
0310
0100
,
0001
2000
3010
0100
1020
0000
0130
0001
,
0010
0000
1000
0000
0010
0000
0100
0000
1000
0100
1000
0100
0010
0001
0010
0001
,
1000
0010
1000
0010
0100
0001
0100
0001
0020
0000
0000
0000
0130
0000
2100
0000
,
0000
3001
0101
0000
0110
0000
1000
0010
,
1000
0001
0010
1000
0010
0100
0010
0001
,
0100
0010
0001
0010
1000
0100
0001
0100
,
1000
0000
0010
0000
0001
0000
0010
0000
1000
0100
0010
0001
1000
0010
0100
0001
,
0010
1000
0010
0001
0100
1000
0100
0001
1000
0100
0001
0010
1000
0001
0010
0100
,
0001
0100
1000
0010
0001
0010
1000
0100
0001
1000
0100
0010
0001
0100
0010
1000
,
0100
0001
1000
0100
0010
0001
0100
1000
0100
1000
0010
0100
0001
0010
1000
0001
,
0010
0100
1000
0001
1000
0100
0010
0001
0100
0010
1000
0001
0010
0100
0001
1000
,
0010
0100
1000
0001
0100
1000
0010
0001
0010
0100
1000
0001
1000
0010
0100
1000
,
0001
0010
0100
0001
0010
0001
1000
0200
0020
0000
0000
0000
0000
0000
0000
0000
,
0000
0330
0000
0000
;

//---------------dance-single - ----------------
#NOTES:
     dance-single:
     :
     Hard:
     17:
     0.995479,1.334300,0.345131,0.476609,0.505370,848.000000,806.000000,42.000000,58.000000,0.000000,0.000000,0.995479,1.334300,0.345131,0.476609,0.505370,848.000000,806.000000,42.000000,58.000000,0.000000,0.000000:
0000
0000
0000
0000
,
0000
0000
0000
0000
,
0000
0000
0000
0000
,
0000
0000
0000
0000
,
0000
0001
1000
0100
0000
1000
0100
0000
,
1001
0000
0010
0100
0000
0001
1000
0000
,
0010
1000
0000
0110
0000
0001
0010
0100
,
1000
0010
0001
0010
2000
0000
3000
0000
,
0100
1000
0010
1000
0001
0100
0001
0010
,
0100
1000
0010
1000
0100
0010
0001
2000
,
0000
3010
1000
0001
1000
0100
0010
0002
,
0000
0103
0010
2000
0000
3010
0100
0002
,
0000
0013
0001
1000
0001
0010
0100
1000
,
0010
0100
0010
1000
0100
0010
0001
0200
,
0000
0301
1000
0010
1000
0100
0010
0002
,
0000
0103
0001
1000
0001
0010
0100
1000
,
0010
0100
0010
0100
0000
0001
1000
0000
1100
0000
0100
0010
0000
0010
0001
0000
,
1000
0001
0000
0011
0000
0001
0100
0010
0000
0010
1000
0000
0100
1000
0000
0001
,
0000
0010
0001
1000
0000
1000
0100
0000
1100
0000
0001
0010
0000
0001
1000
0000
,
0010
0100
0001
0100
0010
1000
0100
1000
,
0010
0001
0010
1000
0100
0001
0100
1000
,
0010
0100
0001
0010
0001
0100
1000
0100
,
0000
0100
0001
0010
0001
1000
0000
0100
,
1000
0010
0100
1000
0100
0010
0100
0001
,
0000
0010
0100
1000
0020
0000
0130
0000
,
0010
0001
0010
0100
1000
0100
0001
0010
,
1000
0010
0100
0010
0001
1000
0001
0100
,
0010
1000
0000
1010
0000
0011
0000
0001
,
1000
0010
0000
0202
0000
0000
0003
0000
,
0310
0100
1000
0100
0001
0010
0001
1000
,
0000
1000
0010
0100
0010
1000
0000
0001
,
0010
1000
0010
0100
0010
0001
0100
0010
,
1000
0001
0010
0100
2000
0000
3010
0210
,
0000
0301
0010
0100
0001
0100
1000
2001
,
0000
3010
1000
0001
0100
0010
1000
1200
,
0000
0301
0100
1000
0010
0100
0001
0012
,
0000
1003
0001
0010
0001
0100
0010
1000
,
1020
0000
0000
0000
0130
0010
0100
0010
0000
1100
0000
0101
0000
1000
0001
0000
,
0011
0000
0000
0110
0000
0000
2100
0000
3010
0100
0010
0100
0010
0100
0010
0100
,
0002
0000
0013
1000
0010
0100
0010
0001
0020
0000
0130
0001
0100
0010
0100
1000
,
0200
0000
1300
0100
0010
0001
0010
0100
2000
0000
3010
0001
0010
0100
0010
1000
,
0200
0000
0000
0000
1300
0010
0100
0001
0000
1001
0000
0101
0000
0011
0000
0001
,
0200
0000
0000
0010
0000
0000
1300
0100
0001
0010
0100
1000
0100
0010
0001
0000
,
2010
0000
3100
0010
0002
0000
0103
0010
2000
0000
3100
0010
0002
0000
0103
0010
,
1000
0100
0000
0100
0001
0000
1000
0010
0000
0010
0001
0000
1000
0100
0010
0001
,
0100
0010
0000
0110
0000
0010
1000
0002
0000
0000
0000
0000
1003
0001
1000
0001
,
1000
0100
0000
0100
0020
0000
0032
0000
1003
0010
0200
0000
0301
2000
0000
0000
,
3001
0100
0000
0100
0010
1000
0010
1000
0001
0100
1000
0100
0002
0000
0000
0000
,
0013
0100
0000
1000
0010
0100
0001
0000
0010
0100
1000
0000
0010
0200
0000
0000
,
0301
0010
1000
0010
0100
0010
0100
1000
0100
1000
0001
0010
0001
1000
0100
0001
,
0100
1000
0010
1000
0100
0001
0100
1000
,
0010
0100
0010
0001
0010
1000
0010
0100
,
1000
0100
0001
0010
1000
0010
0100
0001
,
0100
1000
0010
0001
0010
0100
0001
1000
,
0100
0010
0100
0000
1000
0000
0010
0000
0100
0001
0100
0000
0010
0000
0001
0000
,
0010
1000
0010
0000
0100
0000
1000
0000
0100
0010
0100
0000
0001
0000
1000
0000
,
0010
0100
0010
0000
1000
0000
0100
0000
0001
0100
0001
0000
0100
0000
0010
0000
,
0001
1000
0010
0100
0001
0010
0100
1000
,
0020
0000
0130
0010
1000
0001
0100
0000
,
0001
0010
0100
1000
0010
0100
0001
0000
,
1020
0000
1030
0100
0001
0100
1000
0010
,
0100
0001
0010
1000
0010
0001
0100
0000
,
2001
0000
3010
0100
1000
0100
0001
1000
,
0010
0001
0010
0100
1000
0100
0002
0000
,
0013
0001
0100
0001
0010
1000
0010
0100
,
1000
0010
0100
0001
1000
0100
0010
0001
,
0100
0010
0100
0010
0000
0000
1000
0001
,
0000
0000
1000
0100
0010
0001
0000
0000
,
1000
0001
1000
0001
0000
0000
0010
0100
,
0000
0000
0010
0001
1000
0100
0000
0000
,
1000
0010
1000
0010
0000
0000
0100
0001
,
0000
0000
0100
0010
1000
0001
0000
0000
,
0010
0001
1000
0001
0000
0000
0200
0020
,
0330
1001
0000
0000
0010
1010
0000
0000
,
0100
0101
0000
0000
0001
1000
0010
0000
,
0010
0100
0000
0001
0010
1000
0010
0001
,
0000
0100
0010
1000
0001
0010
0100
1000
,
0010
0000
0100
0000
0001
0010
1000
0010
0001
0100
1000
0100
0000
0001
0011
0000
,
1000
1010
0000
0010
0100
1000
0100
0010
1000
0100
0001
0100
1000
0010
0100
0001
,
0020
0100
0031
0100
0010
0001
0010
1000
,
0100
0010
1000
0010
0100
1000
0001
0100
,
1000
0100
0001
0010
0000
0101
0000
1100
,
0000
0010
1000
0001
0000
2020
0000
0000
,
0030
0000
3100
1000
0010
0100
0001
0010
,
0001
1000
0000
0100
1000
0001
0010
1000
,
0000
0010
0100
1000
0010
0100
1000
0100
,
0001
0010
1000
0010
0100
0010
0001
0100
,
0010
2010
0000
3001
0010
1000
0001
0100
,
1000
1002
0000
1003
0100
0001
1000
0010
,
0001
0201
0000
0310
1000
0100
0001
0100
,
0010
0000
0000
0001
0000
0000
1000
0000
1000
0000
1000
0000
0010
0000
0010
0000
0010
0000
0100
0000
0100
0000
0100
0000
,
0001
0000
0000
0000
0001
0000
0000
0000
0002
0000
0000
0000
0000
0000
0000
0000
0003
0000
0000
0000
0000
0000
0000
0000
0202
0000
0000
0000
0000
0000
0000
0000
0000
0000
0000
0000
0300
0000
0000
2000
0000
0000
0003
0000
0000
3001
0000
0000
,
1000
0010
0100
1000
0100
0001
0010
0001
0100
0000
0010
0000
1000
0000
0001
0000
,
0010
1000
0010
0100
0010
0001
0100
0010
,
1000
0001
1000
0100
0220
0000
0300
0000
,
0031
2000
0000
3010
0200
0000
0301
0020
,
0000
0031
0100
1000
0100
0010
1000
0001
,
0010
1000
0010
0100
1100
0000
0000
0110
,
0000
0011
1002
0100
,
1003
0100
0001
0010
0010
0100
0001
1000
,
0010
1000
0100
0010
0100
0001
0001
1000
,
0010
0100
0001
0100
0001
1000
0010
1000
,
0100
1000
0010
0010
0100
0001
0001
1000
,
0010
0001
0010
0100
0100
1000
0001
1000
,
0001
0010
1000
0100
0100
0001
1000
0010
,
0010
1000
0100
0010
0001
0100
1000
0001
,
0100
0010
0001
1000
0100
0001
1000
0010
,
0001
0010
1000
0200
0020
0000
0000
0000
,
0000
0330
0000
0000
;

//---------------dance-single - ----------------
#NOTES:
     dance-single:
     :
     Medium:
     15:
     0.833479,1.200870,0.410870,0.476609,0.353348,710.000000,660.000000,50.000000,58.000000,0.000000,0.000000,0.833479,1.200870,0.410870,0.476609,0.353348,710.000000,660.000000,50.000000,58.000000,0.000000,0.000000:
0000
0000
0000
0000
,
0000
0000
0000
0000
,
0000
0000
0000
0000
,
0000
0000
0000
0000
,
0000
0000
1000
0001
0000
0001
0100
0000
,
0010
0000
1000
0100
0000
1000
0100
0000
,
0010
0001
0000
1000
0000
0001
0100
0010
,
1000
0001
1000
0001
2000
0000
3000
0000
,
0010
1010
0101
0011
,
1100
0000
1001
0000
0110
0000
0001
0020
,
0000
0031
0100
0000
0010
0000
1000
0200
,
0000
0310
0100
0010
0002
0000
0000
0020
,
0000
0033
0011
0000
0110
0000
1100
0000
,
1010
0000
1001
0000
0101
0000
0100
0020
,
0000
1030
0001
0000
0010
0000
0001
0200
,
0000
0310
1000
0010
0100
0001
2000
0000
,
3001
0000
0100
0010
0000
0100
0010
0000
1000
0000
0100
0010
0000
0100
0010
0000
,
0001
0100
0000
0110
0000
0000
0010
1000
0000
1000
0001
0000
0010
0100
0000
1001
,
0000
0000
1000
0010
0000
0010
0100
0000
0001
0000
0010
0100
0000
1000
0001
0000
,
1000
0100
1000
0000
0001
0100
0001
0000
,
1000
0010
1000
0000
0001
0010
0001
0000
,
1000
0010
0100
0010
1000
0000
0001
0100
,
0000
0100
0010
0000
0010
1000
0000
1000
,
0001
0010
0100
0000
1000
0010
0100
0000
,
0001
1000
0001
1000
0002
0000
0000
0000
,
0013
0001
0100
0000
0010
1000
0100
0000
,
1000
0001
0100
0000
0001
0010
0100
1000
,
0010
0200
0000
0302
0000
2003
0000
3001
,
0010
0002
0000
0200
0000
0000
0003
0000
,
0310
1000
0100
1000
0010
0000
0100
0001
,
0000
0001
0010
0000
0010
0100
0000
0100
,
1000
0001
1000
0000
0010
0100
0010
0000
,
1000
0100
0001
0100
2000
0000
3000
2020
,
0000
0000
0030
0000
0000
0000
3001
0000
0000
0010
0000
0000
0100
0000
0000
0000
0000
0000
1000
0000
0000
0002
0000
0000
,
0000
0000
0103
0010
1000
0000
0100
0020
,
0000
0031
1000
0000
0010
1000
0001
0200
,
0000
0310
1000
0001
1000
0100
0010
0000
,
2001
0000
0000
0000
3001
0010
0001
0010
0000
1100
0000
0101
0000
1000
0100
0000
,
0011
0000
0000
0110
0000
0000
2200
0000
0000
0000
0000
0000
0300
0000
0000
0000
,
3001
0000
0010
0100
1000
0000
0010
0100
0001
0000
1000
0100
0010
0000
0001
0100
,
0010
0000
1000
0001
0100
0000
0001
1000
0100
0000
0010
0001
1000
0001
0010
0000
,
0120
0000
0000
0000
0031
1000
0001
1000
0000
0020
0000
0230
0000
0320
0000
0130
,
0002
0000
0000
2003
0000
0000
3001
0100
0020
0000
0000
1030
0010
0000
0100
0000
,
1001
0000
0100
0000
1001
0000
0010
0000
1001
0000
0100
0000
1001
0000
0010
0100
,
0001
1000
0000
0001
1000
0000
0001
1000
0000
0001
1000
0000
0010
0100
0010
0100
,
0001
0010
0000
0001
0000
1000
0020
0200
0000
0000
0030
0000
0001
0000
0301
0000
,
2000
0001
0000
0000
0010
0000
0100
0000
0010
0000
0100
0000
3001
2000
0000
0000
,
3020
0100
0000
0000
0001
0000
1000
0000
0001
0000
1000
0000
0230
0000
0000
0000
,
1300
0001
0000
0000
0010
0100
0000
0000
1000
0001
0000
0000
0010
0100
0000
0000
,
1001
0000
0110
0000
1001
0000
0110
0000
1000
0100
1000
0100
0010
0001
0010
0001
,
0100
0010
1000
0000
0100
0010
0001
0000
,
1000
0001
0010
0000
0001
1000
0100
0000
,
1000
0001
1000
0000
0010
0100
0010
0000
,
1000
0100
0010
0001
0010
0100
2000
0000
,
3010
0100
0001
0100
0010
1000
0100
1000
,
0001
0010
0100
0010
0001
1000
0100
1000
,
0010
0100
0010
0100
0001
1000
0001
1000
,
0001
0010
0100
1000
0001
0010
0100
1000
,
0020
1000
0100
1030
,
0010
0100
0001
1000
0000
1000
0100
0000
,
0021
0001
0100
0031
,
0101
0000
0000
1100
0000
0000
0101
0000
,
2010
0100
0001
3100
,
1100
0000
0000
0110
0000
0000
0011
0000
,
1000
0010
1000
0010
1000
0010
1000
0000
,
0001
0010
0001
0010
0001
0010
0001
0000
,
1000
0100
1000
0100
0000
0000
1000
0001
,
0000
0000
0010
0001
0010
0001
0000
0000
,
0100
0001
0100
0001
0000
0000
0100
0010
,
0000
0000
0010
1000
0010
1000
0000
0000
,
1000
0001
1000
0001
0000
0000
1000
0100
,
0000
0000
0010
0100
0010
0100
0000
0000
,
1000
0000
0000
0100
0000
0000
0010
0000
0000
0001
0000
0000
0000
0000
0000
0000
0000
0000
0200
0000
0000
0020
0000
0330
,
0000
1001
0000
0000
0000
1010
0000
0000
,
0000
0101
0000
0000
0000
1100
0000
0000
,
0001
1000
0000
0001
1000
0000
0001
1000
,
0000
0110
0000
0100
0010
0100
0001
0010
,
0100
0000
1000
0000
0001
0100
0010
0100
0001
0010
0100
0010
0000
0011
0000
0000
,
1100
0000
0000
0000
1000
0001
1000
0001
0010
0100
0010
0100
1000
0010
0001
0010
,
2000
0000
3100
0010
0001
0000
0100
0010
,
1000
0000
0001
0010
1000
0000
0001
0100
,
1000
0000
0010
0200
0000
0320
0000
2030
,
0000
3001
1000
0002
0000
0020
0000
0000
,
0003
0000
0130
1000
0001
1000
0010
0000
,
0100
0001
0000
0001
1000
0000
1000
0100
,
0000
0100
0010
0001
1000
0000
0001
0100
,
0010
0000
1000
0100
0001
0100
1000
0010
,
0100
0002
0000
0000
0013
0001
1000
0010
,
1000
0200
0000
0000
0301
0100
1000
0010
,
1000
0002
0000
0000
1003
0100
0010
0001
,
0010
0000
0000
0100
0000
0000
1000
0000
0100
0000
1000
0000
0001
0000
0100
0000
0001
0000
1000
0000
0100
0000
1000
0000
,
0001
0000
0000
0000
0100
0000
0000
0000
0002
0000
0000
0000
0000
0000
0000
0003
0000
0000
0000
0000
0000
0000
0000
0000
0202
0000
0000
0000
0000
0000
0000
0000
0000
0000
0000
0000
0300
0000
0000
1000
0000
0000
0000
0000
0000
0000
0000
0000
,
1003
0010
0100
0001
1000
0100
0010
0001
0100
0000
0010
0000
0100
0000
0000
0000
,
0001
1000
0001
0000
1000
0100
0010
0001
,
1000
0010
0100
0001
0020
0000
0000
0000
,
0031
1000
0000
1000
0010
0000
0010
0100
,
0000
0100
0001
0000
1000
0001
0010
0000
,
0001
1000
0100
0000
1100
0000
0000
0110
,
0000
0011
2020
0030
,
3001
1000
0000
0010
0100
0001
1000
0001
,
0100
0010
1000
0000
0001
0010
0100
1000
,
0100
0010
0001
0000
1000
0010
0100
0001
,
0010
0001
1000
0000
0010
0001
0010
0100
,
0010
1000
0010
0000
0100
0001
0100
0010
,
0100
1000
0100
0000
1000
0001
1000
0001
,
0010
0100
0010
0100
1000
0010
1000
0010
,
0100
0001
0100
0001
1000
0100
1000
0100
,
0010
0001
0010
0001
0020
0000
0000
0000
,
0000
0030
0000
0000
;

//---------------dance-single - ----------------
#NOTES:
     dance-single:
     :
     Easy:
     12:
     0.571696,0.750865,0.525914,0.345131,0.049304,487.000000,423.000000,64.000000,42.000000,0.000000,0.000000,0.571696,0.750865,0.525914,0.345131,0.049304,487.000000,423.000000,64.000000,42.000000,0.000000,0.000000:
0000
0000
0000
0000
,
0000
0000
0000
0000
,
0000
0000
0000
0000
,
0000
0000
0000
0000
,
0000
1001
0010
0100
,
0001
0010
0001
1000
,
0010
0100
0010
1000
,
0001
0010
0110
0000
,
1000
0010
0100
0001
,
0010
0001
0100
0010
,
1010
0001
1000
0100
,
0011
0100
0010
0000
,
0100
0001
1000
0001
,
0010
0100
0010
0001
,
0101
0001
0010
0100
,
1100
1000
0001
0100
,
0001
0010
0100
1000
0010
0100
0001
1000
,
0100
0001
0100
0010
0001
1000
0010
1000
,
0000
1001
0001
0100
0010
1000
0100
0010
,
0001
1000
0010
0100
,
0001
0010
0100
1000
,
0010
0100
0001
0010
,
0001
0100
0010
1000
,
0100
0001
0100
0010
,
0001
1000
2020
0030
,
3001
1000
0010
1000
,
0100
0010
0001
1000
,
0010
0100
0010
1000
,
0100
0010
0002
0000
,
1003
0010
0100
0001
,
0010
1000
0010
0100
,
0010
0001
0100
0010
,
1000
0001
0202
0300
,
1003
0010
1000
0001
,
0011
0100
1000
0010
,
0100
0110
0010
1010
,
1000
1100
0001
0101
,
1002
0000
1003
0010
1000
0001
0010
0100
,
1100
0000
0000
0110
0000
0000
0022
0000
0000
0000
0000
0000
0003
0000
0000
0000
,
0031
0100
1000
0100
0001
0010
1000
0010
,
0001
0100
1000
0100
0001
0010
1000
0010
,
0002
0000
1003
0001
1000
0010
0100
0001
,
2020
0000
0000
0000
0030
0000
3001
2000
0002
0000
0000
0000
3003
0000
0000
0000
,
0011
1100
0101
1010
,
0002
0000
0000
2003
0000
0000
3020
0000
0000
0230
0000
0000
0301
0000
1000
0000
,
0110
0000
0000
2000
0000
3002
0000
2003
0000
0000
0000
0000
3010
0000
0000
0000
,
1200
0000
1300
0010
0001
0010
1000
0000
,
0201
0000
0301
0010
1000
0010
0001
0000
,
1100
0101
0011
1010
,
1000
0001
1000
0010
0100
1000
0100
0001
,
0010
0001
0100
0001
,
0010
1000
0010
0100
,
0010
0001
0100
0001
,
1000
0001
0100
1000
,
0100
0010
1000
0001
,
0010
1000
0010
0100
,
0010
0001
0100
0001
,
0010
0100
1000
0001
,
2002
0000
0000
0003
,
3001
0010
0100
1000
,
2020
0000
0000
0030
,
0001
0000
0000
0100
0000
0000
3001
0000
,
0022
0000
0000
0003
,
1000
0000
0000
0100
0000
0000
1030
0000
,
0120
0001
1000
0130
,
0012
1000
0100
0013
,
1001
0000
0000
1010
0000
0000
1100
0000
,
0000
0001
1000
0000
,
0011
0000
0000
0101
0000
0000
1001
0000
,
0000
0100
0010
0000
,
1010
0000
0000
1001
0000
0000
0101
0000
,
0000
0001
1000
0000
,
1100
0000
0000
0000
0000
0000
0101
0000
0000
0000
0000
0000
0200
0000
0020
0330
,
0000
1001
0000
0000
0000
0110
0000
0000
,
0000
1001
0000
0000
0000
0110
0000
0000
,
1000
0010
0100
0001
,
0010
0100
1000
0001
,
0100
0000
0000
0000
0001
0000
0010
0000
0100
0000
1000
0000
0000
1010
0000
0000
,
0101
0000
0001
1000
0010
0001
0010
1000
,
0200
1300
0010
1000
,
0001
0010
0100
0001
,
0100
1000
0010
0100
,
0001
0010
0100
2000
,
0000
3001
1000
0010
,
1000
0100
0001
0100
,
0010
0001
0100
1000
,
0100
0010
1000
0001
,
0100
0101
0010
1000
,
0001
1100
0010
0100
,
0001
1001
0100
0010
,
1000
0011
0101
1010
,
1000
0000
0000
0000
0002
0000
0000
0000
2000
0000
0000
0000
0000
0000
0000
3003
0000
0000
0000
0000
0000
0000
0000
0000
0202
0000
0000
0000
0000
0000
0000
0000
0000
0000
0000
0000
0300
0000
0000
0000
0000
0000
0000
0000
0000
0000
0000
0000
,
1003
0100
0010
0001
0100
0000
0010
0000
,
1000
0001
1000
0100
,
0010
0001
2002
0003
,
3010
0100
0001
1000
,
0100
0010
0001
0100
,
0010
0000
1000
0000
1100
0000
0000
0110
,
0000
0011
2002
3000
,
0103
0001
0010
0100
,
1000
0010
1000
0001
,
0010
0100
1000
0010
,
1000
0001
0010
1000
,
0010
0100
0001
0100
,
0010
0001
0100
0010
,
0001
0010
1000
0001
,
1000
0100
0010
1000
,
0010
0001
0010
0000
;

//---------------dance-single - ----------------
#NOTES:
     dance-single:
     :
     Beginner:
     7:
     0.311087,0.618359,0.312261,0.164348,0.004109,265.000000,227.000000,38.000000,20.000000,0.000000,0.000000,0.311087,0.618359,0.312261,0.164348,0.004109,265.000000,227.000000,38.000000,20.000000,0.000000,0.000000:
// measure 0
0000
0000
0000
0000
,  // measure 1
0000
0000
0000
0000
,  // measure 2
0000
0000
0000
0000
,  // measure 3
0000
0000
0000
0000
,  // measure 4
0000
0000
0001
0000
,  // measure 5
1000
0000
0010
0000
,  // measure 6
1000
0000
0001
0000
,  // measure 7
0100
0000
0110
0000
,  // measure 8
0010
0000
0010
0000
,  // measure 9
1000
0000
0001
0000
,  // measure 10
0101
0000
1000
0000
,  // measure 11
1100
0000
0001
0000
,  // measure 12
0010
0000
0001
0000
,  // measure 13
0100
0000
0010
0000
,  // measure 14
1010
0000
0001
0000
,  // measure 15
0011
0000
1000
0000
,  // measure 16
0010
1000
0100
0010
,  // measure 17
0001
0100
0001
1000
,  // measure 18
0000
1001
0010
1000
,  // measure 19
0100
0000
0010
0000
,  // measure 20
0001
0000
1000
0000
,  // measure 21
0010
0000
1000
0000
,  // measure 22
0010
0000
0100
0000
,  // measure 23
0001
0000
0010
0000
,  // measure 24
0001
0000
0101
0000
,  // measure 25
1000
0000
0010
0000
,  // measure 26
1000
0000
0001
0000
,  // measure 27
0010
0000
0010
0000
,  // measure 28
0001
0000
1001
0000
,  // measure 29
1000
0000
0010
0000
,  // measure 30
1000
0000
0100
0000
,  // measure 31
0010
0000
0001
0000
,  // measure 32
0100
0000
0110
0000
,  // measure 33
0010
0000
1000
0000
,  // measure 34
0010
0000
0100
0000
,  // measure 35
0001
0000
0010
0000
,  // measure 36
0001
0000
1000
0000
,  // measure 37
1001
0010
0100
0001
,  // measure 38
2000
0002
0000
3003
,  // measure 39
1100
0010
0101
0010
,  // measure 40
0011
0100
1010
0100
,  // measure 41
0110
0001
1000
0010
,  // measure 42
0200
0000
0020
0330
,  // measure 43
1000
1000
0001
0001
,  // measure 44
0010
0001
0100
0010
,  // measure 45
1000
0001
1001
0000
,  // measure 46
0022
0000
0030
1003
,  // measure 47
2200
0000
0300
3001
,  // measure 48
0010
0010
0010
0010
,  // measure 49
0001
1000
0001
0100
,  // measure 50
0000
0010
0000
0010
,  // measure 51
0000
0100
0000
0100
,  // measure 52
0000
0001
0000
0001
,  // measure 53
0000
1000
1000
0000
,  // measure 54
0001
0000
0001
0000
,  // measure 55
0010
0000
0010
0000
,  // measure 56
0100
0000
0100
0000
,  // measure 57
1000
0000
1000
0000
,  // measure 58
0020
0000
0000
0030
,  // measure 59
0100
0000
0001
0000
,  // measure 60
2000
0000
0000
3000
,  // measure 61
0010
0000
1000
0000
,  // measure 62
0200
0000
0000
0300
,  // measure 63
1000
0000
0010
0000
,  // measure 64
0002
0000
0000
0003
,  // measure 65
2000
0000
0000
3000
,  // measure 66
1010
0000
0000
0101
,  // measure 67
0000
0000
0011
0000
,  // measure 68
1100
0000
0000
0101
,  // measure 69
0000
0000
1010
0000
,  // measure 70
1100
0000
0000
0110
,  // measure 71
0000
0000
0011
0000
,  // measure 72
1001
0000
0000
0110
,  // measure 73
0000
1000
0000
1000
,  // measure 74
0000
0001
0000
0001
,  // measure 75
0000
1000
0000
0100
,  // measure 76
0000
0010
0000
0001
,  // measure 77
0000
1001
0010
0100
,  // measure 78
0001
0010
0100
1000
,  // measure 79
0020
1030
0000
0001
,  // measure 80
0000
1000
0000
0100
,  // measure 81
0000
0010
0000
0001
,  // measure 82
0000
0100
0000
0110
,  // measure 83
0000
0001
0000
0010
,  // measure 84
0000
0001
0000
1000
,  // measure 85
0000
0010
0000
1000
,  // measure 86
0000
0100
0000
0001
,  // measure 87
0000
0011
0000
0100
,  // measure 88
0000
1010
0000
0100
,  // measure 89
0000
0101
0000
1100
,  // measure 90
0000
0002
0023
0230
,  // measure 91
2300
0000
0000
0000
0000
0000
0000
3000
0000
0000
0000
0000
0202
0000
0000
0000
0000
0000
0300
0000
0000
0000
0000
0000
,  // measure 92
1000
0103
1000
0000
,  // measure 93
0010
0000
1000
0000
,  // measure 94
0001
0000
0010
0000
,  // measure 95
0001
0000
1000
0000
,  // measure 96
0010
0000
1000
0000
,  // measure 97
0100
0000
0110
0000
,  // measure 98
1001
0000
0100
0000
,  // measure 99
0001
0000
1000
0000
,  // measure 100
0010
0000
1000
0000
,  // measure 101
0100
0000
0010
0000
,  // measure 102
0001
0000
0100
0000
,  // measure 103
0010
0000
0100
0000
,  // measure 104
0001
0000
0010
0000
,  // measure 105
0001
0000
1000
0000
,  // measure 106
0010
0000
1000
0000
,  // measure 107
0100
0000
0010
0000
;
