#TITLE:Dr. LOVE;
#SUBTITLE:;
#ARTIST:baby weapon feat. Asuka.M;
#TITLETRANSLIT:;
#SUBTITLETRANSLIT:;
#ARTISTTRANSLIT:;
#GENRE:;
#CREDIT:;
#BANNER:Dr. LOVE.png;
#BACKGROUND:Dr. LOVE-bg.png;
#LYRICSPATH:;
#CDTITLE:;
#MUSIC:Dr. LOVE.ogg;
#OFFSET:0.000000;
#SAMPLESTART:63.902000;
#SAMPLELENGTH:20.000000;
#SELECTABLE:YES;
#DISPLAYBPM:123.000000;
#BPMS:0.000000=123.000000
;
#STOPS:
;
#BGCHANGES:;
#KEYSOUNDS:;
#ATTACKS:;

//---------------dance-single - ----------------
#NOTES:
     dance-single:
     :
     Beginner:
     3:
     0.122494,0.217321,0.000000,0.000000,0.000000,87.000000,87.000000,0.000000,0.000000,0.000000,0.000000,0.122494,0.217321,0.000000,0.000000,0.000000,87.000000,87.000000,0.000000,0.000000,0.000000,0.000000:
0000
0000
0000
0000
,
0000
0000
0000
0000
,
0000
0000
0000
0000
,
0000
0000
0000
0000
,
0000
0000
0000
0000
,
0000
0000
0000
0000
,
0010
0000
0000
0000
,
0010
0000
0000
0000
,
0010
0000
0000
0000
,
0010
0000
0000
0000
,
1000
0000
0001
0000
,
0001
0000
1000
0000
,
1000
1000
0000
0000
,
0001
0001
0000
0000
,
0010
0010
0000
0000
,
0010
0010
0000
0000
,
1000
0000
1000
0000
,
0010
0000
0000
0000
,
1000
1000
1000
0000
,
0010
0000
0000
0000
,
0001
0001
0001
0000
,
0000
0001
0000
0001
,
0000
1000
0000
1000
,
0000
0100
0000
0100
,
0000
0010
0000
0100
,
0000
0100
0000
0100
,
0000
1000
1000
1000
,
0000
0100
0000
0100
,
0000
0001
0001
0001
,
0000
1000
0000
0001
,
0000
1000
0000
0001
,
0001
0001
0001
0001
,
0001
0001
0001
0001
,
0000
0100
0000
1000
,
0000
0010
0000
0001
,
0000
0100
0000
1000
,
0000
0010
0000
0001
,
0000
0100
0000
0001
,
0000
0010
0000
1000
,
0000
0100
0000
0001
,
0000
0010
0000
1000
,
0000
1000
0000
0001
,
0000
0100
0100
0100
,
0000
1000
0000
0001
,
0000
0100
0100
0100
,
0100
0000
0000
0000
,
0100
0000
0000
0000
,
0010
0000
0000
0000
,
0010
0000
0000
0000
,
0100
0000
0000
0000
;

//---------------dance-single - ----------------
#NOTES:
     dance-single:
     :
     Easy:
     6:
     0.216828,0.268324,0.029567,0.000000,0.000000,154.000000,151.000000,3.000000,0.000000,0.000000,0.000000,0.216828,0.268324,0.029567,0.000000,0.000000,154.000000,151.000000,3.000000,0.000000,0.000000,0.000000:
0000
0000
0000
0000
,
0000
0000
0000
0000
,
0000
0000
0000
0000
,
0000
0000
0000
0000
,
0000
0000
0000
0000
,
0000
0000
0000
0000
,
0010
0000
0100
0000
,
0010
0000
0100
0000
,
0010
0010
0100
0000
,
0100
0100
0010
0000
,
1000
0000
0001
0000
,
0001
0000
1000
0000
,
1000
1000
0001
0000
,
0001
0001
1000
0000
,
0010
0010
0001
0000
,
0010
0010
1000
0000
,
0010
0000
0100
0000
,
0010
0000
0100
0000
,
1000
1000
0001
0001
,
1000
0001
1000
0000
,
0010
0010
1000
1000
,
0001
0001
0001
0001
,
0100
0100
1000
0001
,
0100
0100
1001
0000
,
1000
1000
0001
0001
,
1000
0100
0001
0100
,
1000
1000
1000
1000
,
0100
0100
0001
0001
,
1000
1000
0100
0100
,
0001
1000
0001
0001
,
1000
0100
0001
0100
,
1000
1000
0100
0100
,
1001
0100
0001
0110
,
1000
0100
0001
1000
,
0010
0010
1000
0001
,
1000
1000
0100
0100
,
0010
0010
0100
0100
,
0001
1000
0001
1000
,
0010
0010
1000
1000
,
0001
0001
0100
0100
,
1000
0001
1000
0001
,
1000
1000
0001
0001
,
0100
0100
0100
0100
,
0010
0010
0010
0010
,
1000
1000
1000
1000
,
0001
0001
0001
0001
,
0010
0000
0100
0000
,
0010
0010
0100
0000
,
0010
0010
0001
0000
,
0010
0010
1000
0000
;

//---------------dance-single - ----------------
#NOTES:
     dance-single:
     :
     Medium:
     8:
     0.281595,0.341504,0.108414,0.000000,0.000000,200.000000,189.000000,11.000000,0.000000,0.000000,0.000000,0.281595,0.341504,0.108414,0.000000,0.000000,200.000000,189.000000,11.000000,0.000000,0.000000,0.000000:
0000
0000
0000
0000
,
0000
0000
0000
0000
,
0000
0000
0000
0000
,
0000
0000
0000
0000
,
0000
0000
0000
0000
,
0000
0000
0000
0000
,
0010
0000
0000
1000
0100
0000
0000
0000
,
0010
0000
0000
0001
0100
0000
0000
0000
,
0010
0000
0010
1000
0100
0000
0000
0000
,
0100
0000
0100
0010
0001
0000
0000
0000
,
0010
0000
0010
1000
0001
0000
0000
0000
,
0010
0000
0010
0001
1000
0000
0000
0000
,
0001
0001
0001
0000
0000
1000
0000
0000
,
0010
0010
1000
0000
0000
0010
1000
0000
,
0000
0000
0001
0001
,
0010
0010
1000
0000
0000
0010
0001
0000
,
1000
1000
1000
0000
0000
0001
0000
0000
,
0010
0000
0010
0000
0001
0100
1000
0001
,
1000
0000
1000
0000
1000
0100
0001
0100
,
0001
0000
0001
0000
0001
0100
1000
0100
,
0010
0000
0010
0000
1000
0100
1000
0100
,
0001
0101
0001
0001
,
1000
1100
1000
1000
,
0001
0101
1000
1100
,
0001
0000
0001
0000
0001
0000
0001
1000
,
0010
0000
0001
0000
1000
0000
0001
0100
,
1000
0000
0100
0000
0010
0000
0001
0010
,
0100
0000
1000
0000
0100
0000
0010
0001
,
1000
0000
0100
0000
0010
0000
0001
0010
,
1000
0000
0100
0000
0010
0000
0001
0010
,
0100
0000
1000
0000
0100
0000
0010
0001
,
1001
0100
0010
0010
,
1001
0000
0110
0000
0001
0100
1000
0000
,
0010
0100
0001
1000
,
0010
0010
0001
0001
,
0100
0100
1000
1000
,
0001
0001
0001
0000
0000
1000
0000
0000
,
0001
1000
0001
1000
,
0010
0010
1000
1000
,
0001
0001
0100
0100
,
1000
1000
1000
0000
0000
0001
0000
0000
,
1000
1010
1000
1000
,
0100
0101
0100
0100
,
0010
1010
0010
0010
,
1000
1100
1000
1000
,
0010
0000
0010
1000
0001
0000
0000
0000
,
0010
0000
0010
0001
1000
0000
0000
0000
,
0010
0010
0100
0000
,
1000
1000
1000
0000
0000
0001
0000
0000
,
0010
0000
0010
1000
0001
0000
0000
0000
;

//---------------dance-single - ----------------
#NOTES:
     dance-single:
     :
     Hard:
     10:
     0.356217,0.390290,0.147837,0.000000,0.064063,253.000000,238.000000,15.000000,0.000000,0.000000,0.000000,0.356217,0.390290,0.147837,0.000000,0.064063,253.000000,238.000000,15.000000,0.000000,0.000000,0.000000:
0000
0000
0000
0000
,
0000
0000
0000
0000
,
0000
0000
0000
0000
,
0000
0000
0000
0000
,
0000
0000
0000
0000
,
0000
0000
0000
0000
,
0010
0000
0010
1000
0100
0001
0100
0000
,
0010
0000
0010
0001
0100
1000
0100
0000
,
0010
0000
0010
1000
0010
1000
0100
0000
,
0010
0000
0010
0001
0010
0001
0100
0000
,
0010
0000
0010
1000
0001
0100
0001
0000
,
0010
0000
0010
0001
1000
0100
1000
0000
,
0001
0100
0001
0100
0001
0000
0000
0000
0000
0000
0010
0000
0000
0000
0000
0000
,
0010
0010
1000
0001
0000
0010
0001
1000
,
0000
0000
0001
0001
,
0010
0010
0001
1000
0000
0010
1000
0000
,
0001
0100
0001
0100
0001
0000
0000
0000
0000
0000
0010
0000
0000
0000
0000
0000
,
1000
0000
0000
0000
0100
0000
0000
0000
0001
1000
0100
0000
1000
0000
0100
0000
,
0001
0000
0100
0000
1000
0100
0100
0100
,
1000
0000
0100
0000
0001
0100
0100
0100
,
0001
0000
1000
0000
0001
0100
0100
0100
,
0001
0000
0000
0000
0101
0000
0000
0000
1000
0000
0000
0100
1000
0000
0000
0000
,
1000
0000
0000
0000
1100
0000
0000
0000
0001
0000
0000
0100
0001
0000
0010
0000
,
0001
0101
1000
1100
,
0001
0001
0001
0000
1000
0000
0001
1000
,
0010
0000
0001
0000
1000
0000
0001
0100
,
1000
0000
0100
0000
0001
0000
1000
0100
,
0001
0000
1000
0000
0100
0000
0001
1000
,
0001
0000
0100
0000
1000
0000
0001
0100
,
1000
0000
0010
0000
1000
0000
0001
0100
,
1000
0000
0100
0000
0001
0000
0010
1000
,
1001
0100
0010
1010
,
0011
0000
0110
0000
1100
0010
0001
0000
,
1010
0101
1000
0001
,
0010
0000
0010
0000
1000
0001
1000
0001
,
0100
0000
0100
0000
0010
1000
0100
0000
,
0001
0100
0001
0100
0001
0000
0000
0000
0000
0000
1000
0000
0000
0000
0000
0000
,
0001
0100
1000
0100
,
0010
0000
0010
0000
0001
1000
0001
1000
,
0001
0001
0100
0100
,
1000
0100
1000
0100
1000
0000
0000
0000
0000
0000
0001
0000
0000
0000
0000
0000
,
1000
1010
0010
0011
,
1000
1100
0100
0101
,
1000
0001
0100
0001
1000
0001
0100
0001
,
1000
1000
1000
0000
0100
0000
0100
0000
,
0010
0000
0010
1000
0001
1000
0100
0000
,
0010
0000
0010
0001
1000
0001
0100
0000
,
0010
0000
0010
1000
0100
1000
0100
0000
,
0001
0100
0001
0100
0001
0000
0000
0000
0000
0000
1000
0000
0000
0000
0000
0000
,
0010
0000
0010
1000
0001
0000
0000
0000
;

//---------------dance-double - ----------------
#NOTES:
     dance-double:
     :
     Easy:
     6:
     0.218236,0.292718,0.039423,0.000000,0.000000,155.000000,151.000000,4.000000,0.000000,0.000000,0.000000,0.218236,0.292718,0.039423,0.000000,0.000000,155.000000,151.000000,4.000000,0.000000,0.000000,0.000000:
00000000
00000000
00000000
00000000
,
00000000
00000000
00000000
00000000
,
00000000
00000000
00000000
00000000
,
00000000
00000000
00000000
00000000
,
00000000
00000000
00000000
00000000
,
00000000
00000000
00000000
00000000
,
00100000
00000000
00001000
00000000
,
00100000
00000000
00001000
00000000
,
00100000
00010000
00001000
00000000
,
00000010
00001000
00010000
00000000
,
01000000
00000000
00001000
00000000
,
00000100
00000000
00010000
00000000
,
10000000
10000000
00010000
00000000
,
00001000
00001000
00000001
00000000
,
00000010
00000000
00000010
00010000
00001000
00000000
00000000
00000000
,
00100000
00000000
00100000
00001000
00010000
00000000
00000000
00000000
,
00100000
00000000
01000000
00000000
,
00000010
00000000
00000100
00000000
,
00010000
00010000
00001000
00001000
,
00010000
00000010
00001000
00000000
,
00000010
00000010
00001000
00001000
,
00010000
00010000
00010000
00010000
,
01000000
01000000
10000000
00010000
,
00000100
00000100
00001001
00000000
,
00001000
00001000
00010000
00010000
,
10000000
01000000
00010000
00000100
,
00001000
00001000
00010000
00010000
,
01000000
01000000
00010000
00010000
,
00001000
00001000
00000100
00000100
,
00010000
10000000
00010000
00010000
,
00001000
00000100
00000001
00000100
,
00001000
00001000
01000000
01000000
,
10010000
01000000
00011000
00000110
,
00001000
00000100
00010000
10000000
,
00100000
00100000
00001000
00000001
,
00001000
00001000
00000100
00000100
,
00100000
00100000
01000000
01000000
,
00010000
00001000
00010000
00001000
,
00000010
00000010
00001000
00001000
,
00010000
00010000
01000000
01000000
,
10000000
00010000
00001000
00000001
,
00001000
00001000
00000001
00000001
,
00000100
00000100
00000100
00000000
,
00100000
00100000
00100000
00000000
,
10000000
10000000
10000000
00000000
,
00000001
00000001
00000001
00000000
,
00000010
00000000
00000100
00000000
,
00100000
00100000
01000000
00000000
,
00000010
00000000
00000010
00001000
00010000
00000000
00000000
00000000
,
00100000
00000000
00100000
00010000
00001000
00000000
00000000
00000000
;

//---------------dance-double - ----------------
#NOTES:
     dance-double:
     :
     Medium:
     8:
     0.274555,0.317111,0.059135,0.000000,0.000000,195.000000,189.000000,6.000000,0.000000,0.000000,0.000000,0.274555,0.317111,0.059135,0.000000,0.000000,195.000000,189.000000,6.000000,0.000000,0.000000,0.000000:
00000000
00000000
00000000
00000000
,
00000000
00000000
00000000
00000000
,
00000000
00000000
00000000
00000000
,
00000000
00000000
00000000
00000000
,
00000000
00000000
00000000
00000000
,
00000000
00000000
00000000
00000000
,
00000010
00000000
00000000
00000001
00000100
00000000
00000000
00000000
,
00100000
00000000
00000000
10000000
01000000
00000000
00000000
00000000
,
01000000
00000000
01000000
00010000
00001000
00000000
00000000
00000000
,
00000010
00000000
00000010
00001000
00010000
00000000
00000000
00000000
,
00100000
00000000
00100000
00010000
00001000
00000000
00000000
00000000
,
00000100
00000000
00000100
00001000
00010000
00000000
00000000
00000000
,
00010000
00001000
00010000
00000000
00000000
00001000
00000000
00000000
,
00000010
00000010
00001000
00000000
00000000
00010000
00001000
00000000
,
00000000
00000000
00010000
00010000
,
00000010
00000010
00001000
00000000
00000000
00100000
00010000
00000000
,
00001000
00010000
00001000
00000000
00000000
10000000
00000000
00000000
,
00100000
00000000
00100000
00000000
00010000
00001000
00000100
00000001
,
00000001
00000000
00000001
00000000
00000001
00000100
00001000
00010000
,
01000000
00000000
10000000
00000000
10000000
01000000
00010000
00001000
,
00000010
00000000
00000010
00000000
00001000
00010000
00001000
00010000
,
01000000
00010000
01000000
00010000
,
00001000
00000100
00000010
00001000
,
00010000
01010000
10000000
11000000
,
00010000
00000000
00010000
00000000
00001000
00000000
00001000
00000100
,
00000001
00000000
00000100
00000000
00001000
00000000
00010000
01000000
,
10000000
00000000
01000000
00000000
00100000
00000000
00010000
00001000
,
00000100
00000000
00000001
00000000
00000010
00000000
00000100
00001000
,
00010000
00000000
10000000
00000000
01000000
00000000
00100000
00010000
,
00001000
00000000
00000100
00000000
00000010
00000000
00000001
00000010
,
00000100
00000000
00001000
00000000
00010000
00000000
00100000
01000000
,
00010000
01000000
00100000
00100000
,
00001000
00000000
00000100
00000000
00011000
00100000
01000000
00000000
,
00100000
01000000
00010000
00001000
,
00000010
00000010
00000001
00000001
,
00000100
00000100
00001000
00001000
,
00010000
00001000
00010000
00000000
00000000
10000000
00000000
00000000
,
00010000
00001000
00000100
00001000
,
00100000
00100000
10000000
10000000
,
00010000
00010000
00000100
00000100
,
00010000
00001000
00010000
00000000
00000000
10000000
00000000
00000000
,
10000000
10000000
00010000
00010000
,
00000100
00000100
00001000
00001000
,
00010000
01010000
10000000
11000000
,
00010000
00110000
00001000
00001000
,
00000010
00000000
00000010
00000001
00001000
00000000
00000000
00000000
,
00100000
00000000
00100000
10000000
00010000
00000000
00000000
00000000
,
00000010
00000010
00000100
00000000
,
00010000
00001000
00010000
00000000
00000000
10000000
00000000
00000000
,
00100000
00000000
00100000
00010000
00001000
00000000
00000000
00000000
;

//---------------dance-double - ----------------
#NOTES:
     dance-double:
     :
     Hard:
     10:
     0.370297,0.439076,0.305530,0.019712,0.024640,263.000000,232.000000,31.000000,2.000000,0.000000,0.000000,0.370297,0.439076,0.305530,0.019712,0.024640,263.000000,232.000000,31.000000,2.000000,0.000000,0.000000:
00000000
00000000
00000000
00000000
,
00000000
00000000
00000000
00000000
,
00000000
00000000
00000000
00000000
,
00000000
00000000
00000000
00000000
,
00000000
00000000
00000000
00000000
,
00000000
00000000
00000000
00000000
,
00000011
00000000
00000100
00001000
00010000
00000000
00000000
00000000
,
10100000
00000000
01000000
00010000
00001000
00000000
00000000
00000000
,
00000011
00000000
00000100
00001000
00010000
00000000
00000000
00000000
,
00010000
01000000
10000000
01000000
00010000
00000000
00000000
00000000
,
00001000
00000010
00000001
00000100
00001000
00000000
00000000
00000000
,
00010000
01000000
10000000
00100000
00010000
00000000
00000000
00000000
,
00001000
00000010
00000001
00000010
00001000
00000000
00000000
00000000
,
00000010
00001000
00010000
00000000
00100000
00010000
00001000
00000000
,
00010010
00001000
00010000
00000000
01001000
00000000
00010100
00000000
,
00000100
00010000
00001000
00000000
01000000
00001000
00010000
00000000
,
00001000
00000100
00001000
00000100
00001000
00000000
00000000
00000000
00000000
00000000
00000101
00000000
00000000
00000000
00000000
00000000
,
00000010
00000001
00001000
00000001
00000010
00000000
00000010
00000000
,
00000001
00000100
00001000
00000000
00010000
01000000
01000000
00000000
,
10000000
01000000
00010000
00001000
01000000
00010000
01000000
00001000
,
00010000
00001000
00000100
00000000
00000101
00000000
00000011
00000000
,
00000010
00001000
00010000
00001000
00000010
00000000
00000010
00000000
,
00000001
00000100
00001000
00000000
00010000
01000000
10000000
00000000
,
00100000
00010000
01000000
00001000
00100000
00001000
00010000
00000010
,
00001000
00000100
00000010
00000000
00001100
00000000
00001010
00000000
,
00000010
00000000
00000001
00000100
00000100
00000000
00001000
00010000
,
00100000
00000000
10000000
01000000
01000000
00000000
00010000
00001000
,
00000010
00000000
00000001
00000100
00000100
00000000
00001000
00010000
,
00100000
00000000
10000000
01000000
01000000
00000000
00010000
00001000
,
00000010
00000000
00000001
00000100
00000100
00000000
00001000
00010000
,
00100000
00000000
10000000
01000000
01000000
00000000
00010000
00001000
,
00000010
00000000
00001010
00000000
00001100
00000000
00000100
00001000
,
00000001
00000100
00000100
00000000
00001000
00000100
00000100
00000000
,
00000101
00000000
00001001
00000000
00000100
00001000
00010000
00000000
,
00001000
00000010
00001000
00000000
00010000
01000000
00010000
00000000
,
00001000
00000010
00000001
00000000
00000001
00000010
00001000
00000000
,
00010000
00100000
10000000
00000000
20000000
00100000
30000000
00000000
,
11000000
00000000
10010000
00000000
01000000
00010000
00001000
00000000
,
00010000
00100000
00010000
00000000
00001000
00000100
00001000
00000000
,
00010000
00000100
00001000
00000000
00001000
00000100
00000010
00000000
,
00000001
00000100
00001000
00000000
00020000
00001000
00030000
00000000
,
00010100
00000000
00000000
00000000
00011000
00000000
00000000
00000000
00101000
00000000
00000000
00010000
01000000
00000000
00000000
00000000
,
00101000
00000000
00000000
00000000
00011000
00000000
00000000
00000000
00010100
00000000
00000000
00001000
00000010
00000000
00000000
00000000
,
00010010
00000000
00000000
00000000
00011000
00000000
00000000
00000000
01001000
00000000
00000000
00010000
00100000
00000000
00000000
00000000
,
00100000
00001000
00010000
00000000
00000010
00010000
00001000
00000000
,
00000110
00000000
00000000
00001000
00010000
00000000
00000000
00000000
,
01100000
00000000
00000000
00010000
00001000
00000000
00000000
00000000
,
00000110
00000000
00000000
00001000
00010000
00000000
00000000
00000000
,
01100000
00000000
00000000
00010000
00001000
00000000
00000000
00000000
,
00000110
00000000
00000000
00000001
00000100
00000000
00000000
00000000
;

//---------------dance-single - ----------------
#NOTES:
     dance-single:
     :
     Challenge:
     13:
     0.601204,0.563875,0.433656,0.374521,0.512502,427.000000,383.000000,44.000000,38.000000,0.000000,0.000000,0.601204,0.563875,0.433656,0.374521,0.512502,427.000000,383.000000,44.000000,38.000000,0.000000,0.000000:
// measure 0
0000
0000
0000
0000
,  // measure 1
0000
0000
0000
0000
,  // measure 2
0000
0000
0000
0000
,  // measure 3
0000
0000
0000
0000
,  // measure 4
0000
0000
0000
0000
,  // measure 5
1010
0000
0010
0100
0000
0100
0001
0000
0012
0000
1000
0000
1003
0000
0000
0000
,  // measure 6
0101
0000
0001
1000
0000
1000
0100
0000
1200
0000
0010
0000
0310
0000
0000
0000
,  // measure 7
0110
0000
0010
0001
0000
0001
1000
0000
2001
0000
0100
0000
3100
0000
0000
0000
,  // measure 8
0011
0000
0001
1000
0000
1000
0010
0000
2010
0000
0100
0000
3100
0000
0000
0000
,  // measure 9
1001
0000
0001
0010
0000
0010
0100
0000
1200
0000
1000
0000
1300
0000
0000
0000
,  // measure 10
0101
0000
0010
1000
0000
1000
0100
0000
0120
0000
0001
0000
0031
0000
0000
0000
,  // measure 11
1001
0000
1000
0001
0000
0001
0100
0000
0102
0000
0010
0000
0013
0000
0000
0000
,  // measure 12
0001
1000
0001
1000
0001
0000
0100
0000
0010
0000
0102
0000
1003
0001
1000
0000
,  // measure 13
0010
0000
1000
0000
1000
0000
0100
0010
0000
0010
0001
0000
0001
0000
0100
0010
,  // measure 14
2000
0000
0001
0000
3001
0000
0100
0000
0010
1000
0010
0000
1000
0100
1000
0000
,  // measure 15
0001
0000
0100
0000
0100
0000
0010
1000
0000
1000
0001
0000
0001
0000
0010
0100
,  // measure 16
1000
0001
1000
0001
1000
0000
0010
0000
0100
0000
2010
0000
3001
0000
0100
0000
,  // measure 17
0110
0000
0000
0000
0010
0000
1000
0000
1000
0000
0001
0100
0000
0100
0010
0000
,  // measure 18
1000
0000
1000
0000
1000
0000
0100
0010
0000
0000
0001
0100
0000
0001
0100
0000
,  // measure 19
0010
0000
1000
0000
0100
0000
0100
0000
0100
0000
0010
0001
0000
0001
1000
0000
,  // measure 20
0010
0000
1000
0100
0000
0010
0001
0000
2001
0000
0100
0000
3010
1000
0001
0000
,  // measure 21
0011
0000
0100
0000
1000
0000
0010
0000
1000
0000
0001
0100
0001
0000
1000
0000
,  // measure 22
0010
0000
1000
0000
0100
0000
0010
0001
0010
0000
0001
1000
0001
0000
0100
0000
,  // measure 23
0010
0000
1000
0000
0100
0000
0100
0000
0010
0000
0001
1000
0000
1000
0100
0000
,  // measure 24
1000
0001
0100
0000
0100
0010
0000
1010
0000
1000
0001
1000
0000
1000
0100
0010
,  // measure 25
0002
0000
0000
1003
0000
0000
1100
0000
1000
0010
0000
0010
0100
0000
0001
0000
,  // measure 26
0020
0000
0130
1000
0000
1000
0001
0000
0100
0020
0000
0000
1030
0000
0101
0000
,  // measure 27
2001
0000
0000
3010
0000
0000
0110
0000
0100
0001
0000
0001
1000
0000
0010
0000
,  // measure 28
2100
0000
0000
3001
0000
0000
1000
0000
0010
0000
0110
0000
1000
0001
0000
0000
,  // measure 29
0020
0000
0000
0230
0000
0000
1300
0000
0001
0000
0001
0000
1000
0010
0000
1000
,  // measure 30
0200
0000
0000
0320
0000
0000
0031
0000
1000
0000
2000
0000
0000
3001
0000
0000
,  // measure 31
1001
0000
0011
0000
1100
0001
1000
0020
,  // measure 32
0000
0000
0130
0000
0110
0000
0000
0000
1001
0000
1001
0000
0010
0000
1000
0001
,  // measure 33
0010
0000
0000
0000
0010
0000
0001
2000
0000
0000
0100
0000
0000
3010
0000
0000
,  // measure 34
0001
1000
0000
1000
0010
0000
0000
0000
0100
0001
0100
0000
0001
0010
0001
0000
,  // measure 35
0200
0000
0000
0310
1000
0000
0001
0000
0010
0000
0010
0000
0001
0100
0000
0000
,  // measure 36
1000
0010
1000
0010
1000
0000
0100
0000
0010
0000
0012
0000
1003
0000
0001
0100
,  // measure 37
0010
0000
0000
0000
0010
0000
1000
0002
0000
0000
1000
0000
0000
0103
0000
0000
,  // measure 38
0001
0010
0000
0010
0100
0000
0000
0000
1000
0001
1000
0000
0100
1000
0100
0000
,  // measure 39
0020
0000
0000
0130
0010
0000
0001
0000
1000
0000
1000
0000
0010
0100
0000
0000
,  // measure 40
0001
0010
0001
0010
0001
0000
1000
0000
0100
0000
2001
0000
3010
0000
0100
0000
,  // measure 41
0002
0000
0000
0000
0013
0000
0100
0000
1000
0010
0000
0010
1000
0000
0100
0000
,  // measure 42
0010
0000
0000
0000
0001
0000
0100
0000
1000
0001
1000
0000
0010
0100
0010
0000
,  // measure 43
2000
0000
0000
0000
3100
0000
0010
0000
0001
1000
0000
1000
0001
0000
0100
0000
,  // measure 44
0010
0000
2000
0000
0000
3002
0000
0000
1003
0100
0000
0100
0010
0000
0001
0000
,  // measure 45
0101
0000
1000
0001
0000
0001
0100
0000
0120
0000
1000
0000
1030
0000
0000
0000
,  // measure 46
1100
0000
0100
0010
0000
0010
0001
0000
0102
0000
0100
0000
0103
0000
0000
0000
,  // measure 47
0110
0000
0001
1000
0000
1000
0010
0000
2010
0000
0100
0000
3100
0000
0000
0000
,  // measure 48
0100
0010
0100
0010
0100
0000
1000
0000
0001
0000
2100
0000
3010
0000
0000
0000
,  // measure 49
2001
0000
3010
1100
0021
0001
0130
0000
;
