#VERSION:0.83;
#TITLE:Downtown;
#SUBTITLE:;
#ARTIST:Tommie Sunshine;
#TITLETRANSLIT:;
#SUBTITLETRANSLIT:;
#ARTISTTRANSLIT:;
#GENRE:;
#ORIGIN:;
#TAGS:;
#CREDIT:;
#BANNER:Downtown-bn.png;
#BACKGROUND:Downtown-bg.png;
#PREVIEWVID:;
#JACKET:Downtown-jacket.png;
#CDIMAGE:;
#DISCIMAGE:;
#LYRICSPATH:;
#CDTITLE:;
#MUSIC:Downtown.ogg;
#OFFSET:-0.015625;
#SAMPLESTART:23.127001;
#SAMPLELENGTH:20.000000;
#SELECTABLE:YES;
#BPMS:0.000000=135.000000;
#STOPS:;
#DELAYS:;
#WARPS:;
#TIMESIGNATURES:0.000000=4=4;
#TICKCOUNTS:0.000000=4;
#COMBOS:0.000000=1;
#SPEEDS:0.000000=1.000000=0.000000=0;
#SCROLLS:0.000000=1.000000;
#FAKES:;
#LABELS:0.000000=Song Start;
#BGCHANGES:;
#KEYSOUNDS:;
#ATTACKS:
;

//---------------dance-single - ----------------
#NOTEDATA:;
#CHARTNAME:;
#CHARTHASH:188341409:
#STEPSTYPE:dance-single;
#BANNER:;
#DESCRIPTION:;
#CHARTSTYLE:;
#DIFFICULTY:Beginner;
#METER:3;
#METERF:0.000000;
#RADARVALUES:0.159255,0.216820,0.051137,0.000000,0.000000,109.000000,104.000000,5.000000,0.000000,0.000000,0.000000,0.000000,0.000000,0.000000,0.159255,0.216820,0.051137,0.000000,0.000000,109.000000,104.000000,5.000000,0.000000,0.000000,0.000000,0.000000,0.000000,0.000000;
#CREDIT:;
#NOTES:
0000
0000
0000
0000
,
0000
0000
0000
0000
,
0000
0000
0000
0000
,
0000
0000
0000
0000
,
0000
0000
0000
0000
,
0010
0000
0000
0000
,
1000
0000
0000
0000
,
0001
0000
0000
0000
,
0100
0000
0000
0000
,
0010
0000
0010
0000
,
1000
0000
1000
0000
,
0001
0000
0001
0000
,
0100
0000
0100
0000
,
0001
0000
0001
0001
,
0001
0000
0001
0000
,
0010
0000
0010
0010
,
0010
0000
0010
0000
,
0100
0000
0100
0100
,
0100
0000
0100
0000
,
1000
0000
1000
1000
,
1000
0000
0000
0000
,
0001
0000
0001
0000
,
0100
0000
0100
0000
,
1000
0000
1000
0000
,
0100
0000
0100
0000
,
1001
0000
1001
0000
,
1000
0000
1000
0000
,
1001
0000
1001
0000
,
0001
0001
0000
0000
,
0010
0010
0000
0000
,
1000
1000
0000
0000
,
0001
0001
0000
0000
,
0100
0100
0000
0000
,
0010
0010
0000
0000
,
1000
1000
0000
0000
,
0001
0001
0000
0000
,
0100
0100
0000
0000
,
0010
0000
0010
0000
,
1000
0000
1000
0000
,
0010
0000
0010
0000
,
0001
0000
0001
0000
,
1000
0000
1000
0000
,
0100
0000
0100
0000
,
0001
0000
0001
0000
,
0100
0000
0100
0000
,
1000
1000
1000
0000
,
0001
0001
0001
0000
,
1000
1000
1000
0000
,
0001
0001
0001
0000
,
0010
0010
0010
0000
,
0100
0100
0100
0000
,
1000
1000
1000
0000
,
0001
0001
0001
0000
,
1001
0000
0000
0000
;

//---------------dance-single - ----------------
#NOTEDATA:;
#CHARTNAME:;
#CHARTHASH:783833342:
#STEPSTYPE:dance-single;
#BANNER:;
#DESCRIPTION:;
#CHARTSTYLE:;
#DIFFICULTY:Easy;
#METER:6;
#METERF:0.000000;
#RADARVALUES:0.277600,0.379435,0.204547,0.378412,0.000000,190.000000,170.000000,20.000000,37.000000,0.000000,0.000000,0.000000,0.000000,0.000000,0.277600,0.379435,0.204547,0.378412,0.000000,190.000000,170.000000,20.000000,37.000000,0.000000,0.000000,0.000000,0.000000,0.000000;
#CREDIT:;
#NOTES:
0000
0000
0000
0000
,
0000
0000
0000
0000
,
0000
0000
0000
0000
,
0000
0000
0000
0000
,
0000
0000
0000
0000
,
0010
0000
1000
0000
,
0001
0000
0100
0000
,
0010
0000
1000
0010
,
0100
0000
0001
0100
,
0010
0010
1000
0100
,
0010
0010
0001
0100
,
1000
1000
0100
0001
,
0100
0100
1000
0010
,
2000
3000
0001
0100
,
0001
0100
0202
0303
,
0002
0003
1000
0100
,
1000
0100
2200
3300
,
0002
0103
2000
3100
,
0001
1000
2002
3003
,
0010
0010
1000
1000
,
0100
0100
0001
0001
,
0100
0200
1000
2300
,
0001
3002
0010
0013
,
0001
0001
0100
0100
,
1000
1000
0100
0100
,
0020
0000
0030
0001
0010
0000
0000
0000
,
0200
0000
0300
1000
0100
0000
0000
0000
,
2000
0000
3000
0010
1000
0000
0000
0000
,
0001
0001
0000
1001
,
0020
1030
0001
0100
,
0002
0103
0010
1000
,
0200
1300
0001
0010
,
2000
3010
0100
0001
,
0010
0010
1000
0100
,
0010
0010
0001
0100
,
1000
1000
0100
0001
,
0100
0100
1000
0010
,
2000
3000
0001
0100
,
0001
0100
0202
0303
,
0202
0303
0100
0001
,
1000
0010
2020
3030
,
2020
3030
1000
0010
,
0100
0001
0202
0303
,
1000
1010
0001
0011
,
1000
1100
0001
0101
,
1000
1000
0001
0100
,
0001
0100
0202
0303
,
0002
0103
2000
3100
,
0001
1000
2002
3003
,
0010
0010
0001
0001
,
0100
0100
1000
1000
,
0010
1010
0001
0101
,
0010
1010
0001
0101
,
1001
0000
0000
0000
;

//---------------dance-single - ----------------
#NOTEDATA:;
#CHARTNAME:;
#CHARTHASH:1912116188:
#STEPSTYPE:dance-single;
#BANNER:;
#DESCRIPTION:;
#CHARTSTYLE:;
#DIFFICULTY:Medium;
#METER:8;
#METERF:0.000000;
#RADARVALUES:0.349191,0.406537,0.092046,0.306821,0.000000,239.000000,230.000000,9.000000,30.000000,0.000000,0.000000,0.000000,0.000000,0.000000,0.349191,0.406537,0.092046,0.306821,0.000000,239.000000,230.000000,9.000000,30.000000,0.000000,0.000000,0.000000,0.000000,0.000000;
#CREDIT:;
#NOTES:
0000
0000
0000
0000
,
0000
0000
0000
0000
,
0000
0000
0000
0000
,
0000
0000
0000
0000
,
0000
0000
0000
0000
,
0100
0001
0010
0001
,
1000
0010
0100
0001
,
1000
0100
0001
0100
,
0010
0001
1000
0100
,
0010
0000
1000
0000
0001
0100
0001
0000
,
1000
0000
0100
0000
0010
0001
0010
0000
,
0001
0000
0100
0000
0010
1000
0010
0000
,
1000
0000
0100
0000
0010
0001
0010
0000
,
0002
0000
0013
0001
1000
0000
1000
0000
,
0010
1000
0010
1000
0002
0000
0003
0000
,
0002
0000
0103
0001
1000
0000
1000
0000
,
0100
1000
0100
1000
0002
0000
0003
0000
,
0002
0000
0013
0001
1000
0000
1000
0000
,
0010
1000
0010
1000
0002
0000
0103
0000
,
0010
0000
1000
0010
1000
0010
2000
0000
,
3002
0103
2000
3100
,
0020
0000
0030
0001
0020
0000
0030
1000
,
0020
0000
0030
0001
0020
0000
0030
1000
,
0020
0031
0002
1003
,
2000
3100
0200
1300
,
2002
0000
3003
0010
2000
0000
3000
0100
,
2000
0000
3000
0010
2000
0000
3000
0100
,
2000
0000
3000
0010
2000
0000
3000
0100
,
1000
0100
1000
0100
0000
0000
1001
0000
,
0100
0001
0010
0001
,
1000
0010
0100
0001
,
1000
0100
0001
0100
,
0010
0001
1000
0100
,
1000
0100
1000
0000
0001
0100
0000
0000
,
0001
0100
0001
0000
1000
0100
0000
0000
,
1000
0100
1000
0000
0001
0100
0000
0000
,
0001
0100
0001
0000
0010
0000
0010
0000
,
0001
0011
1000
1010
,
0001
0000
0010
0000
0001
0010
0001
0010
,
0001
0101
1000
1100
,
0001
0000
0100
0000
0001
0100
0001
0100
,
0010
1010
0001
0101
,
0010
0000
1000
0000
0010
1000
0010
1000
,
0010
0010
1000
1000
,
0001
0000
0001
0000
0100
0001
0100
0001
,
0200
0000
0301
0100
0001
0000
0100
0001
,
1000
0100
1000
0100
2000
0000
3000
0000
,
0002
0000
0013
0001
0010
0000
0001
0010
,
0100
1000
0100
1000
0200
0000
0300
0000
,
0020
0000
0031
0010
0001
0000
0010
0001
,
1000
0100
1000
0100
2000
0000
3000
0000
,
0010
1000
0001
0100
,
0010
0000
1000
0000
0001
1000
0001
1000
,
1001
0000
0000
0000
;

//---------------dance-single - ----------------
#NOTEDATA:;
#CHARTNAME:;
#CHARTHASH:1645523794:
#STEPSTYPE:dance-single;
#BANNER:;
#DESCRIPTION:;
#CHARTSTYLE:;
#DIFFICULTY:Hard;
#METER:10;
#METERF:0.000000;
#RADARVALUES:0.410555,0.460742,0.010227,0.040909,0.000000,281.000000,280.000000,1.000000,4.000000,0.000000,0.000000,0.000000,0.000000,0.000000,0.410555,0.460742,0.010227,0.040909,0.000000,281.000000,280.000000,1.000000,4.000000,0.000000,0.000000,0.000000,0.000000,0.000000;
#CREDIT:;
#NOTES:
0000
0000
0000
0000
,
0000
0000
0000
0000
,
0000
0000
0000
0000
,
0000
0000
0000
0000
,
0000
0000
0000
0000
,
1000
0000
0100
0000
0010
0000
0001
1000
,
0010
0100
0001
1000
0100
0000
0010
0000
,
0001
0000
0100
0001
1000
0000
0100
0010
,
0001
0000
1000
0001
0100
0000
0010
0000
,
1000
0000
0100
1000
0100
0000
0010
0001
,
1000
0001
0100
0001
1000
0000
0100
0000
,
0010
0000
0001
1000
0010
0100
0001
0000
,
1000
0000
0100
1000
0100
0000
0010
0000
,
0001
0000
0100
0010
1000
0000
0001
0000
,
1000
0100
0010
0001
1000
0000
0001
0000
,
0100
0000
0001
1000
0100
0010
0001
0000
,
1000
0001
0100
0001
1000
0000
0100
0000
,
0010
0000
0001
1000
0010
1000
0010
0000
,
1000
0100
0010
0001
1000
0000
0001
0000
,
0100
0000
0010
1000
0001
1000
0001
0000
,
0010
0100
1000
0001
0100
0010
0000
0000
,
2000
0000
3000
0100
1000
0000
0001
0100
,
0002
0000
0003
0100
0001
0000
1000
0100
,
0020
0000
0030
0001
1000
0000
0001
0100
,
0020
0000
0030
0100
0001
0000
1000
0100
,
1000
0000
0100
1000
0100
0000
0010
0001
,
0100
0000
0001
0100
0001
0000
1000
0010
,
1000
0000
0100
0010
0001
0000
1000
0001
,
1000
0100
0010
0001
0000
0000
1001
0000
,
1000
0000
0100
0010
0001
0000
1000
0001
,
0100
0010
1000
0010
1000
0000
0001
0000
,
1000
0100
0010
0000
0001
1000
0010
1000
,
0010
0000
0100
0001
1000
0100
0010
0000
,
1000
0000
0001
1000
0100
0000
0010
0000
,
0001
1000
0010
0100
0001
0000
1000
0000
,
0001
0000
1000
0100
0010
0000
0001
1000
,
0001
0000
1000
0000
0001
0100
0010
0000
,
1000
0000
0100
1000
0001
0100
0001
0000
,
0100
0001
0100
0010
1000
0001
1000
0000
,
0100
0000
0010
0001
1000
0001
0100
0010
,
1000
0100
0010
0001
1000
0000
0001
0000
,
0100
0000
0001
1000
0100
0000
0010
0000
,
0001
1000
0010
0100
0001
0000
1000
0000
,
0100
0010
0001
1000
,
0001
0010
0100
1000
0000
0001
1000
0000
,
0001
0000
0100
0001
1000
0100
1000
0000
,
0100
0010
0001
1000
0010
0000
0100
0000
,
0001
0000
1000
0001
0100
0000
0010
0000
,
1000
0100
0010
0001
1000
0000
0001
0000
,
0100
0000
0010
1000
0001
0000
1000
0000
,
0100
0010
0001
1000
0010
0000
0100
0000
,
0001
1000
0100
1000
0100
0010
0100
0010
,
0001
0100
0010
1000
0100
1000
0001
1000
,
0001
0000
0000
0000
;

//---------------dance-single - ----------------
#NOTEDATA:;
#CHARTNAME:;
#CHARTHASH:0:
#STEPSTYPE:dance-single;
#BANNER:;
#DESCRIPTION:;
#CHARTSTYLE:;
#DIFFICULTY:Challenge;
#METER:12;
#METERF:0.000000;
#RADARVALUES:0.558121,0.549720,0.265911,0.327275,0.005114,382.000000,356.000000,26.000000,32.000000,0.000000,0.000000,0.000000,0.000000,0.000000,0.558121,0.549720,0.265911,0.327275,0.005114,382.000000,356.000000,26.000000,32.000000,0.000000,0.000000,0.000000,0.000000,0.000000;
#CREDIT:;
#NOTES:
// measure 0
0000
0000
0000
0000
,  // measure 1
0000
0000
0000
0000
,  // measure 2
0000
0000
0000
0000
,  // measure 3
0000
0000
0000
0000
,  // measure 4
0000
0000
0000
0000
,  // measure 5
1001
0001
0010
0100
0010
0000
0001
1000
,  // measure 6
0010
0100
0010
1000
0000
0001
0001
0000
,  // measure 7
0110
0010
1000
0001
0010
0000
0001
0100
,  // measure 8
0010
1000
0010
0100
0000
0001
0001
0000
,  // measure 9
0011
0001
1000
0010
1000
0100
0010
0001
,  // measure 10
0100
0010
0100
0001
0000
1000
1000
0000
,  // measure 11
1100
1000
0001
0010
0001
0100
1000
0000
,  // measure 12
0010
0000
0100
0000
0010
0000
1000
0000
0001
0000
0100
0000
0100
0000
0001
1000
,  // measure 13
0001
0010
1000
1000
2000
0100
3200
0000
,  // measure 14
1300
0010
0100
0100
0200
0001
0301
0010
,  // measure 15
0100
1000
0001
0001
0002
0010
0023
0000
,  // measure 16
0031
1000
0010
0010
0020
0100
0130
0001
,  // measure 17
1000
0001
0010
0010
0020
0001
0032
0000
,  // measure 18
0103
0001
1000
1000
2000
0010
3010
0100
,  // measure 19
0001
1000
0200
1000
2300
0001
3001
0010
,  // measure 20
0001
0100
0010
1000
0100
1100
0101
1000
,  // measure 21
0020
0100
0130
0001
2000
0010
3010
0000
,  // measure 22
2000
0001
3001
0010
0200
1000
1300
0000
,  // measure 23
0002
0100
0103
0010
1000
0001
1000
0100
,  // measure 24
0010
0001
1000
0010
1000
1100
0101
0000
,  // measure 25
1001
1001
0010
1000
0002
0100
0103
0000
,  // measure 26
0020
0100
0130
0010
2000
0001
3001
0000
,  // measure 27
0020
0001
0031
1000
0020
0100
0130
0001
,  // measure 28
1001
0110
1001
0110
0000
0000
1010
0000
,  // measure 29
1001
0001
1000
0010
1000
0100
0010
0001
,  // measure 30
0100
0010
1000
0001
0000
0010
0011
0000
,  // measure 31
1100
1000
0010
1000
0100
0010
0001
0100
,  // measure 32
0010
1000
0100
0010
0000
0001
0101
0000
,  // measure 33
0110
0010
1000
0100
1000
0010
0100
0001
,  // measure 34
1000
0001
1000
0010
0000
0100
0101
0000
,  // measure 35
1001
0010
1000
0001
1000
0100
0010
0001
,  // measure 36
0100
0010
1000
0001
0020
0100
0100
0130
,  // measure 37
1000
0001
1000
0010
2000
0100
3200
0000
,  // measure 38
0310
0001
1000
1000
0020
0100
0130
0001
,  // measure 39
1000
0001
0010
0001
0200
0010
0320
0000
,  // measure 40
0130
0001
0010
0010
0200
1000
1300
0001
,  // measure 41
1000
0010
1000
0001
0020
0100
0230
0000
,  // measure 42
0310
0100
1000
1000
0002
0010
0013
0100
,  // measure 43
1000
0001
1000
0010
0100
0001
0010
0100
,  // measure 44
1000
0010
0100
0001
0000
1100
0101
1000
,  // measure 45
0010
0100
0001
1000
0001
1000
0010
0100
,  // measure 46
1000
0100
0100
0001
0010
0001
1000
0010
,  // measure 47
0001
0001
0010
1000
1000
0100
0100
0010
,  // measure 48
0001
0010
1000
0100
0001
0100
1000
0010
,  // measure 49
0001
0010
1000
1000
0010
0100
0100
0001
,  // measure 50
0010
0010
1000
1000
0100
0001
0001
0100
,  // measure 51
1000
1000
0100
0100
0010
0010
0001
0001
,  // measure 52
0100
0100
0010
0010
1000
1100
0101
1000
,  // measure 53
0002
0000
0000
0003
;
