#TITLE:Do It Right (Harmonized 2Step Mix);
#ARTIST:SOTA feat. Ebony Fay;
#BANNER:Do It Right (Harmonized 2Step Mix)-bn.png;
#BACKGROUND:Do It Right (Harmonized 2Step Mix)-bg.png;
#JACKET:Do It Right (Harmonized 2Step Mix)-jacket.png;
#MUSIC:Do It Right (Harmonized 2Step Mix).ogg;
#SAMPLESTART:44.444;
#SAMPLELENGTH:20;
#DISPLAYBPM:135;
#BPMS:0=135;
#BGCHANGES:;

//---------------dance-single - ----------------
#NOTES:
     dance-single:
     :
     Beginner:
     3:
     :
0000
0000
0000
0000
,
0000
0000
0000
0000
,
0000
0000
0000
0000
,
0000
0000
0000
0000
,
1001
0000
0000
0000
,
1000
0000
0000
0000
,
0010
0000
0100
0000
,
0001
0000
0000
0000
,
1001
0000
0000
0000
,
0010
0000
0010
0000
,
0100
0000
0100
0000
,
0010
0000
0001
0000
,
0001
0000
0010
0000
,
0010
0000
0010
0000
,
0100
0000
0100
0000
,
1000
0000
0100
0000
,
0001
0000
0100
0000
,
0010
0000
0010
0000
,
0100
0000
0100
0000
,
0010
0000
0001
0000
,
0001
0000
0010
0000
,
0010
0000
0010
0000
,
0100
0000
0100
0000
,
1000
0000
0100
0000
,
0001
0000
0100
0000
,
1001
0000
0000
0000
,
0010
0000
0100
0000
,
1001
0000
1001
0000
,
0010
0000
0100
0000
,
1001
0000
0000
0000
,
0010
0000
0100
0000
,
1001
0000
1001
0000
,
0010
0000
0100
0000
,
0110
0000
0001
0000
,
0100
0000
1000
0000
,
0110
0000
0110
0000
,
0010
0000
0100
0000
,
0110
0000
0001
0000
,
0100
0000
1000
0000
,
0110
0000
0110
0000
,
0010
0000
0010
0000
,
0001
0000
0000
0000
,
0001
0000
0010
0000
,
0010
0000
0010
0000
,
0100
0100
0100
0100
,
0100
0000
0100
0000
,
0001
0000
0000
0000
,
0001
0000
0100
0000
,
0100
0000
0100
0000
,
0010
0010
0010
0010
,
0010
0000
0000
0000
;

//---------------dance-single - ----------------
#NOTES:
     dance-single:
     :
     Easy:
     6:
     :
0000
0000
0000
0000
,
0000
0000
0000
0000
,
0000
0000
0000
0000
,
0000
0000
0000
0000
,
0001
0000
1000
0000
,
0001
0100
0000
1000
,
1000
0100
0000
0001
,
1000
0000
0010
0000
,
0001
1000
0100
0001
,
0010
0000
0100
0000
,
0001
0100
1000
0110
,
0001
0010
0100
0001
,
1000
0100
0010
1000
,
0001
0000
0001
0000
,
1000
0000
0100
0000
,
0010
0100
1001
0000
,
0010
1000
0100
0001
,
0110
0000
0100
0000
,
0010
0001
1000
0001
,
0200
0300
0100
1000
,
0001
0010
0100
1000
,
0001
1000
0002
0103
,
1000
0001
2000
3100
,
0020
0030
0200
0300
,
1000
0100
0010
0000
,
1001
0220
0330
1001
,
0010
1000
0100
0001
,
0020
0030
0200
0300
,
1000
1000
0001
0001
,
0200
0300
0100
1001
,
0020
0130
0000
0110
,
1000
0001
0100
1001
,
0010
0001
0100
0100
,
0001
0010
1000
0100
,
0002
0103
2000
3000
,
0100
0100
0010
0010
,
0100
1001
0200
0300
,
0001
0001
1000
0100
,
1000
1000
0001
0100
,
0020
0030
1000
0100
,
0001
0001
0100
0010
,
1000
0001
0010
0110
,
0001
0100
0010
1000
,
0100
0010
0001
1001
,
0010
0001
1000
0100
,
0001
0010
1000
0100
,
0001
0100
0001
1001
,
0010
1000
0100
0110
,
1000
1000
0010
0100
,
0001
1000
0001
0001
,
0110
0000
0000
0000
;

//---------------dance-single - ----------------
#NOTES:
     dance-single:
     :
     Medium:
     8:
     :
0000
0000
0000
0000
,
0000
0000
0000
0000
,
0000
0000
0000
0000
,
0000
0000
0000
0000
,
0001
0001
1000
0100
,
0002
0000
0103
0000
1000
0100
0001
0000
,
0010
2000
3001
0100
,
0020
0030
0200
0300
,
0001
0000
0100
0000
0010
0001
1000
0000
,
0020
0030
2000
3000
,
0200
0310
0002
1003
,
0010
0100
0001
0000
0010
0100
0010
0000
,
0001
0100
1000
0010
,
0200
0000
0010
0301
,
1000
0000
0010
0000
0100
0001
0010
0000
,
1002
0000
0103
0110
,
2000
0000
3100
0000
0001
0100
1000
0000
,
0002
0103
0010
1000
,
0200
0310
0001
1000
,
0002
0103
0020
0130
,
0001
1000
0100
0000
0010
0001
0100
0000
,
0010
2000
3001
0100
,
0010
0200
0301
1000
,
0001
0000
0001
0000
0100
1000
0100
0000
,
0001
0010
0100
1000
,
0110
0000
1010
0000
0001
1000
0001
0100
,
0010
0001
0010
1000
,
0001
0100
0001
0000
1000
0100
1000
0000
,
0010
0000
0000
1000
0000
0000
0100
0000
0000
0000
0000
0000
0110
0000
0000
0000
,
0010
0000
0002
0000
1003
0100
0010
0000
,
2010
0000
0001
0000
3000
0100
0010
0000
,
0001
0100
0010
1000
0100
0010
0001
0000
,
0200
0000
0010
0301
,
1000
0000
0100
0010
0001
1000
0100
0000
,
0010
1001
0100
0110
,
0001
0100
0010
0000
0100
0001
1000
0000
,
0001
0000
0000
1000
0000
0000
0200
0000
0000
0000
0000
0000
0300
0000
0000
0000
,
0011
0000
0100
0000
0001
0010
0100
0000
,
1010
0000
0100
0000
0010
1000
0100
0000
,
0001
1000
0001
0000
0010
0000
1000
0000
,
0002
0103
2000
3010
,
0101
0110
1001
0100
,
1000
0000
0010
0000
1000
0100
0001
0000
,
1000
0020
0130
0001
,
0010
0100
0010
0000
0001
0100
0010
0000
,
1000
0000
0001
0000
0010
0001
0100
0000
,
0010
0100
0001
1000
0100
0010
0100
0000
,
1000
0000
0001
0000
0010
1000
0001
0000
,
1001
0000
0100
0000
0001
1000
0100
0000
,
1000
0001
0100
0100
,
0010
0000
1000
0100
0000
0000
0000
0000
;

//---------------dance-single - ----------------
#NOTES:
     dance-single:
     :
     Hard:
     9:
     :
0000
0000
0000
0000
,
0000
0000
0000
0000
,
0000
0000
0000
0000
,
0000
0000
0000
0000
,
1000
0100
0010
0001
0010
1000
0100
0000
,
0000
0001
0100
0000
2000
0000
3100
0000
,
0001
1000
0100
0000
0000
0001
0100
0000
,
0010
0001
1000
0001
0200
0000
0310
0000
,
1000
0100
0010
0000
0001
0000
0100
0000
,
0020
1030
0200
0310
,
0001
0100
0010
0000
1000
0000
0001
0000
,
1000
0001
0010
0100
1000
0000
0001
0000
,
0010
0001
0100
0000
0010
1000
0200
0000
,
0300
0010
0001
1000
,
0020
0000
0030
0000
1000
0001
0100
0000
,
0010
0100
0010
0000
1000
0001
0100
0000
,
0010
0000
0100
0000
1000
0000
0000
0000
0001
0000
0000
0010
0000
0000
0100
0000
,
2000
3000
0001
0100
,
0020
0130
0002
1003
,
0010
0100
1000
0100
0010
0001
0100
0000
,
0001
0020
1000
0130
,
0001
0100
0001
0010
2000
0000
3001
0000
,
0100
0000
0010
0000
1000
0001
0100
0000
,
0020
1000
1030
0000
0200
0001
0301
0000
,
0010
0002
0103
0010
,
0200
0010
0301
0000
1000
0000
0100
0000
,
0010
1000
0100
1000
0200
0000
0310
0000
,
0001
0100
0001
0000
1000
0001
0100
0000
,
0010
0000
0000
0001
0000
0000
0200
0000
0000
0000
0000
0000
0300
0000
0000
0000
,
1001
0000
0100
1000
0000
0001
0100
0000
,
0020
0000
1030
0100
0010
0000
0100
0000
,
0002
2003
3200
0320
,
0031
1100
0010
0101
,
0000
0010
0100
0010
1000
0001
0100
0010
,
0100
1001
0100
1000
,
0010
0100
0001
0000
1000
0100
0010
0000
,
1001
0000
0000
0100
0000
0000
0020
0000
0000
0000
0000
0000
0030
0000
0000
0000
,
0001
0000
0000
0000
0010
0100
0000
0010
0000
0000
1000
0000
0100
0000
0000
0000
,
0001
0000
0000
1000
0000
0000
0001
0000
0200
0000
0000
0000
0300
0000
0000
0000
,
0110
0110
0001
0000
1000
0100
0010
0000
,
0002
0100
1003
0100
,
0220
0000
0330
0000
1000
0010
0100
0000
,
0010
0010
1000
0001
0200
0000
0300
0000
,
1000
0100
1000
0001
0010
0000
0100
0000
,
0001
1000
0001
0100
0010
0100
0010
0000
,
2200
0000
3300
0000
0001
0010
0100
0000
,
1000
1000
0001
0100
0020
0000
0130
0000
,
0010
1000
0100
0010
0001
1000
0100
0000
,
0002
0000
1003
0000
0001
0100
0010
0000
,
0200
0310
2000
3100
,
0020
0000
0031
0200
0000
0000
0000
0000
,
0000
0300
0000
0000
0000
0000
0000
0000
;

//---------------dance-single - ----------------
#NOTES:
     dance-single:
     :
     Challenge:
     12:
     :
0000
0000
0000
0000
,
0000
0000
0000
0000
,
0000
0000
0000
0000
,
0000
0000
0000
0000
,
0000
0000
0000
0000
,
0010
0000
0001
0000
0100
0000
0010
0000
1000
0000
0001
0100
0000
0000
0000
0000
,
0001
0000
0010
0000
0100
0000
1000
0001
0000
0000
0100
0010
0000
0100
0010
0000
,
0000
0000
1000
0000
0010
0000
0100
0000
0001
0000
1000
0000
0100
0000
0010
0001
,
0010
0001
0010
0000
0100
0000
1000
0000
0001
0100
0001
0100
0001
0000
0000
0000
,
1001
0000
0000
0000
0010
0000
1000
0000
0200
0000
0000
0000
1300
0001
0000
0010
,
0001
0000
0000
0000
0100
0000
0010
0000
2000
0000
0000
0000
3100
1000
0000
0001
,
0100
0010
1000
0010
0001
0010
1000
0010
,
0100
0000
1000
0000
0100
0000
0001
0000
0100
0000
0000
0110
0000
0000
1000
0001
,
1000
0000
0000
0000
0100
0000
0010
0000
0001
0000
0100
0000
0010
1000
0000
0001
,
0100
0000
0000
0000
0010
0000
1000
0000
0100
0000
0010
0000
0001
0000
1000
0010
,
0000
1000
0010
0000
0100
0000
0001
0000
0010
0000
0100
0000
1000
0001
1000
0000
,
0010
0000
1000
0000
0100
0000
0010
0000
0002
0000
0000
2003
0000
0000
3001
0000
,
1001
0000
0000
0000
0010
0000
0001
0000
0100
0000
0010
0000
1000
0100
0000
1000
,
0001
0000
0000
0000
0010
0000
0001
0000
1000
0000
0000
0000
0010
0100
0000
0001
,
1000
0100
0001
0100
0010
0100
0001
0100
,
1000
0000
0100
0000
0010
0000
0001
0000
0101
0000
0000
1100
0000
0000
0101
0000
,
1000
0001
1000
0000
0010
0000
0100
0000
0002
0000
0000
0000
0013
0100
0000
0010
,
0100
0000
1000
0000
0001
0000
0100
0000
0020
0000
0000
0000
1030
0001
0000
0010
,
0000
0000
0001
1000
0001
0000
0100
0000
0010
0000
1000
0000
0010
0000
0100
0000
,
0001
0000
0010
0000
0001
0000
0100
0000
2000
0000
0000
0000
3010
0100
0010
0100
,
0010
0000
1010
0001
1000
0100
0010
0001
,
0100
0000
0010
0000
1000
0000
0001
0100
0001
0000
0000
0000
0010
0000
0001
0100
,
0001
0000
0000
0000
0101
0000
0100
0010
0000
1000
0001
0000
1000
0000
0100
0000
,
2000
0000
0000
3002
0000
0000
0023
0000
0000
0000
0000
0000
0031
0000
0100
0000
,
1010
0000
0000
0000
1000
0100
0000
1000
0002
0000
0100
0000
0103
0000
0001
0010
,
0002
0000
0000
0100
0000
0000
1000
0000
1003
0000
0000
0000
0010
0000
0100
0000
,
1001
0000
1100
0100
0001
0010
0001
0100
,
1000
0000
0010
0000
0001
0000
0100
0000
2000
0000
0000
0000
3010
0100
0010
0100
,
0010
0000
1001
0200
0000
0310
1000
0001
,
1000
0000
0100
0000
0010
0001
0000
0001
0100
0000
0000
0000
0010
0000
1000
0001
,
1000
0001
1000
0000
0100
0000
0010
0000
0001
0000
0100
0000
0001
0000
0010
0000
,
0110
0000
0000
1001
0000
0000
0220
0000
0300
0000
0000
0000
1030
0000
0001
0000
,
0011
0000
0000
0000
0001
0100
0000
0010
1000
0000
0000
0000
1100
0000
1000
0010
,
2000
0000
0000
0001
0000
0000
0100
0000
3100
0000
0000
0000
1000
0000
0001
0000
,
0010
0001
0201
0000
0310
1000
0001
1000
,
0100
0000
0000
1000
0001
0000
0000
1000
0001
0000
0000
1000
0001
0000
0100
0000
,
0010
0000
1000
0000
0100
0000
1000
0000
0001
0000
0100
0010
0000
0000
0000
0000
,
1000
0000
0100
0000
0010
0000
0001
0000
0100
0000
0010
1000
0020
0000
0000
0000
,
0130
0000
0001
0000
0010
0000
0001
0000
1000
0000
0100
1000
0000
0000
0010
0000
,
1000
0100
0010
0001
0200
0320
2030
3002
,
0013
0000
0001
0000
0100
0000
0001
0000
1000
0000
0010
0100
0000
0000
0000
0000
,
0001
0000
0010
0000
0100
0000
1000
0020
0000
0000
0130
0001
0100
0001
0000
0000
,
0010
0000
0001
0000
1000
0000
0001
0000
0100
0000
0010
1000
0000
0000
0001
0100
,
0001
0100
0001
0000
1000
0000
0010
0000
1000
0000
0100
0000
0010
0000
0001
0000
,
0100
0000
0000
0001
1000
0000
0100
0000
0010
0000
0001
0000
0100
0000
0001
0000
,
1000
0100
1000
0100
2000
0000
0002
0000
0000
0000
0000
0000
0000
0000
0000
0000
,
0000
0000
0000
0000
,
3003
0000
0000
0000
;

//---------------dance-double - ----------------
#NOTES:
     dance-double:
     :
     Easy:
     6:
     :
00000000
00000000
00000000
00000000
,
00000000
00000000
00000000
00000000
,
00000000
00000000
00000000
00000000
,
00000000
00000000
00000000
00000000
,
10000000
00000000
01000000
00000000
,
00010000
00000000
00001000
00000000
,
00000100
00000000
00000001
00000000
,
00001000
00001000
00000001
00000001
,
00000100
00000000
00001000
00010000
,
00011000
00000000
01000000
10000000
,
00010000
00100000
01000000
10000000
,
00100000
00010000
00001000
00000100
,
00000001
00000010
00000100
00000100
,
00002000
00003000
00000002
00000003
,
00000010
00000100
00001000
00000001
,
00000002
00000003
00002000
00003000
,
00000010
00001000
00000100
00000010
,
00001001
00000000
00000100
00001000
,
00010000
00100000
10000000
01000000
,
00100000
00010000
10000000
00100000
,
01000000
00010000
10000000
01000000
,
00010000
00000000
00001000
00000100
,
00000001
00000010
00000100
00001000
,
00000200
00000300
00000020
00000030
,
00000001
00000100
00001000
00000100
,
00001001
00000000
00000100
00001000
,
00010000
01000000
00100000
00010000
,
10000000
01000000
00010000
00001000
,
00000100
00000100
00000001
00000001
,
00000010
00001000
00010000
00011000
,
00100000
10000000
00010000
10010000
,
00100000
00000000
00100000
00000000
,
10000000
00100000
00010000
00001000
,
00011000
00000000
00000100
00000010
,
00000001
00001000
00000010
00000100
,
00000001
00001000
00000001
00000100
,
00001000
00010000
00001000
01000000
,
00100000
10000000
00010000
01100000
,
10000000
00100000
00010000
00011000
,
00000010
00000001
00001000
00000100
,
00000010
00000001
00000100
00001000
,
00100000
01000000
10000000
00010000
,
00200000
00300000
02000000
03000000
,
10000000
00100000
00010000
00000010
,
00000001
00000100
00000001
00001000
,
00100000
01000000
10000000
01000000
,
00010000
00000000
10000000
00000000
,
00100000
00010000
00001000
00100000
,
01000000
10000000
00010000
01000000
,
00100000
10000000
01000000
00010000
,
00011000
00000000
00000000
00001000
00000000
00000000
00000000
00000000
;

//---------------dance-double - ----------------
#NOTES:
     dance-double:
     :
     Medium:
     7:
     :
00000000
00000000
00000000
00000000
,
00000000
00000000
00000000
00000000
,
00000000
00000000
00000000
00000000
,
00000000
00000000
00000000
00000000
,
00010000
01000000
10000000
01000000
,
00010000
00001000
00000100
00000001
,
00000010
00000001
00001000
00000100
,
00000010
00000001
00000100
00001000
,
00010000
00000100
00000010
00000001
,
00001100
00010000
00100000
10000000
,
01000000
00100000
00010000
00000010
,
00000001
00000100
00000010
00001000
,
00000100
00000010
00000001
00001000
,
00000010
00001000
00100000
01000000
,
00001000
00010000
01000000
10000000
,
00010000
00100000
01000000
10000000
,
00100000
01000000
00010000
00000000
00100000
01000000
10000000
00000000
,
20020000
30030000
00100000
10000000
,
01000000
00010000
00001000
00000100
,
00000001
00000010
00000100
00001000
,
00000001
00000100
00001000
00000100
,
00000000
00000010
00000001
00000000
00000100
00000000
00001000
00000000
,
00010000
00100000
10000000
01000000
,
00100000
00010000
01000000
00100000
,
10000000
00010000
01000000
00000000
00100000
00000000
00010000
00000000
,
00000100
00000000
00000010
00000000
00000001
00001000
00000100
00000000
,
00000011
00000100
00001000
00100000
,
02000000
13000000
00200000
00310000
,
01010000
00001000
00010100
00001000
,
00000001
00000000
00000010
00000000
00000100
00001000
00000001
00000000
,
00000100
00001000
00010000
01000000
,
10000000
00000000
00100000
00000000
01000000
00010000
10000000
00000000
,
01000000
00010000
00000100
00000010
,
00000001
00000000
00001000
00000000
00000001
00000010
00000100
00000000
,
00001000
00000001
00000100
00001000
,
01000000
00000000
00100000
00000000
10000000
00010000
01000000
00000000
,
00200000
01300000
00020000
10030000
,
01000000
00010000
00000010
00000100
,
00000001
00001000
00100000
10000000
,
01000000
00000000
00010000
00000000
00001000
00010000
00000010
00000000
,
00000100
00000011
00000100
00000110
,
00001000
00010000
01000000
10010000
,
00100000
10010000
00100000
00010000
,
00001000
00000010
00000001
00001000
,
00000010
00000100
00000001
00000010
,
00001000
00000000
00100000
00000000
01000000
00100000
01000000
00000000
,
10000000
00100000
00010000
00001000
,
00000010
00000000
00000100
00000000
00001000
00000001
00000010
00000000
,
00001000
00010000
00100000
10000000
,
11000000
00100000
00001000
00010000
,
00001100
00000000
00000010
00000001
00000000
00000000
00000000
00000000
;

//---------------dance-double - ----------------
#NOTES:
     dance-double:
     :
     Hard:
     9:
     :
00000000
00000000
00000000
00000000
,
00000000
00000000
00000000
00000000
,
00000000
00000000
00000000
00000000
,
00000000
00000000
00000000
00000000
,
10000000
00010000
01000000
10010000
,
01000000
00000000
00010000
00000000
00001000
00000100
00000001
00000000
,
00000010
00000100
00002001
00003100
,
00000010
00000000
00001000
00000000
00010000
01000000
10000000
00000000
,
00100000
01000000
10020000
01030000
,
00100000
00000000
00010000
00000000
10000000
00010000
01000000
00000000
,
00110000
00000010
00000100
00001001
,
00000010
00001000
00000100
00000010
00000001
00000000
00000110
00000000
,
00001000
00010000
00100000
00000000
10000000
01000000
00100000
00000000
,
00010000
10000000
01000000
00000000
01100000
00000000
10010000
00000000
,
00100000
01000000
10000000
00000000
00011000
00000000
00000110
00000000
,
00001000
00000100
00000010
00000000
00000001
00000000
00000100
00000000
,
00000010
00001000
00000100
00000000
00000010
00000001
00000100
00000000
,
00001001
00000100
00000010
00001000
,
00010100
00001000
01010000
10000000
,
00100000
10000000
00010000
01000000
00100000
00000000
10010000
00000000
,
00100000
00010000
01000000
00000000
00001000
00010000
00000100
00000000
,
00000010
00000001
00000100
00000000
00001020
00000000
00000130
00000000
,
00001000
00000001
00000100
00000000
00001000
00010000
01000000
00000000
,
10000000
00010000
01000000
00000000
00100000
00000000
10000000
00000000
,
01000000
00010000
00001000
00000000
00000100
00000000
00000001
00000000
,
00001000
00000000
00000010
00000000
00010000
00100000
01000000
00000000
,
10010000
11000000
00010000
00000100
,
00000010
00000001
00000100
00000000
00000010
00000100
00000010
00000000
,
00001000
00100000
10000000
00000000
01000000
00100000
00010000
00000000
,
01000000
00001000
00000110
00001001
,
00000100
00000001
00000010
00001100
,
00000010
00000001
00000100
00000000
00001000
00000000
00010000
00000000
,
01000000
00000000
10010000
00000000
00100000
00000000
11000000
00100000
,
00010000
00000000
01100000
00000000
10000000
01000000
00100000
00000000
,
00010000
00000000
00000100
00000000
00000001
00000100
00000010
00000000
,
00001000
00000001
00000100
00000000
00000010
00001000
00000001
00000000
,
00000110
00001002
00000010
00000103
,
00001000
00000000
00100000
00000000
01000000
10000000
00010000
00000000
,
01000000
00100000
10000000
00010000
,
00100000
01000000
10000000
00100000
,
01000000
00010000
00100000
01000000
10000000
00000000
00110000
00000000
,
11000000
00000000
00100000
10000000
01000000
00000000
00010000
00000000
,
00001000
00000100
00000001
00000000
00000010
00000000
00001001
00000000
,
00000100
00000010
00000100
00000000
00001000
00000000
00000001
00000000
,
00000100
00000010
00000100
00000010
00000001
00001000
00000100
00000000
,
00011000
00100000
10000000
01000000
,
00100000
01000000
00100000
01000000
10000000
00010000
01000000
00000000
,
00001000
00000010
00000001
00001000
,
00000010
00000100
00000010
00000000
00001100
00000000
00001001
00000000
,
00000010
00000001
00001000
00000000
00011000
00000000
00100000
00000000
,
01010000
00100000
10000000
02000000
00000000
00000000
00000000
00000000
,
00000000
03000000
00000000
00000000
;
