#TITLE:Do It Right (80's Electro Mix);
#ARTIST:SOTA feat. Ebony Fay;
#BANNER:Do It Right (80's Electro Mix).png;
#BACKGROUND:Do It Right (80's Electro Mix)-bg.png;
#JACKET:Do It Right (80's Electro Mix)-jacket.png;
#MUSIC:Do It Right (80's Electro Mix).ogg;
#SAMPLESTART:44.017;
#SAMPLELENGTH:20;
#DISPLAYBPM:135;
#BPMS:0=135;
#BGCHANGES:;

//---------------dance-single - ----------------
#NOTES:
     dance-single:
     :
     Beginner:
     3:
     :
0000
0000
0000
0000
,
0000
0000
0000
0000
,
0000
0000
0000
0000
,
0000
0000
0000
0000
,
0000
0000
0000
0000
,
0010
0000
0001
0000
,
0100
0000
1000
0000
,
0010
0000
1000
0000
,
0100
0000
0001
0001
,
0000
0000
0010
0000
,
0010
0000
0001
0000
,
1000
0000
0010
0000
,
1000
0000
0100
0000
,
0010
0000
0100
0000
,
0100
0000
1000
0000
,
0001
0000
0000
0000
,
0010
0000
0001
0001
,
0000
0000
1000
0000
,
1000
0000
0010
0000
,
0100
0000
0001
0000
,
0010
0000
0100
0000
,
1000
0000
0001
0000
,
0001
0000
0010
0000
,
1000
0000
0000
0000
,
0100
0000
0010
0000
,
0110
0000
0001
0000
,
1000
1000
1000
0000
,
0010
0000
0100
0000
,
0001
0001
0001
0000
,
0010
0010
0010
0000
,
0001
0000
0100
0000
,
1000
1000
1000
0000
,
0010
0010
0010
0000
,
1001
0000
0100
0000
,
0001
0001
0001
0000
,
0010
0000
0001
0000
,
0100
0100
0100
0000
,
0001
0000
1000
0000
,
0010
0000
0100
0000
,
0010
0000
1000
0000
,
0100
0100
0100
0000
,
0010
0000
0001
0000
,
1000
1000
1000
1000
,
0000
0000
0010
0000
,
0100
0000
0001
0001
,
0000
0000
0010
0000
,
0001
0001
0001
0001
,
0000
0000
0100
0000
,
0010
0000
1000
0000
,
0001
0000
0000
0000
;

//---------------dance-single - ----------------
#NOTES:
     dance-single:
     :
     Easy:
     6:
     :
0000
0000
0000
0000
,
0000
0000
0000
0000
,
0000
0000
0000
0000
,
0000
0000
0000
0000
,
0000
0000
0000
0000
,
0000
0010
1000
0100
,
1000
0010
0001
0000
,
0000
0100
0001
0010
,
0100
1000
0010
0001
,
1001
0001
1000
0001
,
0010
0001
1000
0001
,
0100
0110
1000
0001
,
0010
0001
0100
0010
,
1000
0100
0010
0100
,
1000
0100
0010
0100
,
0002
2000
0000
3003
,
0010
0010
1000
0001
,
1001
0010
0001
0100
,
1000
0010
1000
0100
,
0001
0110
1000
0010
,
1000
0100
0010
0001
,
0100
0001
0010
0100
,
1000
0001
0010
0100
,
2000
0002
0000
3003
,
0010
0000
0100
0110
,
1001
0000
1000
0010
,
1000
0100
0001
0010
,
0110
0001
1001
0100
,
1000
0010
0001
0100
,
1001
0010
0110
0000
,
0001
0100
1000
0010
,
1000
0100
0001
0010
,
1000
0001
0100
1001
,
0110
0000
0010
1000
,
0100
0010
0001
0100
,
0020
1030
0100
0001
,
0010
0100
1000
0010
,
0100
0001
0010
0000
,
0001
1000
0100
0010
,
0001
0100
1000
0010
,
1000
0100
0010
0001
,
0100
0001
0010
0100
,
1000
0010
2000
3001
,
0000
0010
0001
0100
,
0010
1000
1001
0110
,
0001
0100
1000
0010
,
0100
0010
1000
0100
,
0010
0001
0100
0010
,
1000
0100
0110
1001
,
0002
2000
0000
0000
,
0000
0000
0000
3003
;

//---------------dance-single - ----------------
#NOTES:
     dance-single:
     :
     Medium:
     9:
     :
0000
0000
0000
0000
,
0000
0000
0000
0000
,
0000
0000
0000
0000
,
0000
0000
0000
0000
,
0000
0000
0000
0000
,
0001
0000
0010
0001
1000
0000
0010
0100
,
0001
0000
1000
0100
0010
0000
0110
0000
,
0001
0000
0010
0100
1000
0000
1001
0000
,
0010
1000
0100
0000
1000
0010
0001
0000
,
0100
0000
0000
0000
0002
0000
0000
0000
2003
0000
0000
0000
3001
0000
0000
0010
,
0000
0000
0100
0000
2000
0000
0000
0000
3020
0000
0000
0000
0130
0000
0000
0001
,
0000
0010
0001
0100
1000
0000
0010
1000
,
0100
0000
0000
0000
1000
0000
0001
0000
0100
0000
0000
0010
0000
0000
1000
0000
,
0000
0000
1000
0000
0020
0000
0000
0000
0230
0000
0000
0000
0301
0000
0000
1000
,
0000
0000
0100
0000
0020
0000
0000
0000
0032
0000
0000
0000
1003
0000
0000
0002
,
0000
0020
0003
0000
0031
1000
0100
0000
,
1000
0000
0010
0000
1000
0000
0000
0000
0010
0000
0000
0100
0000
0000
0001
0000
,
0010
0000
0000
0000
0011
0000
0000
0000
1100
0000
0000
0000
0001
0000
0000
1000
,
0100
0000
0000
0000
1010
0000
0000
0000
0101
0000
0000
0000
0010
0000
0000
0001
,
0000
1000
0010
0000
0001
0100
0010
0000
,
1000
0001
1000
0001
0100
0000
0110
0000
,
1000
0000
0000
0000
1100
0000
0000
0000
0101
0000
0000
0000
0010
0000
0000
0001
,
0100
0000
0000
0000
1010
0000
0000
0000
0011
0000
0000
0000
1000
0000
0000
0001
,
0100
0000
0000
0010
1000
0000
0000
0000
0100
0000
0010
0000
0001
0000
0000
0000
,
1001
0000
0001
0100
1000
0000
0010
0100
,
0010
0000
1001
0000
0001
1000
0100
0000
,
0010
0000
0001
1000
0100
0000
0110
0000
,
0011
0000
0100
0010
1000
0000
1100
0000
,
0001
0000
0000
1000
0000
0000
0100
0000
0000
0000
0000
0000
1000
0000
0001
0000
,
0010
0000
0001
0100
1000
0000
0100
1000
,
0001
0000
0010
0001
0100
0000
1000
0010
,
1000
0000
1010
0000
0001
1000
0001
0100
,
0000
0010
1000
0000
0101
0000
0001
0010
,
0100
0000
1001
0000
1000
0010
1000
0001
,
0100
0000
0010
1000
0001
0000
0101
0000
,
1100
0000
0010
0001
1000
0000
0010
0100
,
0001
0000
0000
0010
0000
0000
0100
0000
1000
0000
0000
0000
1010
0000
0000
0000
,
0011
0000
0100
0010
1000
0000
0110
0000
,
0001
0000
0000
1000
0000
0000
0100
0000
1000
0000
0000
0000
0010
0000
0100
0000
,
0001
0000
0011
0000
0010
0100
1000
0000
,
0010
0000
0000
1000
0000
0000
0002
0000
0000
0000
0000
0000
0103
0000
0010
0000
,
1000
0000
0110
0000
0001
0010
0100
0000
,
1000
0001
0100
0001
1000
0100
0010
0000
,
0001
0000
1100
0000
0010
1000
0100
0000
,
1000
0010
0001
0000
0101
0000
1000
0010
,
0000
1000
0010
0000
1001
0000
1010
0000
,
1000
0100
0010
0001
0100
0010
0100
0000
,
0000
0001
1000
0000
0100
0010
0001
0000
,
1000
0010
1000
0010
0200
0000
0301
0001
,
0000
2000
0002
0000
0000
0000
0000
0000
,
0000
0000
0000
3003
;

//---------------dance-single - ----------------
#NOTES:
     dance-single:
     :
     Hard:
     11:
     :
0000
0000
0000
0000
,
0000
0000
0000
0000
,
0000
0000
0000
0000
,
0000
0000
0000
0000
,
0000
0000
0000
0000
,
1000
0001
1000
0010
1000
0001
1000
1000
,
0001
1000
0001
0100
0001
1000
0001
0001
,
1000
0001
1000
0010
1000
0001
1000
1000
,
0001
1000
0001
0100
0001
1000
0101
0000
,
0020
1000
0100
0001
,
0100
1030
0001
0001
,
0200
1000
0010
0001
,
0010
1300
0010
0010
,
0001
1000
0100
0000
1000
0001
1000
0100
,
1000
0000
0110
0000
0001
0100
0010
1000
,
0001
0010
0100
1000
0001
1000
0001
0000
,
0010
1000
0001
0000
0100
0001
1100
0000
,
0020
0001
0100
1000
,
0100
0031
1000
1000
,
0200
0001
0010
1000
,
0010
0301
0010
0010
,
1000
0001
0100
0000
0001
1000
0001
0100
,
0001
0000
0110
0000
1000
0100
0010
0001
,
1000
0010
0100
0001
1000
0001
1000
0000
,
0010
0000
0001
0000
1000
0000
0000
0000
0100
0000
0000
0000
1000
0001
0100
0001
,
1000
0000
1001
0000
0001
1000
0001
0000
,
0010
0101
1000
0101
,
1000
0000
0010
0100
0001
1000
0001
0000
,
1000
0101
1000
0101
,
0100
0000
0100
0010
1000
0001
1000
0000
,
1001
0110
1001
0110
,
0010
0000
0010
0100
0001
1000
0010
1000
,
0100
0000
1000
0000
0010
0000
0100
0000
0001
0000
0100
0000
0001
1000
0001
1000
,
0100
0000
1001
0000
0001
1000
0001
0000
,
0010
0001
0100
0000
1000
0001
0100
0000
,
1000
0000
0010
0100
0001
1000
0001
0000
,
1000
0001
0101
0000
0001
1000
1100
0000
,
0100
0000
0100
0010
1000
0001
1000
0000
,
1001
1001
0110
0110
1001
1001
0110
0110
,
0010
0000
0010
0100
1000
0001
0010
0001
,
0100
0001
0010
0100
1000
0100
0010
0100
,
1000
0001
1000
0010
1000
0001
1000
1000
,
0001
1000
0001
0100
0001
1000
0001
0001
,
1000
0001
1000
0010
1000
0001
1000
1000
,
0001
1000
0001
0000
1001
0000
0110
0000
,
1000
0001
1000
0010
1000
0001
1000
1000
,
0001
1000
0001
0100
0001
1000
0001
0001
,
1000
0001
1000
0010
1000
0001
1000
1000
,
0001
1000
0001
0000
0110
0000
0100
0010
,
0120
0000
0200
0300
,
0100
0000
0200
0330
;

//---------------dance-single - ----------------
#NOTES:
     dance-single:
     :
     Challenge:
     13:
     :
0000
0000
0000
0000
,
0000
0000
0000
0000
,
0000
0000
0000
0000
,
0000
0000
0000
0000
,
0000
0000
0000
0000
,
0010
0001
0000
0000
1000
0000
0100
0000
1000
0000
0010
0100
0000
0100
0001
0000
,
1000
0010
0000
0000
1000
0000
0100
0000
0010
0000
0001
0100
0000
0001
0100
0000
,
0010
0100
0000
0000
0001
0000
1000
0000
0100
0000
1000
0010
0000
0010
0100
0000
,
0001
1000
0001
0000
0100
0000
0010
0000
1000
0000
0001
0100
0001
0000
0000
0000
,
0010
0001
0010
0001
0020
0000
0000
0000
0230
0000
0000
0000
1300
0100
0000
0010
,
0001
0000
0000
0000
1000
0000
0100
0000
0001
0000
0000
0000
0010
0001
0000
1000
,
0100
0000
0010
0001
0010
0000
0100
0000
1000
0000
0010
0000
1000
0000
0001
0000
,
0100
0000
0001
0000
0010
0000
1000
0000
0100
0000
1000
0010
0000
0100
0001
0000
,
0010
0000
0001
1000
0002
0000
0000
0000
0203
0000
0000
0000
0310
1000
0000
0100
,
1000
0000
0000
0000
0001
0000
0010
0000
0100
1000
0000
0000
0010
0100
0000
0001
,
1000
0000
0100
1000
0010
0000
0000
0000
0100
0000
0001
0000
0010
0001
1000
0000
,
0010
0000
0010
0000
0100
0000
0100
0000
0001
1000
0000
0100
0010
0000
0001
0000
,
0110
0000
0000
0000
0001
0000
0010
0000
0001
0000
1000
0000
0100
0010
0100
0010
,
0000
0000
0001
0000
0100
0000
0010
0000
1000
0000
0001
0000
1000
0100
1000
0100
,
0000
0010
0010
0001
1000
0100
1000
0001
,
0100
0000
0010
0000
0100
0000
0001
0000
0010
0000
0100
1000
0000
1000
0001
0000
,
1001
0000
0000
0000
0010
0000
1000
0000
0100
0000
0010
0000
0001
1000
0001
1000
,
0001
0000
0000
0000
0010
0000
0100
0000
1000
0000
0010
0000
1000
0001
0000
0100
,
0000
0010
1000
0000
0100
0000
0010
0000
0001
0000
0100
0000
0001
1000
0010
0000
,
1000
0000
0100
0000
0010
0000
0001
0000
0100
0000
0000
0000
0001
1000
0010
0100
,
0001
0000
0010
0100
0000
0100
1000
0000
0010
0000
1000
0000
0100
0000
0001
0000
,
0100
0000
0010
0000
0100
0000
1000
0001
0100
0000
0000
0000
0010
1000
0000
0010
,
0100
0000
0000
0000
0001
0000
0010
0100
0000
1000
0001
0000
0100
0000
0010
0000
,
1010
0000
0000
0110
0000
0000
0101
0000
1001
0000
0000
0000
0010
0001
1000
0000
,
1100
0000
0000
0000
1000
0010
0000
0100
0001
0000
0000
0000
0011
0000
0001
1000
,
0001
0000
0000
0010
0000
0000
0001
0000
1000
0000
0000
0000
0100
0000
0100
0000
,
0100
1000
0010
0100
0001
0010
0001
1000
,
0100
0000
0010
0000
0002
0000
0000
0000
2003
0000
0000
0000
3001
1000
0010
0100
,
0001
0000
0010
0001
0000
0001
1000
0000
0100
0000
0010
0000
0100
0000
0001
0000
,
0100
0000
0010
0000
0100
1000
0000
0001
0100
0000
0000
0000
0010
1000
0000
0101
,
0000
0101
0000
0000
0001
0000
0010
0000
1000
0000
0100
0000
0010
0000
0001
0000
,
0011
0000
0000
0110
0000
0000
1100
0000
1001
0000
0000
0000
0010
1000
0100
0000
,
0110
0000
0000
0000
0001
0010
0000
0001
1000
0000
0000
0000
1010
0000
0100
0010
,
0100
0000
0000
0001
0000
0000
1000
0000
0100
0000
0010
0000
0001
0000
0001
0000
,
0001
0100
0010
1000
0100
0001
0100
1000
,
1010
0000
0000
1001
0000
0000
0011
0000
0110
0000
0000
0000
1000
0010
0100
0001
,
0000
0000
0010
0000
0010
0000
0001
0000
1000
0000
0001
0100
0000
0000
0010
0000
,
1000
0000
0100
0000
0010
0000
0001
2000
0000
0000
3001
0100
0020
0000
0000
0000
,
1030
0000
0100
0000
0100
0000
0010
0000
0001
0000
1000
0010
0000
0000
0001
0000
,
1000
1000
0001
0001
0101
0011
1010
1100
,
0000
0000
0001
0000
0001
0000
0010
0000
0100
0000
1000
0010
0000
0000
0100
0000
,
0001
0000
0001
0000
0001
0000
0010
0100
0000
0000
1000
0010
1000
0100
0000
0000
,
0010
0000
0100
0000
0100
0000
0010
0000
0001
0000
1000
0010
0000
0000
1000
0100
,
1000
0001
1000
0000
1000
0000
0010
0000
0100
0000
0010
1000
0001
0000
0001
0000
,
0100
0000
0010
1000
0002
0000
0000
0000
0000
0000
0000
0000
0000
0000
1003
0000
,
0000
0010
0200
0000
0000
0000
0000
0000
0000
0000
0000
0000
0300
0000
0000
0000
;

//---------------dance-double - ----------------
#NOTES:
     dance-double:
     :
     Easy:
     6:
     :
00000000
00000000
00000000
00000000
,
00000000
00000000
00000000
00000000
,
00000000
00000000
00000000
00000000
,
00000000
00000000
00000000
00000000
,
00000000
00000000
00000000
00000000
,
00000000
00000001
00000010
00001000
,
00000100
00000010
00000001
00000000
,
00000000
00000100
00000010
00010000
,
00001000
01000000
00001000
00010000
,
00011000
00010000
00001000
01000000
,
00100000
10000000
00010000
10000000
,
01000000
00100000
00001000
00010000
,
00000010
00001000
00000100
00000001
,
00000110
00000001
00000010
00000001
,
00001000
00000010
00001000
00000100
,
00020000
00002000
00000000
00033000
,
00001000
00100000
00001000
00010000
,
01100000
00100000
00010000
01000000
,
10000000
00100000
10000000
01000000
,
00010000
00100000
00001000
00010000
,
00000010
00001000
00000100
00010000
,
00011000
00000010
00001000
00000100
,
00000001
00000010
00000001
00000100
,
00002000
00020000
00000000
00033000
,
00100000
00000000
00010000
01010000
,
10100000
00000000
10000000
01000000
,
10000000
00100000
00010000
01000000
,
01100000
00010000
00110000
01000000
,
10000000
00100000
00010000
01000000
,
01100000
00001000
00010010
00000000
,
00000001
00000010
00001000
00000100
,
00000010
00000110
00000001
00000100
,
00001000
00001010
00000001
00000110
,
00001001
00000000
00001000
00000100
,
00001000
00000010
00010000
00011000
,
01001000
00100000
10000000
01000000
,
10000000
00010000
01000000
00100000
,
10100000
00010000
00110000
00000000
,
00010000
00001000
00000010
00000001
,
00000101
00001100
00000001
00000010
,
00000001
00001000
00000100
00010100
,
00011000
00000010
00001000
00000100
,
00010000
00001000
02000000
03200000
,
00300000
10000000
00010000
00100000
,
01000000
00100000
10010000
01100000
,
00010000
00100000
00001000
00000010
,
00000001
00000100
00000020
00002030
,
00003000
00000100
00000010
00000001
,
00001000
00000010
00001000
00000100
,
00020000
00002000
00000000
00000000
,
00000000
00000000
00000000
00033000
;

//---------------dance-double - ----------------
#NOTES:
     dance-double:
     :
     Medium:
     9:
     :
00000000
00000000
00000000
00000000
,
00000000
00000000
00000000
00000000
,
00000000
00000000
00000000
00000000
,
00000000
00000000
00000000
00000000
,
00000000
00000000
00000000
00000000
,
00000010
00000000
00010000
00000100
00001000
00000000
00000010
00000100
,
00000001
00000000
00000010
00000001
00001000
00000000
00001100
00000000
,
00000010
00000000
00000110
00000000
00000001
00001000
00000100
00000000
,
00010000
00001000
01000000
00000000
00100000
10000000
00010000
00000000
,
00100000
00000000
00000000
00000000
00020000
00000000
00000000
00000000
20030000
00000000
00000000
00000000
31000000
00000000
00000000
00100000
,
00000000
00000000
00001000
00000000
00020000
00000000
00000000
00000000
00030200
00000000
00000000
00000000
00001300
00000000
00000000
00000001
,
00000000
00000010
00000001
00001000
00000100
00000000
00010100
00000000
,
00001000
00000000
00000000
00000000
00010000
00000000
00100000
00000000
01000000
00000000
00000000
00010000
00000000
00000000
10000000
00000000
,
00000000
00000000
01000000
00000000
00200000
00000000
00000000
00000000
00302000
00000000
00000000
00000000
00013000
00000000
00000000
01000000
,
00000000
00000000
10000000
00000000
00020000
00000000
00000000
00000000
00230000
00000000
00000000
00000000
01300000
00000000
00000000
00100000
,
00000000
00002000
00020000
00000000
00000000
00000000
00033000
00000100
,
00000010
00000000
00000000
00000000
00000001
00000000
00001000
00000000
00000100
00000000
00000000
00001000
00000000
00000000
00000001
00000000
,
00000010
00000000
00000000
00000000
00000011
00000000
00000000
00000000
00001100
00000000
00000000
00000000
00000001
00000000
00000000
00001000
,
00000100
00000000
00000000
00000000
00000110
00000000
00000000
00000000
00001001
00000000
00000000
00000000
00000010
00000000
00000000
00001000
,
00000000
00000100
00010000
00001000
00100000
00000000
00110000
00000000
,
00010000
00000000
01000000
00000000
00100000
00000000
00000000
00000000
10000000
00000000
00000000
00010000
00000000
00000000
00100000
00000000
,
01000000
00000000
00000000
00000000
11000000
00000000
00000000
00000000
01010000
00000000
00000000
00000000
00100000
00000000
00000000
00010000
,
10000000
00000000
00000000
00000000
10010000
00000000
00000000
00000000
00101000
00000000
00000000
00000000
00010000
00000000
00000000
00000010
,
00000000
00000200
00000002
00000000
00000000
00000000
00000303
00001000
,
00000020
00000000
00000000
00000200
00000030
00000000
00000301
00001000
,
00100000
00000000
10100000
00000000
10000000
01000000
00010000
00000000
,
00100000
00000000
00010000
01000000
00100000
00000000
10010000
00000000
,
11000000
00000000
00100000
00010000
10000000
00000000
01010000
00000000
,
00010000
00000000
00000000
10000000
00000000
00000000
02000000
00000000
00000000
00000000
00000000
00000000
03100000
00000000
00010000
00000000
,
10000000
00000000
10000000
01000000
00020000
00000000
00000000
00031000
,
00000100
00000000
00000110
00000000
00001001
00000000
00000001
00001000
,
00000010
00000000
00000100
00000001
00001000
00000000
00000100
00000010
,
00000000
00000001
00002000
00000000
00003020
00000000
00010030
00001000
,
01000000
00000000
01010000
00000000
00100000
00010000
10000000
00000000
,
11000000
00000000
10000000
00100000
00010000
00000000
01010000
00000000
,
00101000
00000000
00001000
00010000
00000100
00000000
00001000
00000010
,
00000100
00000000
00000000
00000001
00000000
00000000
00002000
00000000
00000000
00000000
00000000
00000000
00003010
00000000
00000100
00000000
,
00000010
00000000
00001000
00000100
00010000
00000000
00011000
00000000
,
00001000
00000000
00000000
00010000
00000000
00000000
01000000
00000000
10000000
00000000
00000000
00000000
01000000
00000000
10000000
00000000
,
00010000
00000000
01001000
00000000
00001000
00010000
00100000
00000000
,
10000000
00000000
00000000
01000000
00000000
00000000
20000000
00000000
00000000
00000000
00000000
00000000
30100000
00000000
01000000
00000000
,
00010000
00000000
10010000
00000000
10000000
01000000
00100000
00000000
,
00010000
01000000
00001000
00010000
00000100
00000010
00000001
00000000
,
00000011
00000000
00001100
00000000
00000001
00001000
00000100
00000000
,
00001000
00000010
00001000
00000010
00020000
00000000
00031000
01000000
,
00000000
00100000
01000000
00010000
10000000
00000000
11000000
00000000
,
10000000
00100000
10000000
01000000
00100000
00010000
10000000
00000000
,
01010000
00000000
00110000
00000000
10000000
01000000
00010000
00000000
,
00100000
00010000
00100000
01000000
20000000
00000000
30010000
00010000
,
00000000
00200000
00002000
00000000
00000000
00000000
00000000
00000000
,
00000000
00000000
00000000
00303000
;

//---------------dance-double - ----------------
#NOTES:
     dance-double:
     :
     Hard:
     11:
     :
00000000
00000000
00000000
00000000
,
00000000
00000000
00000000
00000000
,
00000000
00000000
00000000
00000000
,
00000000
00000000
00000000
00000000
,
00000000
00000000
00000000
00000000
,
00001000
00000001
00001000
00000010
00000100
00000010
00000100
00000100
,
00000001
00001000
00000001
00001000
00000010
00010000
00001000
00001000
,
00010000
01000000
00100000
01000000
10000000
00010000
10000000
10000000
,
00010000
10000000
00010000
01000000
00001000
00000010
00000011
00000000
,
00000200
00000010
00001000
00000001
,
00001000
00000300
00010000
00010000
,
02000000
10000000
00100000
00010000
,
00100000
13000000
00100000
00100000
,
00010000
10000000
01000000
00000000
00100000
00001000
00000100
00000010
,
00001000
00000000
00000101
00000000
00000010
00001000
00000100
00010000
,
00100000
01000000
00100000
10000000
00010000
10000000
00010000
00000000
,
01000000
00001000
01000000
00000000
00000100
00000010
00001001
00000000
,
00000200
00000001
00000010
00001000
,
00000010
00000301
00010000
00010000
,
02000000
10000000
00100000
00010000
,
00100000
13000000
00010000
00010000
,
01000000
00100000
10000000
00000000
00010000
10000000
00010000
01000000
,
00001000
00000000
00000110
00000000
00000001
00001000
00000100
00000010
,
00000001
00001000
00000010
00000100
00000010
00010000
01000000
00000000
,
00100000
00000000
00010000
00000000
01000000
00000000
00000000
00000000
00010000
00000000
00000000
00000000
10000000
00010000
01000000
00010000
,
10000000
00000000
10010000
00000000
01000000
00100000
01000000
00000000
,
00010000
00001100
00000010
00001001
,
00000100
00000000
00000010
00010000
01000000
10000000
00010000
00000000
,
01000000
00011000
00000010
00001001
,
00000100
00000000
00000010
00001000
00000001
00000100
00000010
00000000
,
00001010
00011000
01100000
10010000
,
01000000
00000000
00010000
00001000
00000010
00000100
00000001
00001000
,
00000001
00000000
00000100
00000000
00000010
00000000
00001000
00000000
00000100
00000000
00000010
00000000
00001000
00000001
00001000
00000001
,
00001000
00000000
00001001
00000000
00000010
00010000
00100000
00000000
,
01000000
00100000
01000000
00000000
00010000
00000010
00000001
00000000
,
00000100
00000000
00000010
00000100
00000001
00001000
00000001
00000000
,
00000010
00010000
01100000
00000000
00010000
10000000
10100000
00000000
,
00010000
00000000
10000000
01000000
00100000
00010000
10000000
00000000
,
01000000
01000000
00010000
00010000
00001000
00001000
00000100
00000100
,
00000010
00000000
00001000
00000001
00000100
00000010
00010000
01000000
,
00100000
01000000
10000000
00100000
10000000
00010000
01000000
00100000
,
10000000
01000000
00010000
00001000
00000100
00000001
00001000
00001000
,
00000010
00000100
00000010
00001000
00000001
00001000
00000001
00000001
,
00000100
00000010
00000100
00000001
00001000
01000000
00100000
00100000
,
00010000
10000000
01000000
00000000
00110000
00000000
00011000
00000000
,
00000010
00000100
00000010
00001000
00000001
00001000
00000001
00000001
,
00000100
00000010
00001000
00000001
00000100
00000010
00001000
00001000
,
00100000
10000000
01000000
00100000
00010000
00000100
00000010
00000010
,
00001000
00000001
00001000
00000000
00000110
00000000
00000010
00001000
,
00002100
00000000
00000200
00000300
,
00000100
00000000
00000200
00003300
;

//---------------dance-double - ----------------
#NOTES:
     dance-double:
     :
     Challenge:
     13:
     :
00000000
00000000
00000000
00000000
,
00000000
00000000
00000000
00000000
,
00000000
00000000
00000000
00000000
,
00000000
00000000
00000000
00000000
,
00000000
00000000
00000000
00000000
,
01000000
10000000
00000000
00000000
00010000
00000000
01000000
00000000
00100000
00000000
10000000
01000000
00000000
00100000
00010000
00000000
,
01000000
00001000
00000000
00000000
00010000
00000000
00001000
00000000
00000010
00000000
00000100
00000010
00000000
00000001
00001000
00000000
,
00000010
00000100
00000000
00000000
00000001
00000000
00000010
00000000
00001000
00000000
00000100
00010000
00000000
00001000
00000010
00000000
,
00000001
00000100
00000001
00000000
00000010
00000000
00000100
00000000
00001000
00000000
00100000
10000000
00010000
00000000
00000000
00000000
,
10000000
01000000
00000000
01000000
00100000
00000000
00010000
00000000
01000000
00000000
00100000
00000000
10000000
01000000
00000000
00100000
,
00010000
00000000
00000000
00000000
01000000
00000000
00010000
00000000
00100000
00000000
01000000
00000000
10000000
00010000
00000000
01000000
,
00000000
00100000
10000000
00000000
01000000
00000000
00100000
00000000
00010000
00000000
01000000
00000000
00001000
00000000
00000010
00000000
,
00000001
00000000
00001000
00000000
00000010
00000000
00010000
00000000
00000100
00000000
00001000
00000010
00000000
00000100
00000001
00000000
,
00000010
00000001
00001000
00000000
00000010
00000000
00000100
00000000
00000001
00000000
00000010
00000000
00000100
00001000
00000000
00000001
,
00000100
00000000
00000000
00000000
00000010
00000000
00010000
00000000
00000100
00000000
00000010
00000000
00000001
00000100
00000000
00000010
,
00000000
00010000
00001000
00000000
01000000
00000000
00100000
00000000
10000000
00000000
01000000
00000000
00010000
00100000
00010000
00000000
,
01000000
00000000
00100000
00000000
10000000
00000000
00010000
00000000
00100000
00000000
00001000
00100000
00000000
00001000
00010000
00000000
,
01000000
10000000
01000000
10000000
01000000
00000000
00100000
00000000
00010000
00000000
01000000
00000000
00001000
00010000
00001000
00010000
,
00001000
00000000
00000000
00000000
00000010
00000000
00000100
00000000
00001000
00000000
00000010
00000000
00000100
00000001
00000100
00000001
,
00000000
00000010
00000100
00000000
00001000
00000000
00000010
00000000
00000001
00000000
00000010
00000000
00010000
00000000
00000100
00000000
,
00001000
00000000
00000010
00000000
00000100
00000000
00000001
00000000
00000010
00000000
00000100
00001000
00000000
00000001
00001000
00000000
,
00000010
00001000
00000010
00001000
00000010
00000000
00000100
00000000
00000001
00000000
00001000
00000000
00000100
00010000
00000100
00010000
,
00000100
00000000
00000000
00000000
00001000
00000000
00000010
00000000
00010000
00000000
00001000
00000000
00100000
01000000
00000000
00100000
,
00000000
00010000
10000000
00000000
00100000
00000000
01000000
00000000
00100000
00000000
00001000
00000000
00100000
10000000
01000000
00000000
,
10000000
00000000
00010000
00000000
00100000
00000000
01000000
00000000
10000000
00000000
00000000
00000000
10000000
01000000
00100000
00010000
,
00001000
00000000
00000010
00000100
00000000
00000100
00000001
00000000
00000010
00000000
00000100
00000000
00001000
00000000
00000001
00000000
,
00000100
00000000
00000010
00000000
00001000
00000000
00000100
00000010
00000001
00000000
00000000
00000000
00001000
00000010
00000000
00000010
,
00010000
00000000
00000000
00000000
00001000
00000000
00010000
01000000
00000000
01000000
10000000
00000000
00100000
00000000
01000000
00000000
,
01010000
00000000
00000000
10100000
00000000
00000000
11000000
00000000
00110000
00000000
00000000
00000000
10000000
00010000
01000000
00000000
,
01100000
00000000
00000000
00000000
00100000
10000000
00000000
00010000
01000000
00000000
00000000
00000000
10010000
00000000
01000000
00010000
,
00100000
00000000
00000000
00001000
00000000
00000000
00010000
00000000
00000100
00000000
00000000
00000000
00000010
00000000
00000010
00000000
,
00000010
00000000
00000001
00000100
00001000
00000010
00001000
00000001
,
00000100
00000000
00000010
00000000
00010000
00000000
00001000
00000000
01000000
00000000
00000000
00000000
00010000
00100000
01000000
10000000
,
00100000
00000000
01000000
00010000
00000000
00010000
10000000
00000000
01000000
00000000
00001000
00000000
01000000
00000000
00100000
00000000
,
00001000
00000000
01000000
00000000
00100000
10000000
00000000
00010000
01000000
00000000
00000000
00000000
00001000
00010000
00000000
00011000
,
00000000
00011000
00000000
00000000
00001000
00000000
00010000
00000000
00000100
00000000
00001000
00000000
00000001
00000000
00000100
00000000
,
00000101
00000000
00000000
00000011
00000000
00000000
00001100
00000000
00001010
00000000
00000000
00000000
00000100
00001000
00000001
00000000
,
00001001
00000000
00000000
00000000
00000010
00000001
00000000
00000100
00001000
00000000
00000000
00000000
00000110
00000000
00000001
00001000
,
00000001
00000000
00000100
00000010
00000000
00000010
00010000
00000000
00001000
00000000
00000000
00000000
00100000
00000000
00100000
00000000
,
00100000
00000000
01000000
00000000
10000000
00000000
00100000
00000000
00010000
00000000
00100000
00000000
01000000
00010000
10000000
00000000
,
11000000
00000000
00000000
00110000
00000000
00000000
00011000
00000000
00011000
00000000
00000000
00000000
00010000
00001000
00010000
00001000
,
00000000
00000000
00000010
00000000
00000010
00000000
00000001
00000000
00001000
00000000
00000001
00000100
00000000
00000010
00001000
00000000
,
00000100
00000000
00000010
00000000
00000100
00000000
00001000
00000020
00000000
00000000
00000130
00000001
00002000
00000000
00000000
00000000
,
00003100
00000000
00010000
00000000
00010000
00000000
00001000
00000000
00100000
00000000
01000000
10000000
00000000
10000000
00100000
00000000
,
01000000
00010000
00100000
00001000
00011000
00010100
00010010
00010001
,
00000000
00000000
00000100
00000000
00000100
00000000
00000010
00000000
00000001
00001000
00000001
00001000
00000010
00000000
00000000
00000000
,
00000100
00000000
00000100
00000000
00000100
00000000
00000001
00001000
00000000
00000000
00000100
00010000
00001000
00010000
00000000
00000000
,
00000100
00000000
00000010
00000000
00000010
00000000
00000001
00000000
00001000
00000000
00000100
00010000
00000000
00000000
00010000
00001000
,
01000000
00100000
01000000
00000000
00010000
00000000
10000000
00000000
01000000
00000000
00100000
01000000
10000000
00000000
00010000
00000000
,
00000000
01000000
00200000
00000000
00000000
00000000
00000000
10300000
,
00000000
00010000
00200000
00000000
00000000
00000000
00000000
00000000
00000000
00000000
00000000
00000000
00300000
00000000
00000000
00000000
;
