#TITLE:Diverse City;
#ARTIST:Toby Mac;
#BANNER:Diverse City.png;
#BACKGROUND:Diverse City-bg.png;
#JACKET:Diverse City-jacket.png;
#MUSIC:Diverse City.ogg;
#SAMPLESTART:26.854;
#SAMPLELENGTH:20;
#DISPLAYBPM:115;
#BPMS:0=115,188=115.01;
#BGCHANGES:;

//---------------dance-single - ----------------
#NOTES:
     dance-single:
     :
     Beginner:
     2:
     :
0000
0000
0000
0000
,
0000
0000
0000
0000
,
0000
0000
0000
0000
,
0001
0000
1000
0000
,
0001
0000
1000
0000
,
0001
0000
0001
0000
,
1000
0000
0010
0000
,
1000
0000
0000
0000
,
0001
0000
0001
0000
,
0100
0000
0100
0000
,
0010
0000
0100
0000
,
0001
0000
0000
0000
,
1000
1000
1000
0000
,
1000
0000
0010
0000
,
0100
0000
0000
0000
,
0010
0000
0000
0000
,
0100
0000
0100
0000
,
0001
0000
0001
0000
,
1000
0000
1000
0000
,
0001
0000
0000
0000
,
0100
0000
0000
0000
,
0100
0000
0010
0000
,
0010
0000
0010
0000
,
1000
0000
0000
0000
,
0001
0000
0000
0000
,
0001
0000
1000
0000
,
0001
0000
1000
0000
,
0001
0000
1000
0000
,
0010
0000
0010
0000
,
0100
0000
0000
0000
,
0010
0000
0010
0000
,
1000
0000
1000
0000
,
0001
0000
0001
0000
,
0100
0000
0100
0000
,
0001
0001
0001
0000
,
0100
0000
0000
0000
,
0010
0000
0000
0000
,
1000
0000
0000
0000
,
0001
0000
0000
0000
,
0100
0000
0100
0000
,
0010
0000
0010
0000
,
1000
0000
0001
0000
,
0100
0000
0010
0000
,
1000
0000
1000
0000
,
1000
1000
1000
0000
,
1000
0000
0001
0000
,
0100
0000
0010
0000
,
2000
0000
0000
3000
;

//---------------dance-single - ----------------
#NOTES:
     dance-single:
     :
     Easy:
     4:
     :
0000
0000
0000
0000
,
0000
0000
0000
0000
,
0000
0000
0000
0000
,
1000
0000
0001
0000
,
1000
0000
0001
0000
,
1000
1000
1000
0000
,
0001
0000
0100
0000
,
0001
0001
0000
0000
,
1000
1000
1000
0000
,
0010
0010
0010
0000
,
0100
0000
0010
0000
,
1000
1000
0000
0000
,
0001
0001
0001
0001
,
0001
0000
0100
0000
,
0010
0000
0010
0000
,
0100
0000
0100
0000
,
0010
0010
0010
0000
,
1000
0000
1000
0000
,
0001
0001
0001
0000
,
1000
0000
0001
0000
,
0010
0010
0010
0010
,
0010
0000
0100
0000
,
0100
0100
0100
0000
,
0001
0000
1000
0000
,
0001
0001
0001
0000
,
0010
0010
0010
0010
,
0010
0010
0010
0000
,
1000
0000
0001
0000
,
0100
0100
0100
0000
,
0010
0000
0000
0000
,
0100
0100
0100
0000
,
0001
0000
0001
0000
,
1000
0000
1000
0000
,
0010
0010
0010
0010
,
0010
0010
0010
0010
,
0010
0000
1001
0000
,
0100
0000
1001
0000
,
0001
0000
0110
0000
,
1000
0000
0110
0000
,
0010
0000
0010
0000
,
0100
0000
0100
0000
,
0001
0000
1000
0000
,
0010
0000
0100
0000
,
0001
0001
0001
0001
,
1000
0001
1000
0001
,
1000
0000
0001
0000
,
0020
0100
0100
0130
,
0200
0000
0000
0300
;

//---------------dance-single - ----------------
#NOTES:
     dance-single:
     :
     Medium:
     7:
     :
0000
0000
0000
0000
,
0000
0000
0000
0000
,
0000
0000
0000
0000
,
0001
0100
0010
1000
,
0200
0010
0310
0000
,
0010
0000
0100
0000
0010
1000
0000
0000
,
0100
0010
0100
0000
,
0101
1100
0000
0000
,
0001
0100
0001
0010
0000
0000
0000
0000
,
1000
0001
1000
0010
,
0100
0000
0001
0100
0000
0000
0001
0000
,
0100
1000
0100
0001
,
0200
0000
0000
0300
,
0001
0000
0100
0000
1000
0010
1000
0000
,
0100
0000
0010
0000
0100
0001
0100
0000
,
1000
0000
0001
0000
0010
0100
0010
0000
,
1000
0100
1001
0000
,
1000
0000
0100
0000
0001
0010
0001
0000
,
0100
0000
0010
0000
1000
0100
1000
0000
,
0001
0000
1000
0000
0100
0010
0100
0000
,
0022
0033
2200
3300
,
0001
0000
1000
0000
0001
1000
0100
0000
,
0010
0000
1000
0000
0010
1000
0100
0000
,
0010
0000
0001
0000
0010
0001
0100
0000
,
0001
0000
1000
0000
0001
1000
0100
0000
,
0110
0010
1001
0100
,
1100
0000
0000
0000
,
1001
0000
0110
0000
0001
0100
0000
0000
,
1000
0100
0010
0100
0000
0000
1000
0000
,
0010
0100
0000
0000
,
0001
0100
0010
1000
0000
0000
0000
0000
,
0110
1001
0001
0010
,
0100
0000
0010
1000
0000
0000
0001
0100
,
0010
0000
0100
0000
0010
0100
0001
0020
,
0000
0000
0000
0030
,
1000
0100
0010
0001
,
1000
0000
0100
0000
1000
0010
0100
0000
,
0001
0010
0100
1000
,
0001
0000
0010
0000
0001
0100
0010
0000
,
1000
0010
0100
0010
,
1000
0000
0001
0000
1000
0100
0010
0000
,
0001
0100
0010
0100
,
0001
0000
1000
0000
0001
0010
0100
0000
,
0110
0010
1001
0100
,
1100
0000
0000
0000
,
0100
0000
0010
0000
1000
0100
0000
0000
,
0010
0100
0001
1000
,
0020
0000
0000
0030
;

//---------------dance-single - ----------------
#NOTES:
     dance-single:
     :
     Hard:
     12:
     :
0000
0000
0000
0000
,
0000
0000
0000
0000
,
0000
0000
0000
0000
,
1000
1001
0001
1001
,
1000
0000
0001
0000
0100
1000
0100
0010
,
1000
0000
0001
0000
0100
0010
0000
1000
,
0100
0010
0001
1000
0000
0001
0010
0100
,
1000
0010
0010
0010
,
0010
1000
0100
1000
0000
0000
1001
0000
,
0001
0100
0010
1000
0001
0000
1000
0000
,
0110
0110
0000
0011
0000
1001
0001
0100
,
0010
0000
1000
0000
0001
0001
0100
0001
,
0010
0001
0010
0001
0010
0001
0010
0001
,
0100
0000
0001
1000
0010
0000
0100
0000
0001
0000
1000
0000
0001
0000
0100
0010
,
1000
0100
0010
0001
0010
0100
1000
0000
,
0100
0000
0010
0000
0001
0000
1000
0000
0010
0000
0100
0000
0001
0000
0100
1000
,
0100
0001
0010
0100
1000
1000
1000
0000
,
0001
0011
0000
1000
1010
1000
0100
0000
,
0010
0001
0100
0010
0100
1000
0100
0000
,
0001
0010
0100
1000
0010
1000
0010
1000
,
0100
0010
0001
1000
0100
0010
0001
0010
,
1000
0000
0001
1000
0001
0100
0010
0000
,
0010
0000
1000
0100
0010
0000
0001
0000
1000
0000
0001
0000
0100
0000
0000
0000
,
0001
0000
0010
0001
0100
0000
0010
0000
1000
0000
0100
0000
0010
0000
0000
0000
,
0100
0010
0100
1000
0010
1000
0100
0000
,
1001
0000
1001
0000
1001
0000
1001
0100
,
1001
0100
1001
0100
1001
0100
1001
0100
,
0010
0000
0100
0000
0001
1000
0000
0100
,
0010
0001
0010
0001
0000
1000
0001
1000
,
0010
0000
0100
0000
0010
0000
1000
0001
,
0010
0001
0100
0010
0000
0000
0110
0000
,
0010
1000
0100
1000
0010
0000
0100
0001
,
0010
0100
0000
0010
0000
0000
0100
0010
,
1000
0000
0010
0000
0001
0100
0010
1000
,
0010
1000
0010
0100
0001
0010
0100
0000
,
1000
0000
0001
0010
0100
0000
0010
0000
0001
0010
0000
0100
0000
0000
0010
0001
,
1000
0000
0010
1000
0100
0000
1000
0001
0100
0001
1000
0100
0000
0000
1000
0000
,
0001
0010
0100
1000
0100
0000
0010
0001
0010
0000
0100
1000
0000
0000
0000
0000
,
0100
0000
0100
0000
0100
0000
0000
0000
0010
0000
0010
0000
0100
0010
0000
0000
,
0100
0000
1000
0100
0010
0000
0001
0010
0000
0100
0000
1000
0001
0000
0000
0000
,
0001
0010
0100
1000
0100
0000
0010
0000
0001
0100
0000
0001
1000
0000
0000
0000
,
0001
0000
0000
0000
1000
0000
0001
0000
1000
0010
0000
1000
0000
0000
0000
0001
,
1000
0100
0010
0001
0010
0000
0001
0000
1000
0000
0010
0100
0000
0000
0000
0000
,
1001
0000
1001
0000
1001
0000
1001
0100
,
1001
0100
1001
0100
1001
0100
1001
0100
,
0010
0000
1000
0000
0001
0100
0000
0000
,
1001
0000
0010
0100
0100
0000
1001
0000
,
0200
0000
0000
0300
;

//---------------dance-single - ----------------
#NOTES:
     dance-single:
     :
     Challenge:
     14:
     :
0000
0000
0000
0000
,
0000
0000
0000
0000
,
0000
0000
0000
0000
,
0001
0000
0010
0100
0000
0100
1000
0000
1010
0000
0001
0000
0100
0000
0000
0000
,
1100
0000
1100
0000
1100
0001
0001
1000
,
1001
0010
1000
0100
0110
0110
0010
0001
,
1000
0010
1000
0001
0000
0010
0010
0100
,
1100
0000
1100
0001
0100
0000
0100
0010
,
1000
0000
0010
0000
0100
0000
0002
0000
0000
0000
0013
0100
0010
0100
0010
0000
,
0001
0001
1000
0100
0021
0000
0130
1000
,
0001
0001
1000
0200
1000
0000
0310
0100
,
1001
0000
0110
0001
1000
0010
1000
0002
,
0100
0100
0010
0010
1000
1003
0001
0010
,
0010
0000
0001
0100
1000
0000
0010
1000
0100
0000
1010
0000
1010
0000
1000
0100
,
0010
0000
0001
0000
0100
0000
0001
0000
0101
0000
1000
0100
1000
0000
0000
0000
,
0010
0000
0010
0000
1000
0000
1000
0000
1100
0000
0110
0000
0011
0000
0100
0010
,
1000
0000
0001
0010
0001
0000
0100
0010
1000
0000
0001
1000
0100
0000
0000
0000
,
1001
1010
0010
1000
0100
1001
0110
0000
,
0001
0000
0001
0000
0001
0000
0010
0100
1000
0000
1100
0000
1100
0000
0000
0000
,
0010
0000
0100
0000
0001
0000
0100
0000
0010
1000
0001
0000
0100
0000
0010
0000
,
1000
0000
0000
0000
0000
0000
0100
0000
0000
0010
0000
0000
0001
0000
0000
0000
0000
0000
1000
0000
0000
0001
0000
0000
1000
0000
0000
0000
0100
0000
0000
0000
0010
0000
0000
0000
0001
0000
0000
0000
0000
0000
0100
0000
0000
0000
0000
0000
,
0011
0000
1000
0000
1000
0000
0100
0010
0001
0000
0100
0000
1010
0000
0000
0000
,
0001
0000
0100
0010
1000
0000
0100
0010
0001
0000
0101
0000
1100
0000
0000
0000
,
0010
0000
1000
0001
0100
0000
0100
0000
0001
0010
1000
0010
0001
0000
0000
0100
,
0010
0000
0110
0000
0110
0000
0001
0010
0100
1000
0001
0000
1000
0000
0100
0000
,
1100
0100
0101
0100
1100
0100
0101
0100
,
1100
0101
1100
0101
1100
0001
0001
0100
,
0110
0010
1000
0001
0011
0011
0100
1000
,
0010
1000
0001
0010
0000
0100
0100
1000
,
1010
0000
0101
0001
1000
0000
1000
0100
,
1000
0000
0001
0000
0010
0000
0200
0000
0000
0000
1300
0010
1000
0010
1000
0000
,
0100
0100
1000
0001
1200
0000
1300
0010
,
1000
0001
0010
0200
1000
0000
0310
0100
,
1100
0000
1001
0001
0010
0001
0100
0020
,
1000
0000
0001
0000
1030
0101
0000
0010
,
0010
0000
1000
0100
0001
0100
1000
0000
0010
0100
0000
0110
0000
0000
0001
0100
,
0010
0000
1000
0100
1000
0000
0001
0010
0001
1000
0010
0200
0000
0000
0301
0010
,
0001
0100
1000
0100
0001
0000
0010
0100
1000
0000
0001
2000
0000
0000
0000
0000
,
3010
0000
1000
0000
1001
0000
0000
0000
1001
0000
0110
0000
1000
0001
0100
0000
,
0010
0000
1000
0100
0000
0000
1000
0001
0000
0011
0000
0001
0100
0000
0000
0000
,
1010
0000
0001
0100
1000
0000
1000
0000
0010
1000
0000
0001
0100
0000
0000
0000
,
0010
1000
0100
0000
0100
0000
1000
0001
0010
0001
0000
0101
0000
0000
0000
0100
,
0001
1000
0001
0000
0010
0000
0100
0000
1100
0000
1000
0002
0000
0000
0003
0000
,
0011
0010
1010
0010
0011
0010
1010
0010
,
0011
1010
0011
1010
0011
1000
1000
0001
,
0110
0000
0110
0000
0001
0100
1000
0000
,
0010
1000
0100
0010
0001
0100
1000
0000
,
2002
0000
0000
3003
;

//---------------dance-double - ----------------
#NOTES:
     dance-double:
     :
     Easy:
     4:
     :
00000000
00000000
00000000
00000000
,
00000000
00000000
00000000
00000000
,
00000000
00000000
00000000
00000000
,
00010000
00000000
10000000
00000000
,
01000000
01000000
01000000
00000000
,
00100000
10000000
00010000
00000000
,
00100000
10000000
00010000
00000000
,
00010000
00011000
00000000
00000000
,
00010000
00001000
00000100
00000000
,
00000001
00001000
00000100
00000000
,
00000001
00001000
00000100
00000000
,
00000001
00000001
00000100
00000100
,
00002000
00000000
00000000
00003000
,
00010000
00001000
00010000
00000000
,
00010000
01000000
00010000
00000000
,
01000000
00000000
10000000
00000000
,
00100000
00000000
01000000
00000000
,
00010000
10000000
00010000
00000000
,
10000000
01000000
10000000
00000000
,
01000000
00000000
00010000
00000000
,
00001000
00000000
00000100
00000000
,
00000001
00000010
00000001
00000000
,
00000001
00001000
00000001
00000000
,
00000010
00000000
00000001
00000000
,
00000100
00000000
00001000
00000000
,
00010000
01000000
01000000
01000000
,
10010000
00000000
00000000
00000000
,
00100000
10000000
00010000
00000000
,
00100000
10000000
00010000
00000000
,
00010000
00011000
00000000
00000000
,
00010000
00001000
00000100
00000000
,
00000001
00001000
00000100
00000000
,
00000001
00001000
00000100
00000000
,
00000001
00000100
00000100
00001000
,
00002000
00000000
00000000
00003000
,
00010000
00000000
01000000
00000000
,
10000000
10000000
10000000
00000000
,
00100000
00000000
01000000
00000000
,
00010000
00010000
00010000
00000000
,
00001000
00000000
00010000
00000000
,
00001000
00001000
00001000
00000000
,
00000100
00000000
00000001
00000000
,
00000010
00000010
00000010
00000000
,
00001000
00000100
00000100
00000100
,
00001001
00000000
00000000
00000000
,
00000001
00001000
00000001
00000000
,
00000001
00000100
00000100
00001000
,
00002000
00000000
00000000
00003000
;

//---------------dance-double - ----------------
#NOTES:
     dance-double:
     :
     Medium:
     7:
     :
00000000
00000000
00000000
00000000
,
00000000
00000000
00000000
00000000
,
00000000
00000000
00000000
00000000
,
10000000
00010000
10000000
00010000
,
00011000
00010100
00001010
00000000
,
00000100
00000000
00000001
00000000
00000010
00001000
00000000
00000010
,
00000001
00000100
00001000
00000100
00000000
00000000
00000010
00000000
,
00001001
00000110
00000000
00000000
,
00000001
00000100
00001000
00010000
00000000
00000000
00000000
00000000
,
01000000
00100000
10000000
00010000
,
01000000
00100000
00000000
10000000
00000000
00000000
00100000
01000000
,
00100000
00000000
10000000
00000000
01000000
00010000
00001000
00000200
,
00000000
00000000
00000000
00000300
,
00000001
00000010
00000001
00000000
00000010
00000000
00000100
00000000
,
00001000
00001000
00000100
00000010
,
00000001
00000100
00001000
00000000
00001000
00010000
01000000
00000000
,
10000000
00100000
01000000
00000000
,
10000000
00100000
10000000
00000000
01000000
00000000
00100000
00000000
,
00010000
00010000
00100000
01000000
,
10000000
01000000
00010000
00000000
00010000
00001000
00000100
00000000
,
00000001
00000100
00000010
00000000
,
00001000
00000100
00001000
00000000
00000100
00000000
00000010
00000000
,
00000001
00000001
00000010
00000100
,
00010000
00001000
01000000
00000000
00010000
10000000
01000000
00000000
,
00100000
00010000
10000000
01000000
,
00010000
00011000
00001000
00011000
,
00002000
00000000
00000000
00003000
,
00000100
00000000
00001001
00000000
00000010
00000001
00000000
00000000
,
00001000
00000100
00000010
00000001
00000000
00000000
00000100
00000000
,
00001001
00000110
00000000
00000000
,
00000100
00001000
00010000
01000000
00000000
00000000
00000000
00000000
,
00100000
10000000
01000000
00000000
00100000
00000000
01000000
10000000
,
01000000
00100000
00000000
00001000
00000000
00000000
00010000
00001000
,
00010000
00000000
00000100
00000000
00001000
00000010
00001000
00000100
,
00000000
00000000
00000000
00000000
,
00000010
00000001
00000100
00000000
00001000
00000000
00000100
00000000
,
00000001
00000100
00001000
00010000
,
00001000
00010000
01000000
00000000
10000000
00000000
00100000
00000000
,
01000000
00010000
00100000
00000000
10010000
00000000
00000000
00000000
,
00100000
10000000
01000000
00000000
00010000
00000000
01000000
00000000
,
10000000
01000000
00010000
00001000
,
00010000
00001000
00000100
00000000
00000001
00000000
00000010
00000000
,
00000001
00000100
00000001
00000000
00001000
00000000
00000000
00000000
,
00000001
00000100
00000010
00001000
,
00000110
00000000
00000000
00000000
,
00000010
00000000
00000100
00000000
00010000
00001000
00000000
00000000
,
01000000
00000000
00000000
00100000
10000000
00000000
00000000
00000000
,
02200000
00000000
00000000
03300000
;

//---------------dance-double - ----------------
#NOTES:
     dance-double:
     :
     Hard:
     11:
     :
00000000
00000000
00000000
00000000
,
00000000
00000000
00000000
00000000
,
00000000
00000000
00000000
00000000
,
00020000
00000010
00001000
00030100
,
00001100
00000110
00000011
00000000
,
00000010
00000001
00000100
00000000
00001000
00100000
00010000
00000000
,
01000000
00100000
10000000
00100000
00000000
01000000
00010000
00100000
,
00010000
00000000
10000000
00000000
01000000
00010000
00001000
00000000
,
00000010
00000001
00000100
00000001
00000000
00000000
00001010
00000000
,
00000100
00000010
00000100
00000010
00000100
00000000
00011000
00000000
,
00001000
01000000
00001000
01000000
00001000
00000000
00010000
00001000
,
00100000
00000000
01000000
00000000
10000000
00100000
01000000
00010000
,
01100000
01001000
00011000
00010100
,
00001000
00000010
00000100
00000001
00000010
00000100
00001000
00000000
,
00010000
00001000
01000000
00100000
01000000
00010000
00100000
00000000
,
10000000
00100000
01000000
00000000
00010000
00100000
01000000
00000000
,
10000000
00100000
01000000
00000000
00010000
00100000
01000000
00000000
,
00010000
01000000
00100000
10000000
01000000
00100000
00010000
00000000
,
00001000
00010000
00000100
00000010
00000100
00001000
00000010
00000000
,
00000100
00000001
00000010
00000000
00000001
00000010
00000100
00000000
,
00001000
00000100
00010000
00001000
00000100
00000000
00000110
00000000
,
00000010
00000001
00000100
00000010
00001000
00000100
00000010
00000000
,
00010000
00001000
00000100
00001000
01000000
00010000
00100000
00000000
,
01000000
10000000
00100000
00000000
01000000
00010000
10000000
00000000
,
00010000
01000000
00100000
00000000
00010000
00001000
00010000
00000000
,
00001000
00000010
00000001
00000100
00001000
00010000
00001000
00000100
,
00000001
00000100
00001000
00010000
01000000
10000000
01000000
00000000
,
00110000
00000000
10010000
00000000
10000000
00100000
01000000
00000000
,
00010000
00100000
00001000
00010000
00000000
00000100
00001000
00000010
,
00000101
00001100
00000000
00011000
,
00100000
00010000
01000000
00100000
00000000
00000000
10000000
00000000
,
00100000
10000000
01000000
00100000
00010000
00000000
01010000
00000000
,
00001000
00010000
00001000
00000100
00001000
00000000
00000100
00000001
,
00000011
00000000
00001100
00000000
00000001
00000100
00000010
00000100
,
00001001
00000110
00001001
00000100
,
00000010
00000001
00000100
00001000
00000100
00001000
00010000
01000000
,
10000000
00100000
10000000
00100000
01000000
00010000
00100000
00001000
,
00100000
00001000
00010000
00000000
00000100
00010000
00001000
00000000
,
00000100
00000001
00000010
00000000
00001001
00000110
00001001
00000000
,
00000010
00000001
00000100
00001000
00000100
00001000
00010000
01000000
,
10000000
00100000
10000000
00100000
01000000
00010000
00100000
00001000
,
00100000
00001000
00010000
00000000
00000100
00010000
00001000
00000000
,
00000100
00000001
00000010
00000000
00000011
00001001
00000101
00000000
,
00000010
00000001
00000100
00001000
00010000
01000000
10000000
00100000
,
00010000
00001000
00000010
00000001
00000100
00000000
00001000
00000000
,
00010000
00000000
00000000
00100000
01000000
00000000
00010000
00000000
,
10000000
00100000
10000000
01000000
00010000
00000000
00001000
00000000
,
00020000
00000000
00000000
00030000
;
