#TITLE:Dispersion Star;
#ARTIST:ZUKI;
#BANNER:Dispersion Star-bn.png;
#BACKGROUND:Dispersion Star-bg.png;
#JACKET:Dispersion Star-jacket.png;
#MUSIC:Dispersion Star.ogg;
#SAMPLESTART:6.669;
#SAMPLELENGTH:20;
#BPMS:0=180;
#BGCHANGES:;

//---------------dance-single - ----------------
#NOTES:
     dance-single:
     :
     Beginner:
     3:
     :
0000
0000
0000
0000
,
0000
0000
0000
0000
,
0000
0000
0000
0000
,
0000
0000
0000
0000
,
0000
0000
0000
0000
,
1000
0000
0001
0000
,
1000
0000
0000
0000
,
0001
0000
0000
0000
,
1000
0000
0000
0000
,
0001
0000
1000
0000
,
0001
0000
0000
0000
,
1000
0000
0000
0000
,
0001
0000
0000
0000
,
0000
0000
0000
0000
,
0010
0000
0000
0000
,
1000
0000
0000
0000
,
0001
0000
0000
0000
,
0010
0000
0000
0000
,
0100
0000
0000
0000
,
1000
0000
0000
0000
,
0001
0000
0000
0000
,
0100
0000
0000
0000
,
0010
0010
0010
0000
,
1000
0000
0000
0000
,
0001
0000
0000
0000
,
1000
0000
0000
0000
,
0100
0100
0100
0000
,
0001
0000
0000
0000
,
1000
0000
0000
0000
,
0001
0000
0000
0000
,
0020
0000
0000
0030
,
0000
0000
0000
0000
,
0002
0000
0000
0003
,
0000
0000
0000
0000
,
0200
0000
0000
0300
,
0000
0000
0000
0000
,
2000
0000
0000
3000
,
0000
0000
0000
0000
,
0010
0000
0010
0000
,
0001
0000
0001
0000
,
0100
0000
0100
0000
,
1000
0000
1000
0000
,
0010
0010
0010
0000
,
0001
0001
0001
0000
,
0100
0100
0100
0000
,
1000
1000
1000
0000
,
0000
0000
0000
0000
,
0010
0000
1000
0000
,
0001
0000
0000
0000
,
1000
1000
1000
0000
,
0001
0001
0001
0000
,
0010
0000
0001
0000
,
1000
0000
0000
0000
,
0001
0001
0001
0000
,
1000
1000
1000
0000
,
0010
0000
1000
0000
,
0001
0000
0000
0000
,
0010
0010
0010
0000
,
0100
0100
0100
0000
,
0010
0000
0001
0000
,
1000
0000
0000
0000
,
0010
0010
0010
0000
,
0100
0100
0100
0000
,
0001
0000
1000
0000
,
0100
0000
0000
0000
,
0001
0000
1000
0000
,
2002
0000
0000
0000
,
3003
0000
0000
0000
,
0000
0000
0000
0000
;

//---------------dance-single - ----------------
#NOTES:
     dance-single:
     :
     Easy:
     5:
     :
0000
0000
0000
0000
,
0000
0000
0000
0000
,
0000
0000
0000
0000
,
0000
0000
0000
0000
,
0000
0000
0000
0000
,
0100
1000
0010
0000
,
0100
0000
0001
0000
,
0010
0001
1000
0000
,
0010
1000
0001
0000
,
0010
0001
0100
0000
,
0010
0000
0100
0000
,
0010
1000
0001
0000
,
0010
0001
1000
0000
,
1001
0000
0000
0000
,
0001
0000
0010
0000
,
0001
0100
1000
0000
,
0100
0010
0001
2000
,
0000
0000
0000
3000
,
0001
0000
0100
0000
,
0010
0100
0001
0000
,
1000
0000
0100
0000
,
0001
0000
0010
0000
,
0100
0010
0001
0000
,
0100
0000
0010
0000
,
1000
0001
0010
0200
,
0000
0000
0000
0300
,
0010
0001
0100
0000
,
0010
0000
0100
0000
,
0001
0000
0010
0000
,
1000
0000
0100
0000
,
2000
0000
0000
3000
,
0001
0100
0010
1000
,
0002
0000
0000
0003
,
2000
0000
0000
3000
,
0200
0000
0000
0300
,
0010
0001
0100
0010
,
2000
3000
0002
0003
,
0020
0030
0200
0300
,
1000
0100
1000
0000
,
0010
1000
0010
0000
,
0001
0010
0001
0000
,
0100
0001
0100
0000
,
0001
0001
0100
0100
,
1000
1000
0010
0010
,
0001
0000
1000
0000
,
0001
0000
0220
0000
,
0000
0000
0000
0330
,
0100
0001
0010
0000
,
0100
0000
0010
0000
,
0001
0010
0100
0000
,
1000
0010
0100
0000
,
0001
1000
0100
0000
,
0010
0000
0100
0000
,
1000
0010
0001
0000
,
1000
0010
0001
0000
,
0100
1000
0001
0100
,
0010
0010
0010
0000
,
1000
0100
0010
0000
,
0001
0100
0010
0000
,
1000
0010
0100
0001
,
1000
1000
1000
0000
,
0100
0010
0001
0000
,
0100
0010
1000
0000
,
0001
0010
0100
1000
,
0001
0001
0001
0000
,
2000
0000
3000
0020
,
0000
0000
0000
0000
,
0030
0000
0000
0000
,
0000
0000
0000
0000
;

//---------------dance-single - ----------------
#NOTES:
     dance-single:
     :
     Medium:
     9:
     :
0000
0000
0000
0000
,
0000
0000
0000
0000
,
0000
0000
0000
0000
,
0000
0000
0000
0000
,
0000
0000
0000
0000
,
0010
0000
0000
0001
0000
0000
1000
0000
,
0000
0100
0010
0000
0001
0000
0100
0000
,
0010
1000
0001
0010
,
1000
0000
0100
0000
0010
0100
1000
0000
,
0010
0000
0000
1000
0000
0000
0001
0000
,
0000
0010
0100
0000
1000
0000
0010
0000
,
0100
0010
0001
0100
,
0010
0000
0000
0000
1000
0000
0000
0000
0010
0000
0000
0010
0000
0000
0020
0000
,
0000
0000
0000
0030
,
1000
0000
0100
0010
0000
0001
0000
0100
,
0000
0010
0100
0000
0001
0000
0001
0000
,
0010
0100
0000
1000
0000
0001
2000
0000
,
0000
3001
0100
0000
0001
0000
0010
0000
,
1000
0000
0100
0010
0000
0001
0000
0100
,
0000
0010
0100
0000
0010
0000
1000
0000
,
0002
0000
0000
2003
0000
0000
3200
0000
,
0000
0000
0320
0000
0000
0000
0000
0030
0001
0000
0000
0001
0000
0000
0001
0000
,
0100
0000
0100
0010
0000
1000
0000
0100
,
0000
0010
0100
0000
1000
0000
1000
0000
,
0010
0100
0000
0001
0000
1000
0002
0000
,
0000
1003
0100
0000
1000
0000
0010
0000
,
0001
0000
0100
0010
0000
1000
0000
0100
,
0000
0010
0100
0000
0010
0000
0001
0000
,
2000
0000
0000
3002
0000
0000
0203
0000
,
0000
0000
0320
0000
0000
0000
0000
0030
1000
0000
0000
1000
0000
0000
1000
0000
,
0002
0000
0000
0000
,
0000
1003
0001
0000
0010
0000
0100
0000
,
2000
0000
0000
3020
0000
0000
0230
0000
,
0000
0301
0100
0000
0010
0000
1000
0000
,
0200
0000
0000
0000
,
0000
1300
0100
0000
0010
0000
0001
0000
,
2000
0000
0000
3020
0000
0000
0230
0000
,
0000
0301
0010
0000
0001
0000
0100
0000
,
0010
0010
0001
0001
,
1000
0100
0010
0000
1000
0100
0010
0000
,
1000
1000
0010
0010
,
0001
0010
0100
0000
0001
0010
0100
0000
,
1000
1000
0010
0010
,
0100
0001
1000
0000
0100
0001
1000
0000
,
0100
0100
0000
0010
0010
0000
0001
0001
,
0000
1000
1000
0000
0220
0000
0000
0000
,
0000
0000
0000
0330
,
0010
0000
1000
0001
0000
0100
0010
0000
,
0000
1000
0000
0100
0010
0001
0100
0000
,
0010
0000
0000
0010
0000
0000
0010
0000
0100
0000
0000
0000
0010
0000
0000
0000
,
0000
1000
0000
1000
0001
0100
0001
0000
,
0010
0000
0001
0100
0000
0010
0100
0000
,
0000
0010
0000
1000
0001
1000
0100
0000
,
0010
0000
0000
0010
0000
0000
0001
0000
0010
0000
0000
0000
0100
0000
0000
0000
,
0000
1000
0000
1000
0001
0010
0001
0000
,
0010
0000
0001
1000
0000
0010
0100
0000
,
0000
0001
0000
0100
0010
1000
0100
0000
,
0010
0000
0000
0010
0000
0000
0010
0000
0100
0000
0000
0000
0010
0000
0000
0000
,
0000
0001
0000
0001
1000
0100
1000
0000
,
0010
0000
1000
0100
0000
0010
0100
0000
,
0000
0010
0000
0001
1000
0001
0100
0000
,
0010
0000
0000
0010
0000
0000
1000
0000
0010
0000
0000
0000
0100
0000
0000
0000
,
0000
0001
0000
0001
1000
0010
1000
0000
,
0001
0000
0010
0100
0000
1000
0001
0000
,
0000
0100
0010
0000
1000
0000
1000
0000
,
0002
0000
0000
2003
0000
0000
3200
0000
,
0000
0000
0000
0000
,
0300
0000
0000
0000
,
0000
0000
0000
0000
;

//---------------dance-single - ----------------
#NOTES:
     dance-single:
     :
     Hard:
     13:
     :
0000
0000
0000
0000
,
0000
0000
0000
0000
,
0000
0000
0000
0000
,
0000
0000
0000
0000
,
0000
0000
0000
0000
,
0010
0000
1000
0100
0000
0010
0001
0000
,
0000
0000
0100
0000
0010
0000
0000
0000
1000
0001
1000
0000
0100
0000
0000
0000
,
0010
0000
0001
0100
0000
1000
0010
0000
,
0001
0000
0100
0000
0000
0000
1000
0000
0100
0010
0100
0000
1000
0000
0000
0000
,
0010
0000
0100
0010
0000
1000
0100
0000
,
0000
0000
0010
0000
0001
0000
0000
0000
1000
0001
1000
0000
0010
0000
0000
0000
,
0100
0000
0010
1000
0000
0100
0001
0000
,
0010
0000
1000
0000
0000
0000
0001
0000
0010
0000
0000
0100
0000
0000
0220
0000
,
0000
0000
0000
0330
,
1000
0001
0100
0010
0000
1000
0000
0100
,
0000
0010
0100
1000
0000
0001
0100
0000
,
1000
0100
0000
0001
0000
0010
2000
0000
,
0000
3001
0100
1000
0001
0010
0100
1000
,
0001
0100
0010
0100
0000
0001
0000
1000
,
0000
0000
0010
0100
0010
0100
0010
0100
0010
0000
1000
0000
0001
0000
0100
0000
,
0020
0000
0000
2030
0000
0000
3002
0000
,
0000
0000
0023
0000
0000
0000
0000
0000
0130
0000
0000
0100
0000
0000
0100
0000
,
0010
0100
1000
0100
0000
0001
0000
1000
,
0000
0010
0001
0100
0000
0010
0100
0000
,
0001
0010
0000
1000
0000
0100
0020
0000
,
0000
0031
0010
0100
1000
0001
0100
0010
,
1000
0010
0100
0001
0000
1000
0000
0100
,
0000
0000
0010
0100
0010
0100
0010
0100
0010
0000
0001
0000
1000
0000
0100
0000
,
0020
0000
0000
0032
0000
0000
0203
0000
,
0000
0000
0320
0000
0000
0000
0000
0000
1030
0000
0000
1000
0000
0000
1000
0000
,
0002
0000
0000
0000
,
0000
0013
0001
1000
0010
1000
0001
0100
,
0002
0000
0000
0023
0000
0000
0230
0000
,
0000
1300
0010
0001
0100
0010
1000
0100
,
0020
0000
0000
0000
,
0000
0031
0100
0001
1000
0100
0010
0001
,
2000
0000
0000
3020
0000
0000
0230
0000
,
0000
0301
0100
1000
0100
0010
0001
0100
,
0010
0010
1000
1000
,
0001
0010
0100
1000
0001
0100
0010
1000
,
0001
0001
0100
0100
,
1000
0010
0001
0100
0010
1000
0100
0010
,
0001
0001
0010
0010
,
0100
1000
0001
0100
0010
1000
0001
0010
,
0100
0000
1000
0100
1000
0000
0001
0000
0100
0001
0100
0000
0001
0000
1000
0001
,
1000
0000
0001
0000
0010
0001
0010
0000
0200
0000
0000
0000
0000
0000
0000
0000
,
0000
0000
0000
0300
,
0010
0000
0000
0010
0000
0000
0001
0000
1000
0000
0000
0000
0110
0000
0000
0000
,
0000
0000
0001
0000
0000
0000
1000
0000
0010
1000
0010
0000
0100
0000
0000
0000
,
0001
0000
0000
0001
0000
0000
1000
0000
0100
0000
0000
0000
0110
0000
0000
0000
,
0000
0000
0001
0000
0000
0000
0010
0000
0100
0010
0100
0000
1000
0000
0000
0000
,
0010
0000
0000
0010
0000
0000
0100
0000
0010
0000
0000
0000
1001
0000
0000
0000
,
0000
0000
0010
0000
0000
0000
0001
0000
1000
0010
1000
0000
0001
0000
0000
0000
,
0100
0000
0000
0100
0000
0000
0010
0000
1000
0000
0000
0000
0101
0000
0000
0000
,
0000
0000
1000
0000
0000
0000
0100
0000
0010
0100
0010
0000
0001
0000
0000
0000
,
0010
0000
0000
0010
0000
0000
0001
0000
1000
0000
0000
0000
0110
0000
0000
0000
,
0000
0000
1000
0000
0001
0000
0010
0000
0100
0010
0100
0000
1000
0000
0000
0000
,
0001
0000
0000
0001
0000
0000
1000
0000
0010
0000
0000
0000
0110
0000
0000
0000
,
0000
0000
1000
0000
0010
0000
0100
0000
0010
0100
0010
0100
0010
0000
1000
0000
,
0001
0000
0000
0001
0000
0000
0010
0000
0100
0000
0000
0000
1001
0000
0000
0000
,
0000
0000
0010
0000
1000
0000
0001
0000
0100
0010
0100
0000
0001
0000
0000
0000
,
1000
0000
0000
1000
0000
0000
0100
0000
0010
0000
0000
0000
1100
0000
0000
0000
,
0000
0000
0001
0000
0100
0000
0010
0000
1000
0001
1000
0001
1000
0000
0000
0000
,
0001
0000
0000
0001
0000
0000
0010
0000
0100
0000
0000
0000
1100
0000
0000
0000
,
0000
0000
0001
0000
0100
0000
0010
0000
1000
0010
1000
0010
1000
0010
1000
0010
,
2000
0000
0000
3002
0000
0000
0023
0000
,
0000
0000
0000
0000
,
0030
0000
0000
0000
,
0000
0000
0000
0000
;

//---------------dance-single - ----------------
#NOTES:
     dance-single:
     :
     Challenge:
     17:
     :
0000
0000
0000
0000
,
0000
0000
0000
0000
,
0000
0000
0000
0000
,
0000
0000
0000
0000
,
0000
0000
0000
0000
,
0010
0001
0100
0010
1000
0100
0001
1000
,
0000
0000
0010
1000
0100
0000
0010
0001
0100
0000
0010
0000
1000
0000
0001
0000
,
0100
0001
0010
0100
1000
0001
0010
1000
,
0000
0000
0001
1000
0010
0000
0100
0001
1000
0000
0100
0000
0001
0000
0010
0000
,
0100
1000
0010
0100
0001
0010
1000
0001
,
0000
0000
0010
0001
1000
0000
0100
0010
0001
0000
1000
0000
0010
0000
0100
0000
,
0001
1000
0100
0001
0010
0100
1000
0010
,
0000
0000
0100
0001
0100
0010
1000
0000
1100
0000
0000
0110
0000
0000
0011
0000
,
0000
0000
0100
0001
0010
0001
0100
0000
1000
0000
1000
0000
1000
0010
0100
0001
,
0010
0001
0100
1000
0110
0001
1000
0100
,
0000
0000
0010
0001
1000
0000
0001
0100
0010
0000
1000
0000
0002
0000
0000
0000
,
0013
0000
0001
1000
0001
0000
0010
0100
1000
0000
0010
0000
1000
0000
0001
0000
,
0200
0000
0320
0000
0230
0000
0301
0010
0100
1000
0000
0010
1000
0000
0001
0100
,
0001
0010
0100
1000
0110
0001
0010
0100
,
0000
0000
1000
0100
0010
0001
0010
0100
1000
0000
0001
0010
0001
0000
0100
0000
,
1010
1000
0100
0011
0001
0100
1010
0001
,
1000
0000
0100
0010
0000
0010
0001
0000
0100
0010
1000
0001
0010
0100
1000
0000
,
0010
0000
1000
0000
0001
0000
0100
0000
0001
0010
0100
0010
0001
0000
1000
0000
,
0010
0000
1000
0100
0010
0000
0001
1000
0010
0000
0100
0000
0001
0000
1000
0000
,
0100
0000
0010
0000
0001
0000
0100
0010
1000
0000
0001
0010
0001
0000
1000
0000
,
0100
1000
0001
0000
0010
0000
0100
0000
1000
0000
0010
0100
0001
0000
1000
0000
,
0100
0000
0010
0000
0001
0000
0100
0000
1000
0001
0010
0001
1000
0000
0100
0000
,
0000
0000
0001
0010
0100
1000
0100
0010
0001
0000
0100
0000
0010
0000
0000
0000
,
0101
0010
0001
1100
1000
0010
0101
0100
,
0010
0000
1000
0100
0010
0100
1000
0000
0001
0010
0001
0100
0001
0010
0100
1000
,
0010
0000
0000
0010
1000
0000
0000
1000
0010
0000
0000
0010
1000
0000
0000
1000
,
0010
0100
1000
0100
0001
0010
1000
0010
,
0001
0000
0000
0100
0010
0000
0000
0010
1000
0000
0000
1000
0100
0000
0000
0100
,
0010
0001
0100
1000
0100
0010
0001
0010
,
1000
0000
0000
0001
0010
0000
0000
0001
0010
0000
0000
0001
0010
0000
0000
0001
,
0010
1000
0100
0010
1000
0010
0001
0100
,
0010
0000
0000
1000
0001
0000
0000
0001
1000
0000
0000
1000
0001
0000
0000
0001
,
1000
0100
0010
0001
0100
0010
1000
0001
,
0011
0000
0000
1000
0100
0000
0000
0010
0001
0000
0000
0100
0010
0000
0000
1000
,
0001
0100
0010
0001
0010
1000
0100
1000
,
1010
0000
0000
0100
0001
0000
0011
0000
0000
1000
0010
0000
1001
0000
0000
0000
,
0100
0010
1000
0100
0001
1000
0010
0001
,
0101
0000
0000
0001
0010
0000
0000
0100
1000
0000
0000
0010
0100
0000
0000
0001
,
1000
0100
0001
0010
1000
0001
0010
0100
,
1000
0000
0010
0100
0001
0100
0010
0000
1000
0001
0010
0001
1000
0000
0100
0010
,
0001
1000
0010
0000
0100
0010
1000
0001
0020
0000
0000
0000
0000
0000
0000
0000
,
0000
0000
0000
0000
0000
0000
0000
0000
0031
1000
0001
0000
0000
0000
0000
0000
,
0100
0010
0001
0100
1000
0001
1000
0010
,
0000
0000
0000
0000
1000
0001
0010
0100
1000
0010
0100
0001
1000
0100
0010
0001
,
0100
0010
1000
0100
0001
1000
0001
0010
,
0000
0000
0000
0000
1000
0100
0001
0100
1000
0000
0010
0000
0100
0000
0001
0000
,
0010
0001
1000
0100
0001
1000
0100
0010
,
0000
0000
0000
0000
0100
1000
0010
1000
0100
0010
0001
1000
0001
0100
0001
0010
,
0001
0010
1000
0001
1000
0100
0010
0100
,
1000
0010
1000
0010
0100
1000
0100
1000
0100
0001
0010
0001
0010
0001
0100
0001
,
1000
0010
1000
0001
0010
0100
0001
0100
,
0000
0000
0000
0000
1000
0010
0001
0010
1000
0100
0001
0100
1000
0001
0100
0010
,
1000
0001
0010
0100
0010
1000
0100
0001
,
0010
0000
0000
0000
0001
0100
1000
0100
0001
0000
0010
0000
0001
0000
1000
0000
,
0100
0010
0001
0100
1000
0010
1000
0001
,
0000
0000
0000
0000
0010
0001
0100
0010
1000
0100
1000
0001
1000
0100
0010
0001
,
0100
0000
0010
1000
0010
0000
0100
0000
0001
0010
0001
0000
2000
0000
0000
0000
,
3001
0010
0001
0010
0100
1000
0100
1000
0100
0010
0100
0010
0001
1000
0001
1000
,
0010
1000
0100
0010
0001
0100
0001
0010
0100
1000
0010
0100
0002
0000
0000
0000
,
0000
0000
0000
0000
0013
0001
1000
0100
0010
0001
1000
0100
0010
0001
1000
0100
,
0020
0000
0000
0000
0000
0030
0020
0000
0000
0000
0000
0030
0020
0000
0000
0000
,
0000
0000
0000
0000
,
0030
0000
0000
0000
;

//---------------dance-double - ----------------
#NOTES:
     dance-double:
     :
     Easy:
     5:
     :
00000000
00000000
00000000
00000000
,
00000000
00000000
00000000
00000000
,
00000000
00000000
00000000
00000000
,
00000000
00000000
00000000
00000000
,
00000000
00000000
00000000
00000000
,
00000010
00000001
00000100
00000000
,
00000010
00000000
00010000
00000000
,
00001000
00100000
00010000
00000000
,
10000000
01000000
00100000
00000000
,
00010000
01000000
10000000
00000000
,
00100000
00000000
10000000
00000000
,
01000000
00010000
00001000
00000000
,
00010000
00001000
00000100
00000000
,
00001001
00000000
00000000
00000000
,
00000010
00000000
00001000
00000000
,
00000100
00000010
00000001
00000000
,
00000100
00000010
00001000
00020000
,
00000000
00000000
00000000
00030000
,
01000000
00000000
00100000
00000000
,
10000000
00010000
01000000
00000000
,
00100000
00000000
00010000
00000000
,
00001000
00000000
00000100
00000000
,
00000001
00000100
00001000
00000000
,
00000010
00000000
00000100
00000000
,
00000001
00000010
00000100
00002000
,
00000000
00000000
00000000
00003000
,
00000100
00010000
00001000
00000000
,
00100000
00000000
00010000
00000000
,
01000000
00000000
00100000
00000000
,
10000000
00000000
01000000
00000000
,
00200000
00000000
00000000
00300000
,
00010000
00001000
00000100
00000010
,
00000002
00000000
00000000
00000003
,
00000200
00000000
00000000
00000300
,
00000020
00000000
00000000
00000030
,
00001000
00010000
01000000
00100000
,
20000000
30000000
02000000
03000000
,
00200000
00300000
00020000
00030000
,
10000000
00100000
10000000
00000000
,
01000000
10000000
01000000
00000000
,
00010000
01000000
00010000
00000000
,
00001000
00010000
00001000
00000000
,
00000010
00000010
00000001
00000001
,
00000100
00000100
00001000
00001000
,
00010000
00000000
00001000
00000000
,
00010000
00000000
00022000
00000000
,
00000000
00000000
00000000
00033000
,
00100000
00010000
01000000
00000000
,
00100000
00000000
10000000
00000000
,
01000000
00100000
00010000
00000000
,
00100000
00001000
00010000
00000000
,
00001000
00000100
00000001
00000000
,
00001000
00000000
00000001
00000000
,
00000010
00000001
00000100
00000000
,
00000010
00001000
00000100
00000000
,
00000010
00000001
00001000
00000010
,
00000100
00000100
00000100
00000000
,
00001000
00010000
00001000
00000000
,
00100000
00010000
01000000
00000000
,
00010000
10000000
01000000
00100000
,
00010000
00010000
00010000
00000000
,
01000000
00001000
00010000
00000000
,
00001000
00000100
00000001
00000000
,
00001000
00000100
00000010
00000001
,
00001000
00001000
00001000
00000000
,
00000002
00000000
00000003
00000200
,
00000000
00000000
00000000
00000000
,
00000300
00000000
00000000
00000000
,
00000000
00000000
00000000
00000000
;

//---------------dance-double - ----------------
#NOTES:
     dance-double:
     :
     Medium:
     9:
     :
00000000
00000000
00000000
00000000
,
00000000
00000000
00000000
00000000
,
00000000
00000000
00000000
00000000
,
00000000
00000000
00000000
00000000
,
00000000
00000000
00000000
00000000
,
01000000
00000000
00000000
00010000
00000000
00000000
10000000
00000000
,
00000000
01000000
00100000
00000000
00001000
00000000
00010000
00000000
,
00000010
00001000
00000100
00000010
,
00000001
00000000
00000100
00000000
00000001
00001000
00000100
00000000
,
00000010
00000000
00000000
00001000
00000000
00000000
00010000
00000000
,
00000000
01000000
00100000
00000000
00010000
00000000
01000000
00000000
,
00100000
10000000
01000000
00100000
,
00010000
00000000
00000000
00000000
01000000
00000000
00000000
00000000
00100000
00000000
00000000
00100000
00000000
00000000
00200000
00000000
,
00000000
00000000
00000000
00300000
,
10000000
00000000
00100000
01000000
00000000
00100000
00000000
00010000
,
00000000
00001000
00010000
00000000
00001000
00000000
00000010
00000000
,
00000001
00001000
00000000
00000100
00000000
00000010
00000002
00000000
,
00000000
00001003
00000010
00000000
00000100
00000000
00000001
00000000
,
00001000
00000000
00000100
00010000
00000000
00001000
00000000
00010000
,
00000000
01000000
10000000
00000000
00010000
00000000
10000000
00000000
,
00200000
00000000
00000000
20300000
00000000
00000000
32000000
00000000
,
00000000
00000000
03020000
00000000
00000000
00000000
00000000
00000000
00031000
00000000
00000000
00001000
00000000
00000000
00001000
00000000
,
00000010
00000000
00000001
00000100
00000000
00000010
00000000
00001000
,
00000000
00010000
00001000
00000000
00010000
00000000
00100000
00000000
,
10000000
00010000
00000000
01000000
00000000
00100000
20000000
00000000
,
00000000
30010000
00100000
00000000
01000000
00000000
10000000
00000000
,
00010000
00000000
01000000
00001000
00000000
00010000
00000000
00001000
,
00000000
00000100
00000001
00000000
00001000
00000000
00000001
00000000
,
00000020
00000000
00000000
00000032
00000000
00000000
00000203
00000000
,
00000000
00000000
00002300
00000000
00000000
00000000
00000000
00000000
00013000
00000000
00000000
00010000
00000000
00000000
00010000
00000000
,
00200000
00000000
00000000
00000000
,
00000000
10300000
00010000
00000000
01000000
00000000
00100000
00000000
,
20000000
00000000
00000000
32000000
00000000
00000000
03020000
00000000
,
00000000
00031000
00000100
00000000
00000001
00000000
00001000
00000000
,
00000200
00000000
00000000
00000000
,
00000000
00000310
00000001
00000000
00000100
00000000
00001000
00000000
,
00020000
00000000
00000000
00230000
00000000
00000000
20300000
00000000
,
00000000
30010000
01000000
00000000
00100000
00000000
10000000
00000000
,
01000000
01000000
00010000
00010000
,
00001000
00010000
00001000
00000000
00000010
00000100
00000010
00000000
,
00000001
00000001
00000100
00000100
,
00001000
00010000
00001000
00000000
01000000
00100000
01000000
00000000
,
00100000
00100000
10000000
10000000
,
01000000
00100000
01000000
00000000
00010000
00001000
00010000
00000000
,
00000010
00001000
00000000
00010000
00001000
00000000
00000010
00001000
,
00000000
00010000
00001000
00000000
00220000
00000000
00000000
00000000
,
00000000
00000000
00000000
00330000
,
01000000
00000000
10000000
00010000
00000000
01000000
00100000
00000000
,
00000000
10000000
01000000
00000000
00100000
00001000
00010000
00000000
,
00001000
00000000
00000000
00001000
00000000
00000000
00001000
00000000
00000100
00000000
00000000
00000000
00000010
00000000
00000000
00000000
,
00000000
00001000
00000000
00000001
00000010
00000001
00000010
00000000
,
00000100
00000000
00000010
00001000
00000000
00010000
00001000
00000000
,
00000000
01000000
00010000
00000000
10000000
00100000
01000000
00000000
,
00010000
00000000
00000000
00010000
00000000
00000000
01000000
00000000
00100000
00000000
00000000
00000000
10000000
00000000
00000000
00000000
,
00000000
01000000
00000000
00010000
00001000
00010000
00001000
00000000
,
00000010
00000000
00000001
00001000
00000000
00000010
00000100
00000000
,
00000000
00000001
00000010
00000000
00000100
00010000
00001000
00000000
,
00010000
00000000
00000000
00010000
00000000
00000000
00010000
00000000
00100000
00000000
00000000
00000000
01000000
00000000
00000000
00000000
,
00000000
00010000
00000000
10000000
01000000
10000000
01000000
00000000
,
00100000
00000000
01000000
00010000
00000000
00001000
00010000
00000000
,
00000000
00000010
00001000
00000000
00000001
00000100
00000010
00000000
,
00001000
00000000
00000000
00001000
00000000
00000000
00000010
00000000
00000100
00000000
00000000
00000000
00000001
00000000
00000000
00000000
,
00000000
00001000
00000000
00000100
00000010
00000100
00000010
00000000
,
00000100
00000000
00010000
00001000
00000000
00100000
00010000
00000000
,
00000000
00100000
01000000
00000000
10000000
00000000
10000000
00000000
,
00020000
00000000
00000000
20030000
00000000
00000000
30200000
00000000
,
00000000
00000000
00000000
00000000
,
00300000
00000000
00000000
00000000
,
00000000
00000000
00000000
00000000
;

//---------------dance-double - ----------------
#NOTES:
     dance-double:
     :
     Hard:
     14:
     :
00000000
00000000
00000000
00000000
,
00000000
00000000
00000000
00000000
,
00000000
00000000
00000000
00000000
,
00000000
00000000
00000000
00000000
,
00000000
00000000
00000000
00000000
,
00000010
00000000
00000001
00000100
00000000
00000010
00001000
00000000
,
00000000
00000000
00000100
00000000
00010000
00000000
00000000
00000000
00001000
00010000
00001000
00000000
00100000
00000000
00000000
00000000
,
00010000
00000000
10000000
00100000
00000000
01000000
00010000
00000000
,
10000000
00000000
01000000
00000000
00000000
00000000
00100000
00000000
00001000
00010000
00001000
00000000
00010000
00000000
00000000
00000000
,
00001000
00000000
00000010
00000100
00000000
00001000
00000100
00000000
,
00000000
00000000
00000010
00000000
00000001
00000000
00000000
00000000
00000100
00000010
00000100
00000000
00000001
00000000
00000000
00000000
,
00000010
00000000
00000100
00010000
00000000
00001000
00100000
00000000
,
00010000
00000000
01000000
00000000
00000000
00000000
00100000
00000000
10000000
00000000
00000000
01000000
00000000
00000000
00200000
00000000
,
00000000
00000000
00000000
00300000
,
00010000
10000000
01000000
00010000
00000000
00001000
00000000
00000100
,
00000000
00000001
00001000
00000100
00000000
00000010
00000001
00000000
,
00000100
00000020
00000000
00001000
00000000
00000130
00002000
00000000
,
00000000
00013000
00000010
00001000
00000100
00010000
00001000
00100000
,
00010000
00100000
01000000
00100000
00000000
00010000
00000000
10000000
,
00000000
00000000
00100000
01000000
00100000
01000000
00100000
01000000
00100000
00000000
10000000
00000000
01000000
00000000
00100000
00000000
,
00020000
00000000
00000000
00032000
00000000
00000000
00003200
00000000
,
00000000
00000000
00000320
00000000
00000000
00000000
00000000
00000030
00000001
00000000
00000000
00001000
00000000
00000000
00000001
00000000
,
00001000
00000001
00000100
00001000
00000000
00010000
00000000
01000000
,
00000000
10000000
00010000
01000000
00000000
00100000
10000000
00000000
,
01000000
00200000
00000000
00010000
00000000
01300000
00020000
00000000
,
00000000
00031000
00100000
00010000
01000000
00001000
00010000
00000010
,
00001000
00000010
00000100
00000010
00000000
00001000
00000000
00000001
,
00000000
00000000
00000010
00000100
00000010
00000100
00000010
00000100
00000010
00000000
00000001
00000000
00000100
00000000
00000010
00000000
,
00002000
00000000
00000000
00023000
00000000
00000000
02030000
00000000
,
00000000
00000000
03200000
00000000
00000000
00000000
00000000
00300000
10000000
00000000
00000000
00010000
00000000
00000000
10000000
00000000
,
00200000
00000000
00000000
00000000
,
00000000
01300000
00010000
00100000
01000000
00100000
00001000
00010000
,
00000020
00000000
00000000
00000230
00000000
00000000
00000302
00000000
,
00000000
00001003
00000100
00001000
00000001
00000100
00000010
00001000
,
00000020
00000000
00000000
00000000
,
00000000
00000130
00001000
00010000
00100000
10000000
01000000
00100000
,
00020000
00000000
00000000
20030000
00000000
00000000
32000000
00000000
,
00000000
03010000
01000000
10000000
00010000
01000000
00001000
00010000
,
00000010
00000010
00000100
00000100
,
00000001
00001000
00000100
00000010
00000001
00001000
00000010
00000100
,
00000001
00000001
00000010
00000010
,
00001000
00010000
00001000
00000010
00001000
00010000
01000000
00100000
,
00010000
00010000
01000000
01000000
,
00100000
10000000
01000000
00100000
00010000
01000000
00100000
10000000
,
01000000
00000000
00100000
01000000
00100000
00000000
00001000
00000000
00010000
00001000
00010000
00000000
00000100
00000000
00001000
00000100
,
00001000
00000000
00000001
00000000
00000010
00000001
00000010
00000000
00000200
00000000
00000000
00000000
00000000
00000000
00000000
00000000
,
00000000
00000000
00000000
00000300
,
00000010
00000000
00000000
00000010
00000000
00000000
00000001
00000000
00000100
00000000
00000000
00000000
00000020
00000000
00000000
00000000
,
00000000
00000000
00001000
00000000
00000000
00000000
00000130
00000000
00001000
00010000
00001000
00000000
00010000
00000000
00000000
00000000
,
01000000
00000000
00000000
01000000
00000000
00000000
10000000
00000000
00010000
00000000
00000000
00000000
02000000
00000000
00000000
00000000
,
00000000
00000000
00100000
00000000
00000000
00000000
03010000
00000000
10000000
01000000
10000000
00000000
00010000
00000000
00000000
00000000
,
01000000
00000000
00000000
01000000
00000000
00000000
00100000
00000000
00010000
00000000
00000000
00000000
00002000
00000000
00000000
00000000
,
00000000
00000000
00000010
00000000
00000000
00000000
00013000
00000000
00000010
00001000
00000010
00000000
00000100
00000000
00000000
00000000
,
00000001
00000000
00000000
00000001
00000000
00000000
00001000
00000000
00000100
00000000
00000000
00000000
00000020
00000000
00000000
00000000
,
00000000
00000000
00000001
00000000
00000000
00000000
00000130
00000000
00010000
00001000
00010000
00000000
00000010
00000000
00000000
00000000
,
00000100
00000000
00000000
00000100
00000000
00000000
00000001
00000000
00000010
00000000
00000000
00000000
00000200
00000000
00000000
00000000
,
00000000
00000000
00001000
00000000
00000000
00000000
00000310
00000000
00001000
00010000
00001000
00000000
00010000
00000000
00000000
00000000
,
00100000
00000000
00000000
00100000
00000000
00000000
10000000
00000000
00010000
00000000
00000000
00000000
00200000
00000000
00000000
00000000
,
00000000
00000000
01000000
00000000
00000000
00000000
00310000
00000000
10000000
00100000
10000000
00100000
10000000
00000000
00010000
00000000
,
00100000
00000000
00000000
00100000
00000000
00000000
01000000
00000000
00010000
00000000
00000000
00000000
00002000
00000000
00000000
00000000
,
00000000
00000000
00000100
00000000
00000000
00000000
00013000
00000000
00000100
00001000
00000100
00000000
00000010
00000000
00000000
00000000
,
00000001
00000000
00000000
00000001
00000000
00000000
00001000
00000000
00000010
00000000
00000000
00000000
00000200
00000000
00000000
00000000
,
00000000
00000000
00000001
00000000
00000000
00000000
00000310
00000000
00001000
00000100
00001000
00000100
00001000
00000000
00000001
00000000
,
00001000
00000000
00000000
00001000
00000000
00000000
00000010
00000000
00010000
00000000
00000000
00000000
00001000
00000000
00000000
00000000
,
00000000
00000000
00010000
00000000
00100000
00000000
10000000
00000000
00010000
00100000
00010000
00100000
00010000
00100000
00010000
00100000
,
02000000
00000000
00000000
23000000
00000000
00000000
30020000
00000000
,
00000000
00000000
00000000
00000000
,
00030000
00000000
00000000
00000000
,
00000000
00000000
00000000
00000000
;
