#TITLE:Disco Nights;
#ARTIST:Relect;
#BANNER:Disco Nights-bn.png;
#BACKGROUND:Disco Nights-bg.png;
#JACKET:Disco Nights-jacket.png;
#MUSIC:Disco Nights.ogg;
#OFFSET:1.05;
#SAMPLESTART:15.8;
#SAMPLELENGTH:20;
#LASTBEATHINT:0.09;
#DISPLAYBPM:128;
#BPMS:0=128;
#BGCHANGES:;

//---------------dance-single - ----------------
#NOTES:
     dance-single:
     :
     Beginner:
     3:
     :
0000
0000
0000
0000
,
0000
0000
0000
0000
,
0000
0000
0000
0000
,
0000
0000
0000
0000
,
0000
0000
0000
0000
,
0010
0000
0001
0000
,
0100
0000
1000
0000
,
0010
0000
1000
0000
,
0100
0000
0001
0000
,
0010
0000
0010
0000
,
0100
0000
0100
0000
,
1000
0000
0001
0000
,
1000
0000
0001
0000
,
0100
0000
0010
0000
,
0100
0000
0010
0000
,
1000
0000
1000
0000
,
0001
0000
0001
0000
,
0010
0000
0001
0000
,
0010
0000
0001
0000
,
1000
0000
0100
0000
,
1000
0000
0100
0000
,
1000
0000
0010
0000
,
1000
0000
0010
0000
,
0100
0000
0001
0000
,
0100
0000
0001
0000
,
1001
0000
0000
0000
,
0000
0000
0000
0000
,
0000
0010
0010
0010
,
0010
0000
1000
0000
,
0000
0100
0100
0100
,
0100
0000
1000
0000
,
0001
0000
0100
0000
,
1000
0000
0010
0000
,
0110
0000
0000
0000
,
0001
0000
1000
0000
,
0000
0010
0010
0010
,
0010
0000
0100
0000
,
0000
0001
0001
0001
,
0001
0000
0010
0000
,
0000
0100
0100
0100
,
0100
0000
1000
0000
,
0010
0000
0010
0000
,
0100
0000
0100
0000
,
1000
0000
0001
0000
,
1000
0000
0001
0000
,
1000
0000
1000
0000
,
0100
0000
0100
0000
,
0010
0000
0010
0000
,
0001
0000
0001
0000
,
0100
0000
0000
0000
;

//---------------dance-single - ----------------
#NOTES:
     dance-single:
     :
     Easy:
     7:
     :
0000
0000
0000
0000
,
0000
0000
0000
0000
,
0000
0000
0000
0000
,
0000
0000
0000
0000
,
0000
0000
0000
0000
,
0010
0010
0001
0001
,
0100
0100
1000
1000
,
0010
0010
1000
1000
,
0100
0100
0001
0001
,
0110
1001
1000
0100
,
0010
0001
0100
0010
,
1000
0100
1000
0001
,
0010
0001
0100
1000
,
0110
1001
1000
0001
,
0010
0001
0100
1000
,
0010
1000
0100
0010
,
0001
0100
0001
1000
,
0010
0010
0010
0010
,
0010
0010
0010
0010
,
0100
0100
0100
0100
,
0100
0100
0100
0100
,
0001
0001
0010
0010
,
1000
1000
0100
0100
,
0001
0001
0100
0100
,
1000
1000
0010
0010
,
0001
2000
3002
2003
,
3002
0103
0100
0100
,
0001
0020
0230
0320
,
0230
1300
0001
0100
,
0010
2000
3200
0320
,
0032
0103
0001
1000
,
0010
0010
0001
0001
,
0100
0100
1000
1000
,
0010
0002
0203
0302
,
0203
0310
1000
0100
,
0010
0200
2300
3200
,
2300
3010
1000
0001
,
0100
0020
2030
3020
,
2030
3001
1000
0100
,
1000
0002
0023
0032
,
0023
0031
0100
1000
,
0010
0010
1000
1000
,
0001
0001
0100
0100
,
0001
0001
0010
0010
,
0100
0100
1000
1000
,
0100
0100
0001
0001
,
0010
0010
1000
1000
,
0100
0100
1000
1000
,
0010
0010
0001
0001
,
0100
0000
0000
0000
;

//---------------dance-single - ----------------
#NOTES:
     dance-single:
     :
     Medium:
     10:
     :
0000
0000
0000
0000
,
0000
0000
0000
0000
,
0000
0000
0000
0000
,
0000
0000
0000
0000
,
0000
0000
0000
0000
,
0010
0001
0000
0100
0000
0000
0000
0000
0010
0000
1000
0100
0000
0000
0000
0000
,
0100
1000
0000
0010
0000
0000
0000
0000
0100
0000
0001
0010
0000
0000
0000
0000
,
0001
1000
0000
0010
0000
0000
0000
0000
1000
0000
0001
0100
0000
0000
0000
0000
,
0100
0001
0000
1000
0000
0000
0000
0000
0010
0000
1000
0001
0000
0000
0000
0000
,
1000
0000
0100
0000
1100
0000
0000
0000
0010
0000
0001
1000
0000
0000
0000
0000
,
0010
0100
0000
0101
0000
0000
0000
0000
0001
0000
1000
0010
0000
0000
0000
0000
,
0100
0010
0000
0110
0000
0000
0000
0000
1000
0000
0100
0010
0000
0000
0000
0000
,
0001
1000
0000
1001
0000
0000
0000
0000
0010
0000
0001
0100
0000
0000
0000
0000
,
0001
0000
0010
0000
0011
0000
0000
0000
1000
0000
0001
0100
0000
0000
0000
0000
,
0010
1000
0000
1010
0000
0000
0000
0000
0100
0000
0010
0001
0000
0000
0000
0000
,
1000
0001
0000
1000
0000
0000
0000
0000
0010
0000
0100
0010
0000
0000
0000
0000
,
0100
0010
0000
0100
0000
0000
0000
0000
0001
0000
1000
0001
0000
0000
0000
0000
,
0020
0001
1000
0001
,
0100
0000
1000
0000
0100
0000
0031
1000
,
0200
0001
1000
0010
,
1000
0000
0001
0000
1000
0000
0310
0001
,
0100
0010
1000
0000
0100
0010
0001
0000
,
1000
0001
0100
0000
0010
1000
0001
0000
,
0010
0001
0010
0001
1000
0100
1000
0100
,
1000
0010
1000
0010
0100
0001
0100
0001
,
2001
3020
0032
0023
,
2030
0000
3200
0000
1300
0001
1000
0010
,
0200
0302
0023
0230
,
2300
0000
3020
0000
0130
0001
0100
0010
,
2000
3002
2003
3200
,
0320
0000
0032
0000
1003
0001
0010
0100
,
1000
0010
0000
1000
0000
0000
0000
0000
0001
0000
0100
0001
0000
0000
0000
0000
,
1000
0100
0000
1000
0000
0000
0000
0000
0001
0000
0010
0001
0000
0000
0000
0000
,
0120
0032
2003
3002
,
0203
0000
0310
1000
0010
0100
0001
1000
,
0200
0320
0032
2003
,
3020
0000
1030
0100
1000
0010
0100
0001
,
1000
1100
0011
0101
,
1010
0000
0010
1000
0100
0010
0001
0100
,
0001
0011
0110
1100
,
1001
0000
1000
0010
1000
0100
0010
0001
,
0100
0010
0000
1010
0000
0000
0000
0000
1000
0000
0001
0010
0000
0000
0000
0000
,
0001
0100
0000
0101
0000
0000
0000
0000
0010
0000
0001
1000
0000
0000
0000
0000
,
0010
1000
0000
0100
0000
0000
0000
0000
0010
0000
0001
0100
0000
0000
0000
0000
,
0100
0001
0000
0010
0000
0000
0000
0000
0100
0000
1000
0010
0000
0000
0000
0000
,
1000
0100
0000
1000
0000
0000
0000
0000
0001
0000
0100
0001
0000
0000
0000
0000
,
1000
0010
0000
1000
0000
0000
0000
0000
0001
0000
0010
0001
0000
0000
0000
0000
,
1000
0010
0001
0100
,
0010
0000
1000
0000
0100
0010
0001
2000
,
0200
0000
0000
0000
,
0000
0000
0000
0000
,
0000
0000
0000
3300
;

//---------------dance-single - ----------------
#NOTES:
     dance-single:
     :
     Hard:
     13:
     :
0000
0000
0000
0000
,
0000
0000
0000
0000
,
0000
0000
0000
0000
,
0000
0000
0000
0000
,
0000
0000
0000
0000
,
0010
0001
0000
0100
0000
0000
0000
0000
0010
0000
1000
0100
0000
0000
0000
0000
,
0100
1000
0000
0010
0000
0000
0000
0000
0100
0000
0001
0010
0000
0000
0000
0000
,
0001
0000
0000
0100
0010
0000
1000
0000
1000
0000
0000
0100
0010
0000
0001
0000
,
0010
0000
0000
0001
0100
0000
0010
0000
1000
0000
0000
0100
1000
0000
0001
0000
,
0110
0000
0110
0000
1001
0000
0000
0000
0010
1000
0000
1000
0100
0000
0010
0000
,
0001
0100
0000
0010
1000
0000
0100
0000
1000
0001
0000
1000
0010
0000
0100
0000
,
0001
0010
0000
0100
1000
0000
0010
0000
0100
0010
0000
1000
0001
0000
0100
0000
,
0001
0010
0000
0100
1000
0000
0010
0000
1000
0001
0000
0100
0010
0000
1000
0001
,
1000
0000
1100
0000
1100
0000
0000
0000
0010
0100
0000
0100
0001
0000
1000
0000
,
0100
0010
0000
0010
0001
0000
1000
0000
0010
1000
0000
1000
0100
0000
0010
0000
,
0001
0100
0000
0010
1000
0000
0100
0000
1000
0010
0000
0100
0001
0000
1000
0000
,
0100
0010
0000
0100
1000
0000
0001
0000
0010
0001
0000
1000
0001
0000
0100
0010
,
0200
1000
0001
1000
,
0010
0000
1000
0000
0010
0000
0301
1000
,
0020
0100
0001
0100
,
1000
0000
0000
0000
0001
0000
0000
0000
1000
0000
0000
0000
0130
0000
1000
0001
,
1000
0100
0001
0100
0010
0100
0001
0100
,
0010
1000
0010
0100
0010
1000
0010
0001
,
0100
0010
1000
0001
0100
0010
1000
0001
,
0010
0010
0100
0100
1000
0001
1000
0001
,
2001
3020
0032
0023
,
2030
0000
0000
0000
0000
0000
0100
0000
0000
0100
0000
0000
0100
0000
0000
0100
0000
0000
3100
0000
0010
0100
0000
0010
,
0100
1100
0101
1100
,
0101
0000
0000
0000
0000
0000
0010
0000
0000
0010
0000
0000
0001
0000
0000
0001
0000
0000
1000
0000
0010
1000
0000
0010
,
1000
1010
0011
1010
,
0011
0000
0000
0000
0000
0000
0100
0000
0000
0100
0000
0000
0010
0000
0000
0010
0000
0000
1000
0000
0001
1000
0000
0001
,
1000
0100
0000
0010
0000
0000
0000
0000
0001
0000
0100
0010
0000
0000
0000
0000
,
1000
0001
0000
0100
0000
0000
0000
0000
0001
0000
1000
0100
0000
0000
0000
0000
,
0020
0032
2003
3002
,
0203
0000
0000
0000
0000
0000
0310
0000
0000
0010
0000
0000
1000
0000
0000
1000
0000
0000
0001
0000
0100
0001
0000
0100
,
0001
0011
0110
1100
,
1001
0000
0000
0000
0000
0000
0010
0000
0000
0010
0000
0000
0100
0000
0000
0100
0000
0000
0001
0000
1000
0001
0000
1000
,
0001
1010
0101
0011
,
1100
0000
0000
0000
0000
0000
0100
0000
0000
0100
0000
0000
0010
0000
0000
0010
0000
0000
0001
0000
0100
0001
0000
0100
,
0001
1001
0110
1001
,
0110
0000
0000
0000
0000
0000
0010
0000
0000
0010
0000
0000
1000
0000
0000
1000
0000
0000
0100
0000
0010
0100
0000
0010
,
0100
1000
0000
1000
0010
0000
0000
0000
0100
0000
0001
0010
0001
0000
0000
0000
,
1000
0010
0000
0010
0100
0000
0000
0000
1000
0000
0001
0100
0001
0000
0000
0000
,
0010
0001
0000
0001
1000
0000
0000
0000
1000
0000
0100
0010
0100
0000
0000
0000
,
1000
0010
0000
0100
0001
0000
0000
0000
0010
0000
0001
1000
0000
0000
0010
0100
,
0010
0000
0000
1000
0100
0000
0010
0000
0001
0000
0000
0100
0001
0000
1000
0000
,
0100
0000
0000
1000
0010
0000
0100
0000
0001
0000
0000
0010
0001
0000
1000
0000
,
0100
1000
0000
0100
0010
0000
0001
0000
1000
0001
0000
0010
0001
0000
0100
0000
,
0010
0000
0000
1000
0000
0000
0100
0000
0010
0000
0000
0001
0000
0000
1000
0002
,
0200
0000
0000
0000
,
0000
0000
0000
0000
,
0000
0000
0000
0303
;
