#TITLE:Dimanche;
#ARTIST:Orange Lounge;
#BANNER:Dimanche-bn.png;
#BACKGROUND:Dimanche-bg.png;
#JACKET:Dimanche-jacket.png;
#MUSIC:Dimanche.ogg;
#SAMPLESTART:35.125;
#SAMPLELENGTH:20;
#DISPLAYBPM:164;
#BPMS:0=164;
#BGCHANGES:;

//---------------dance-single - ----------------
#NOTES:
     dance-single:
     :
     Beginner:
     2:
     :
0000
0000
0000
0000
,
0000
0000
0000
0000
,
0000
0000
0000
0000
,
0000
0000
0000
0000
,
0001
0001
0000
0000
,
0010
0000
0100
0000
,
1000
1000
0000
0000
,
0001
0000
0100
0000
,
0010
0010
0000
0000
,
1000
0000
0001
0000
,
0100
0100
0000
0000
,
0010
0000
1000
0000
,
0100
0100
0000
0000
,
0010
0000
0001
0000
,
1000
1000
0000
0000
,
0010
0000
0100
0000
,
0001
0001
0000
0000
,
0010
0000
0001
0000
,
0100
0100
0000
0000
,
1001
0000
0000
0000
,
0010
0010
0000
0000
,
1000
0000
0100
0000
,
0010
0010
0000
0000
,
0110
0000
1001
0000
,
0001
0000
0001
0000
,
1000
0000
1000
0000
,
0010
0000
1000
0000
,
0110
0000
0000
0000
,
0001
0000
0010
0000
,
0001
0000
0100
0000
,
1000
0000
1000
0000
,
1000
0000
0000
0000
,
1001
0000
0110
0000
,
0001
0000
0010
0000
,
0001
0000
1000
0000
,
0100
0000
0000
0000
,
0010
0000
0010
0000
,
0001
0000
1000
0000
,
0001
0000
0100
0000
,
0100
0000
0000
0000
,
0000
0000
0010
0000
,
1000
0000
0001
0000
,
1000
0000
0100
0000
,
0010
0000
0000
0000
,
0000
0000
1001
0000
,
0001
0000
0100
0000
,
0010
0010
0000
0000
,
0110
0000
0000
0000
,
0001
0001
0000
0000
,
0010
0000
0000
0000
,
0100
0100
0000
0000
,
1000
0000
0000
0000
,
0010
0010
0000
0000
,
1000
0000
0000
0000
,
0001
0001
0000
0000
,
0100
0000
0000
0000
,
0001
0001
0000
0000
,
1000
0000
0000
0000
,
0010
0010
0000
0000
,
0100
0000
0000
0000
,
0010
0010
0000
0000
,
1000
0000
0000
0000
,
0100
0100
0000
0000
,
1000
0000
0010
0010
;

//---------------dance-single - ----------------
#NOTES:
     dance-single:
     :
     Easy:
     7:
     :
0000
0000
0000
0000
,
0000
0000
0000
0000
,
0000
0000
0000
0000
,
0000
0000
0000
0000
,
0001
1000
0000
0010
,
1000
0001
0100
0100
,
0010
1000
0000
0100
,
0010
0001
1000
1000
,
1001
1001
0000
0010
,
1000
0001
0010
0100
,
0110
0110
0000
1000
,
0010
0100
0001
1000
,
1001
0110
0000
0100
,
0001
0010
0001
0100
,
0110
1001
0000
1000
,
0001
0010
0001
0100
,
1000
0000
1000
0000
0000
0000
0000
0001
,
0000
1000
0000
0001
0000
1000
0000
0000
,
0010
0000
0010
0000
0000
1000
0000
0001
,
0000
0000
0000
0000
,
0100
0000
0100
0000
0000
0000
0000
0010
,
0000
0100
0000
0010
0000
0100
0000
0000
,
0001
0000
0001
0000
0000
0100
0000
0010
,
0000
0000
2000
3002
,
0013
0001
1001
0100
,
0010
1000
0110
0000
,
1001
0000
0001
0100
,
1000
1000
1000
0000
,
0010
1000
0110
0001
,
0100
0010
1001
0000
,
0110
0000
0001
0010
,
0001
1000
1000
0000
,
0100
0010
0001
0100
,
0010
0010
1000
0001
,
0010
0001
0100
0010
,
1000
1000
1000
0000
,
0001
0010
0001
0100
,
1000
0010
0100
0100
,
0010
1000
0100
0010
,
0001
0001
0001
0000
,
0110
0001
1000
0010
,
1000
0100
0001
0000
,
1001
0000
0001
0100
,
1000
0000
0000
0010
0000
0100
0000
0000
,
0010
1000
0100
0010
,
0001
0100
0001
1000
,
1001
0000
0110
0000
0000
1000
0000
0001
,
0000
0000
0000
0000
,
0010
0000
0001
0000
0000
1000
0000
0100
,
0000
0000
0000
0000
,
1000
0000
0010
0000
0000
0100
0000
0001
,
0000
0000
0000
0000
,
1000
0000
0100
0000
0000
0010
0000
0001
,
0000
0000
0000
0000
,
0100
0000
0001
0000
0000
1000
0000
0020
,
0000
0000
0000
0030
,
0110
0000
0110
0000
0000
0001
0000
1000
,
0000
0000
0010
0000
,
1001
0000
1001
0000
0000
0100
0000
0010
,
0000
0000
1000
0000
,
1001
0000
0110
0000
0000
1000
0000
0010
,
0000
0000
0001
0000
,
0110
0000
1001
0000
0000
0001
0000
0200
,
0000
0000
0300
0000
0001
1000
0001
0000
;

//---------------dance-single - ----------------
#NOTES:
     dance-single:
     :
     Medium:
     10:
     :
0000
0000
0000
0000
,
0000
0000
0000
0000
,
0000
0000
0000
0000
,
0000
0000
0000
0000
,
0011
0000
0011
0000
0000
1000
0000
0001
,
0000
0010
0000
0001
0000
0100
0100
0000
,
1010
0000
1010
0000
0000
1000
0000
0100
,
0000
1000
0000
0001
0000
0010
0010
0000
,
1001
0000
1001
0000
0000
0010
0000
1000
,
0000
0100
0000
1000
0000
0001
0001
0000
,
0101
0000
0101
0000
0000
0010
0000
0001
,
0000
0010
0000
0100
0000
1000
1000
0000
,
1100
0000
1100
0000
0000
0010
0000
1000
,
0000
0001
0000
1000
0000
0100
0100
0000
,
0110
0000
0110
0000
0000
0010
0000
0001
,
0000
0100
0000
0001
0000
1000
1000
0000
,
1010
0000
0101
0000
0000
2000
0000
3002
,
0000
0023
0000
0230
0000
0310
0010
0000
,
0011
0000
1100
0000
0000
0001
0000
1000
,
0000
1001
0000
0000
0010
0100
0001
0000
,
0101
0000
1100
0000
0000
0002
0000
0203
,
0000
0320
0000
2030
0000
3001
0001
0000
,
0011
0000
1010
0000
0000
0010
0000
0100
,
0000
0110
0000
0000
0001
1000
0100
0000
,
1100
0000
0000
0001
1000
0000
0000
0010
,
1000
0001
0000
0101
0000
0000
0000
0100
,
0010
0000
0000
1000
0001
0020
0000
0130
,
0000
2000
0000
3002
0000
0023
0000
0031
,
1000
0000
0000
1000
0100
0010
0000
0001
,
1000
0001
0000
0011
0000
0000
0000
0100
,
0010
0000
0000
0000
1000
0001
1000
0200
,
0000
2300
0000
3002
0000
0023
0000
0031
,
0100
0000
0000
0010
1000
0000
0000
0010
,
1000
0001
0000
1010
0000
0000
0000
0100
,
1000
0000
0000
0000
0001
0010
0100
1000
,
0000
0010
0000
1000
0000
0001
0000
0100
,
0010
0000
0000
1000
0001
0000
0000
0000
,
0010
0100
0000
0110
0000
0000
0000
1000
,
0001
1000
0000
0001
0010
0001
1000
0100
,
0000
0010
0000
0001
0000
1001
0000
0000
,
0101
0000
1100
0000
1000
0001
0000
0020
,
0000
0032
0000
2003
0000
3200
0000
0300
,
0110
0000
0000
0000
0001
1000
0000
0010
,
2000
0000
0000
0001
0000
3002
0000
0000
,
0103
0000
0010
1000
0010
1000
0000
0002
,
0000
0023
0000
0032
0000
0203
0000
0300
,
1001
0000
1010
0000
0000
0011
0000
0011
,
0000
0001
1000
0001
0000
0100
0100
0000
,
0110
0000
1001
0000
0000
1000
0000
0001
,
0000
0000
0000
0010
0000
0001
0100
0000
,
1010
0000
0101
0000
0000
0010
0000
0100
,
0000
0000
0000
1000
0000
0001
0100
0000
,
0011
0000
1100
0000
0000
0010
0000
1000
,
0000
0000
0000
0001
0000
1000
0100
0000
,
1001
0000
0101
0000
0000
2000
0000
0002
,
0000
0000
0000
3003
,
0010
0000
0001
0000
0000
0100
0000
0010
,
1000
0000
0001
1000
0000
0100
0100
0000
,
0010
0000
0100
0000
0000
1000
0000
0001
,
0010
0000
0001
1000
0000
0100
0100
0000
,
0010
0000
0100
0000
0000
0010
0000
0001
,
0100
0000
0001
1000
0000
0010
0010
0000
,
0100
0000
0001
0000
0000
0200
0000
0020
,
0000
0000
0330
0000
0110
0110
0110
0000
;

//---------------dance-single - ----------------
#NOTES:
     dance-single:
     :
     Hard:
     12:
     :
0000
0000
0000
0000
,
0000
0000
0000
0000
,
0000
0000
0000
0000
,
0000
0000
0000
0000
,
0011
0000
0011
0000
0000
1000
0100
0001
,
0000
0001
0000
1000
0010
0100
0001
0000
,
1010
0000
1010
0000
0000
0100
1000
0001
,
0010
0001
0010
0100
0000
1000
1000
0000
,
1001
0010
1000
0001
1000
0100
0010
0001
,
0000
0000
0100
0000
0010
0000
0000
1000
0001
0000
0010
0000
0001
0000
0000
0000
,
0100
0010
1000
0001
0010
0001
1000
0100
,
0000
1000
0010
0100
0000
0001
0001
0000
,
0110
0001
0010
0100
1000
0010
1000
0001
,
0000
0000
0010
0000
0100
0000
0000
1000
0001
0000
0100
0000
0001
0000
0000
0000
,
0010
0001
1000
0001
0100
0010
1000
0100
,
0000
1000
0010
0001
0000
0100
0100
0000
,
0101
0000
1100
0000
0000
0001
0000
1000
,
0000
1010
0000
0011
0000
0100
0010
0000
,
1001
0000
0110
0000
0000
1000
0000
0001
,
0000
0000
1000
0100
1000
0000
0001
0000
0100
0000
0010
0000
0010
0000
0000
0000
,
0101
0000
1010
0000
0000
0100
0000
0010
,
0000
0011
0000
1100
0000
0001
1000
0000
,
0110
0000
1001
0000
0000
0010
0000
0100
,
0000
0000
0001
0010
0001
0000
0000
0000
1000
0001
1000
0001
1000
0000
0000
0000
,
2010
0000
3010
0100
0102
0000
1003
0001
,
0010
0100
0000
0110
0000
0001
1000
0001
,
0201
0000
0310
1000
0100
0010
0000
0001
,
1000
1000
0000
0011
0000
0001
0100
0010
,
1020
0000
1030
0001
1000
0100
0000
0010
,
0001
1000
0000
0110
0000
0010
0100
0001
,
1001
0000
1000
0001
1000
0010
0100
0001
,
0010
0010
0000
0101
0000
1100
0000
0001
,
1002
0000
0013
0001
0102
0000
1003
0100
,
1000
0001
0000
1010
0000
0100
0010
1000
,
1100
0000
0011
0000
0010
0001
1000
0100
,
1000
1000
0000
0110
0000
1001
0000
0100
,
0201
0000
0310
0100
0120
0000
1030
0001
,
0010
0001
0000
1100
0000
1000
0000
0001
,
0100
0010
0000
0100
0001
1000
0001
0100
,
0010
1000
0000
1010
0000
0001
0100
0000
,
0110
0001
1000
0000
1000
0100
0000
2000
,
0000
3020
0000
0230
0000
0301
0001
0000
,
1001
0000
1000
0010
1000
0001
0000
0100
,
0120
0000
1000
1030
0000
0001
0100
0000
,
0020
0000
1030
0100
1000
0001
0000
0020
,
0000
0032
0000
2003
0000
3010
0100
0000
,
0101
0000
0101
0000
0000
1001
0000
0110
,
0000
1000
0001
1000
0100
0010
0010
0000
,
0011
0000
0001
0100
0010
1000
0100
0020
,
0000
0031
1000
0002
0000
0103
0010
0000
,
1010
0000
0100
1000
0001
0010
0001
0200
,
0000
0310
1000
0002
0000
1003
0100
0000
,
1100
0000
0010
1000
0010
0100
0001
2000
,
0000
3100
0010
0002
0000
1003
0001
0000
,
0110
0000
0001
0010
0001
0100
0010
2000
,
0100
0100
0000
0001
0000
0100
3100
0000
,
1001
0000
1010
0000
1000
0001
0100
0010
,
1000
0000
0100
0000
0010
0000
0000
0001
1000
0000
0001
0000
0100
0000
0000
0000
,
0110
0000
0101
0000
0010
0001
1000
0100
,
1000
0000
0001
0010
0001
0000
0000
0000
0100
0000
0010
0000
1000
0000
0000
0000
,
1100
0000
0011
0000
1000
0010
1000
0001
,
0010
0001
1000
0010
0000
0100
0001
0000
,
0110
0000
1001
0000
0010
1000
0001
0100
,
0120
0000
1030
0000
1100
1100
1100
0000
;
