#TITLE:Diamonds;
#ARTIST:Rihanna;
#BANNER:Diamonds-bn.png;
#BACKGROUND:Diamonds-bg.png;
#JACKET:Diamonds-jacket.png;
#MUSIC:Diamonds.ogg;
#SAMPLESTART:49.239;
#SAMPLELENGTH:20;
#DISPLAYBPM:92;
#BPMS:0=92;
#BGCHANGES:;

//---------------dance-single - ----------------
#NOTES:
     dance-single:
     :
     Beginner:
     3:
     :
0000
0000
0000
0000
,
0000
0000
0000
0000
,
0000
0000
0000
0000
,
0000
0000
0000
0000
,
0010
0000
0010
0000
,
0100
0000
0100
0000
,
0001
0000
0001
0000
,
1000
0000
1000
0000
,
0001
0000
0001
0000
,
0010
0000
0010
0000
,
0100
0100
0000
0000
,
1000
0000
1000
0000
,
0010
0000
0100
0000
,
0010
0000
0100
0000
,
0001
0001
0000
0000
,
1000
1000
0000
0000
,
0001
0000
1000
0000
,
0001
0000
1000
0000
,
0010
0010
0000
0000
,
0100
0100
0100
0000
,
1001
0000
0000
1000
,
1000
0000
0000
0001
,
0001
0000
0000
0000
,
1000
0000
0001
0000
,
1001
0000
0000
0010
,
0010
0000
0000
0100
,
0100
0000
0000
0000
,
0010
0000
0100
0000
,
0110
0000
0001
0001
,
0000
0000
0100
0100
,
0000
0000
0010
0010
,
0010
0000
1000
0000
,
0110
0000
0000
0000
,
1000
0000
0000
0000
,
0001
0000
0000
0000
,
0000
0000
0000
1000
,
1000
0000
0000
0100
,
0100
0000
0000
0010
,
0010
0000
0000
0000
,
0001
0000
0100
0000
,
1001
0000
0000
0100
,
0100
0000
0000
0010
,
0010
0000
0000
0000
,
1000
0000
0001
0000
,
1001
0000
0010
0010
,
0000
0000
0100
0100
,
0000
0000
0001
0001
,
0000
0000
0110
0000
,
0010
0000
1000
1000
,
0000
0000
0100
0100
,
0000
0000
1000
1000
,
0000
0010
0010
0000
,
0110
0000
0000
0000
;

//---------------dance-single - ----------------
#NOTES:
     dance-single:
     :
     Easy:
     6:
     :
0000
0000
0000
0000
,
0000
0000
0000
0000
,
0000
0000
0000
0000
,
0000
0000
0000
0000
,
0010
0010
0010
0010
,
1000
0001
1000
1000
,
1001
0001
0100
1000
,
0020
0030
0100
0100
,
0110
0000
0001
0100
,
1000
1000
0010
0100
,
1001
0010
1000
0100
,
2000
3000
0001
0100
,
0110
0020
0130
0002
,
1003
0100
1000
0001
,
0100
1001
0010
1000
,
0100
0110
0001
1000
,
0010
2000
3100
0020
,
0031
0100
0010
1000
,
0010
0100
0010
1000
,
0001
0001
1000
1001
,
1001
0010
1000
1100
,
1100
0010
0100
0101
,
0101
0001
1000
0100
,
1000
0010
0100
0001
,
0110
0010
1000
1100
,
1100
1000
0001
0101
,
0101
0010
1000
0100
,
1000
0001
1000
0100
,
1001
0010
1000
0100
,
0010
0001
0100
0010
,
1000
0001
0010
0001
,
0100
0010
1000
0001
,
2002
0003
0010
3100
,
2200
3000
0001
1300
,
0202
0300
0010
1003
,
0000
0000
0000
0110
,
0110
0010
1000
1100
,
1100
0001
0100
0101
,
0101
0010
1000
0001
,
0010
0001
0100
1000
,
1001
0010
1000
1100
,
1100
0010
0100
0101
,
0101
0001
0010
1000
,
0100
0010
0001
0100
,
0110
0010
1000
1000
,
0001
0100
0010
1000
,
0100
0010
0001
0001
,
1000
0001
0011
1100
,
0001
0100
0010
1000
,
0100
0010
0100
1000
,
0010
1000
0001
0100
,
0010
1000
0100
0001
,
0110
0000
0000
0000
;

//---------------dance-single - ----------------
#NOTES:
     dance-single:
     :
     Medium:
     9:
     :
0000
0000
0000
0000
,
0000
0000
0000
0000
,
0000
0000
0000
0000
,
0000
0000
0000
0000
,
0010
0000
0010
0000
0010
0000
1000
0001
,
0100
0000
0100
0000
0010
1000
0001
0000
,
0011
0000
0001
0100
1000
0000
1001
0000
,
1100
0000
0000
0001
1000
0001
0010
0100
,
1000
0000
1000
0000
0010
1000
0010
0100
,
0001
0000
1010
0000
0001
0100
0010
0000
,
0110
0000
0001
1000
0000
0000
0000
0010
,
0100
0000
0000
0100
0001
1000
0001
0010
,
0100
2000
3010
0102
,
0013
0011
0110
1100
,
0010
0000
1000
0002
0000
0000
0000
0000
0100
0000
0000
0000
0103
0000
0010
0000
,
1000
0000
0010
0200
0000
0000
0000
0000
0301
0000
0000
0000
0101
0000
0000
0000
,
0010
1002
0103
2010
,
3100
0000
1100
0000
0001
1000
0001
0100
,
0010
1000
1001
0000
0100
0000
0100
0010
,
1000
0010
1000
0001
0010
0100
2000
0000
,
3002
0000
0013
0001
0100
0000
0101
0000
,
0021
0000
0130
1000
0001
1000
0210
0000
,
2300
0000
3010
1000
0001
0000
0010
0100
,
1000
0010
1000
0001
0010
0100
1000
0001
,
0200
0000
0310
1000
0001
0100
0010
0000
,
2010
0000
3001
1000
0010
0100
0001
0000
,
1002
0000
0013
0100
1000
0000
0110
0000
,
0001
0010
0001
0100
0010
1000
0001
1000
,
0100
0000
0100
1000
1100
0000
0001
0100
,
0010
0000
0010
1000
1010
0000
0001
0100
,
0010
0000
1000
0001
0011
0000
0100
0010
,
1000
0001
1000
0100
0010
0001
0100
0010
,
0220
0000
0030
0001
0301
1000
0100
0010
,
0000
0000
0000
0010
0010
0100
1000
0001
,
0000
0000
0000
0100
0100
0010
2000
0002
,
0000
0000
0000
3003
0000
0100
0010
0000
,
0120
0000
1030
0100
1000
0010
0100
0000
,
0102
0000
0013
0001
0100
0010
1000
0000
,
1200
0000
1300
0010
0100
0000
1001
0000
,
0010
1000
0010
0100
0001
0010
0100
1000
,
1020
0000
1030
0100
1000
0001
0100
0000
,
0201
0000
1300
0100
0001
0010
0100
0000
,
0021
0000
0031
0100
1000
0000
1100
0000
,
0010
0100
0001
0100
0010
1000
0100
0010
,
0001
0000
0001
0100
0100
0010
1000
0001
,
0010
0000
0010
1000
1000
0100
1000
0001
,
1000
0000
1000
0001
0001
0100
0010
1000
,
0100
0000
0010
0002
0000
1000
2003
0000
,
3010
0000
0100
0001
0001
1000
0100
0010
,
0001
0000
0100
0010
0010
1000
0001
0100
,
0001
0000
0010
0100
0100
1000
0010
0100
,
0000
0001
0100
0010
1000
0001
1001
0000
,
0110
0000
0000
0000
;

//---------------dance-single - ----------------
#NOTES:
     dance-single:
     :
     Hard:
     11:
     :
0000
0000
0000
0000
,
0000
0000
0000
0000
,
0000
0000
0000
0000
,
0000
0000
0000
0000
,
0010
0000
0000
0000
0010
0000
1000
0000
0100
0000
0010
0000
0001
1000
0001
0000
,
0100
0000
0100
0001
0010
0001
1000
0010
,
0100
0000
0001
0010
0200
0000
1300
0001
,
0200
0000
0000
0000
0301
0000
1000
0100
1000
0000
0010
0000
0100
0000
0001
0000
,
0010
0000
0000
0000
0010
0000
0001
0100
0001
0000
1000
0000
0010
0000
0100
0000
,
0001
0000
0000
0000
1000
0001
0000
0001
0100
0000
0010
0000
1000
0000
0000
0000
,
1100
0000
0001
1000
0010
0000
0010
0000
0100
0000
0000
0000
0100
0000
0001
1000
,
0001
0000
0000
0000
0010
0000
0001
0100
0001
0000
1000
0000
0010
0000
0100
0000
,
0001
0000
0000
0000
0011
0000
0000
0100
1000
0000
0000
0000
1010
0000
0000
0100
,
0001
0000
0010
0001
0100
0000
0010
1000
,
0001
0000
1000
0010
0000
0100
0000
0001
1000
0000
0100
0000
1000
0000
0010
0000
,
0001
0000
0100
0010
0000
1000
0000
0001
1000
0000
0000
0000
1001
0000
0000
0000
,
0010
0000
0000
0000
0101
0000
0000
0010
1000
0000
0000
0000
1100
0000
0000
0001
,
0100
0000
0000
0000
0010
0000
0000
0010
1000
0000
0100
0000
1000
0000
0001
0000
,
0010
0000
0010
0000
0100
0000
0000
1000
0001
0000
0000
0000
0001
0000
0100
0000
,
0010
0000
1000
0100
0000
0100
0010
0000
0001
0000
0100
0000
2001
0000
0000
0000
,
3010
0000
1000
0100
1000
0001
0000
0001
0100
0000
0000
0000
0120
0000
0000
0000
,
1030
0000
0001
0010
0001
0100
0000
0100
0010
0000
1010
0000
0201
0000
0000
0000
,
0301
0000
0010
0100
1000
0100
0000
1000
0001
0000
0000
0100
0000
0000
0010
0000
,
1000
0000
0010
0100
0000
0100
0001
0000
0010
0000
0001
0000
1000
0000
0001
0000
,
0100
0000
0010
1000
0010
0100
0000
0001
1000
0000
1100
0000
0012
0000
0000
0000
,
0103
0000
0001
1000
0100
1000
0000
0001
0100
0000
0110
0000
2001
0000
0000
0000
,
3010
0000
1000
0001
1000
0100
0000
0100
0010
0000
0000
0001
0000
0000
0100
0000
,
0001
0000
1000
0010
0000
0010
0100
0000
0001
0000
0010
0000
0100
0000
1000
0000
,
0010
0000
0100
0000
0001
0000
1000
0000
0110
0000
0001
0100
0010
0000
1000
0000
,
0100
0000
0010
0000
0001
0000
0100
0000
1010
0000
0001
1000
0100
0000
0010
0000
,
0001
0000
0100
0000
0010
0000
1000
0000
0101
0000
0001
0010
0100
0000
1000
0000
,
0010
0000
1000
0001
0000
0001
0010
0000
0001
0000
0100
0000
0010
0000
1000
0000
,
2200
0000
0000
0000
0300
0000
0001
0000
3001
0000
0100
0010
1000
0000
0001
0000
,
0200
0000
0000
0000
0000
0000
0010
0000
0310
0000
1000
0001
0010
0000
0100
0000
,
2000
0000
0000
0000
0000
0000
0100
0000
3100
0000
1000
0001
0100
0000
0020
0000
,
0000
0000
0000
0000
0030
0110
1002
0000
,
1003
0000
0010
0100
0010
1000
0000
0001
0010
0000
0100
0000
2100
0000
0000
0000
,
3001
0000
1000
0001
1000
0010
0000
0010
0100
0000
0101
0000
0021
0000
0000
0000
,
1030
0000
0010
0001
0100
0010
0000
0010
1000
0000
0000
0001
0000
0000
0100
0000
,
0001
0000
0010
0100
0000
0100
1000
0000
0010
0000
0100
0000
0001
0000
1000
0000
,
0010
0000
1000
0001
1000
0100
0000
0100
0010
0000
0011
0000
1200
0000
0000
0000
,
0301
0000
0100
0010
0100
1000
0000
1000
0001
0000
1010
0000
0210
0000
0000
0000
,
0310
0000
1000
0001
0010
0001
0000
1000
0100
0000
0000
0010
0000
0000
0001
0000
,
0100
0000
0010
1000
0000
1000
0001
0000
1000
0000
0100
0000
0010
0000
0001
0000
,
0100
0000
0010
0000
1000
0000
0001
0000
0011
0000
0100
0010
1000
0000
0001
0000
,
0010
0000
0100
0000
1000
0000
0010
0000
0101
0000
1000
0001
0010
0000
0100
0000
,
1000
0000
0001
0000
1000
0000
0010
0000
1001
0000
0100
0010
1000
0000
0001
0000
,
0010
0100
1000
0002
0103
0110
1001
0100
,
0010
0000
1000
0000
0100
0000
1000
0000
0011
0000
0001
0100
0010
0000
1000
0000
,
0100
0000
1000
0000
0001
0000
0100
0000
1010
0000
1000
0010
0100
0000
0001
0000
,
0010
0000
0100
0000
1000
0000
0001
0000
1100
0000
0010
1000
0001
0000
0100
0000
,
0001
0000
1100
0000
0101
0000
0010
1000
0001
0000
0100
0000
0010
0000
1000
0000
,
0110
0000
0000
0000
;
