#TITLE:Destination;
#ARTIST:Sota F.;
#BANNER:Destination.png;
#BACKGROUND:Destination-bg.png;
#JACKET:Destination-jacket.png;
#MUSIC:Destination.ogg;
#SAMPLESTART:70.586;
#SAMPLELENGTH:20;
#DISPLAYBPM:85:170;
#BPMS:0=170,162=85,180=170,246=85;
#STOPS:83.9375=0.353,114.9375=0.353,195.9375=0.353,226.9375=0.353;
#BGCHANGES:;

//---------------dance-single - ----------------
#NOTES:
     dance-single:
     :
     Beginner:
     4:
     :
0000
0000
0000
0000
,
0000
0000
0000
0000
,
0000
0000
0000
0000
,
0000
0000
0000
0000
,
0000
0000
0000
0000
,
0001
0000
0010
0000
,
1000
0000
0010
0000
,
0002
0000
0003
0000
,
2000
0000
3000
0000
,
0010
0010
0010
0000
,
1000
0000
0001
0000
,
0010
0010
0010
0000
,
0001
0000
1000
0000
,
0010
0000
0100
0000
,
0010
0000
1000
0000
,
0001
0000
1000
0000
,
2002
0000
3003
0000
,
0010
1000
0010
0000
,
0100
0000
0100
0000
,
0010
0001
0010
0000
,
0100
0000
0100
0000
,
0000
0010
0000
1000
,
0010
1000
0000
0010
,
0000
0010
0000
0001
,
1000
0001
0000
1000
,
0000
0100
0000
0010
,
0010
0010
0000
0001
,
0000
0100
0000
0010
,
0010
0010
0000
0000
,
0010
0000
1000
0001
,
1000
0000
0010
0000
,
0010
0000
0001
1000
,
0001
0000
2000
0000
,
3000
0000
0020
0000
,
0030
0000
0200
0000
,
0300
0000
0002
0000
,
0003
0000
0020
0000
,
0030
0000
0002
0000
,
0003
0000
2000
0000
,
3000
0000
0020
0000
,
0030
0000
0100
0000
,
0010
1000
0001
0010
,
1000
0010
0002
0000
,
0003
0000
2000
0000
,
3000
0000
0000
0000
,
0010
0010
0010
0000
,
1000
0001
1000
0000
,
0010
0010
0010
0000
,
0000
0001
0001
0001
,
0000
0010
0000
0100
,
1000
0100
0000
0010
,
0000
0010
0000
0100
,
0001
0100
0000
0001
,
0000
1000
0000
0001
,
0010
1000
0000
1000
,
0000
0001
0000
1000
,
0010
0001
0000
0000
,
1000
0000
0100
0010
,
0001
0000
1000
0000
,
0001
0000
1001
0000
,
0000
0000
0000
0000
,
0000
0000
1000
0000
,
0010
0010
0001
0000
,
0010
0010
0010
0000
0100
0000
1000
0000
,
0001
0100
0010
1000
,
0001
0000
1000
1000
0000
0000
0000
0000
,
0000
0000
0000
0000
;

//---------------dance-single - ----------------
#NOTES:
     dance-single:
     :
     Easy:
     9:
     :
0000
0000
0000
0000
,
0000
0000
0000
0000
,
0000
0000
0000
0000
,
0000
0000
0000
0000
,
0000
0000
0000
0000
,
1000
0100
0001
0010
,
0001
0000
0100
0000
1000
0010
0001
0000
,
0010
1000
0001
1000
,
0101
0000
1010
0000
1000
0001
0010
0000
,
0110
0000
0001
0000
0010
0100
1000
0000
,
1000
0010
0001
1000
,
0100
0000
0001
0100
0001
0000
0100
0010
,
0001
0010
1000
0001
,
0200
0300
1001
0000
0001
0000
0100
0000
,
0010
1000
0001
0000
0100
0010
0100
0000
,
1000
0100
0001
0010
,
0110
0000
0000
0000
0001
1000
0010
0000
,
0001
1000
0001
0000
0010
0000
0100
0000
,
1000
0100
0010
0000
0001
0100
0010
0000
,
1000
0010
0100
0000
0001
0000
1000
0000
,
0010
0100
0001
0000
0001
0000
1000
0000
,
0100
0000
0001
0000
0001
0000
0100
0010
,
1000
0100
0001
0100
,
0100
0010
1000
0100
,
0001
0010
0100
1000
,
0100
0001
0010
1000
,
0100
0000
1000
0010
0001
0000
1000
0000
,
0010
0100
1000
0001
,
1000
0000
0010
1000
0001
0000
1000
0000
,
0001
0010
1000
0100
,
0001
0010
1000
0000
0001
0010
0001
0000
,
0100
0001
0100
0010
0000
1000
0000
0000
,
0001
0000
0000
0000
0002
0000
0003
0020
,
0000
0000
0000
0030
0200
0000
0300
0020
,
0000
0000
0000
0030
0200
0000
0300
2000
,
0000
0000
0000
3000
0020
0030
1000
0002
,
0000
0000
0000
0003
0102
0000
0000
2000
,
0000
0000
0000
3003
2010
0000
0000
0002
,
0000
0000
0000
3003
0021
0000
0000
0200
,
0000
0000
0000
0330
2100
0000
0000
0002
,
0000
0000
0000
3003
0100
0000
1000
0000
,
0001
0100
1000
0010
0001
0000
1000
0000
,
0001
0010
1000
0100
0002
0000
0000
0000
,
0000
0000
0000
0000
,
0000
0000
0003
0000
,
0100
0000
1000
0000
0001
0100
0001
0000
,
0100
0000
0010
0000
1000
0010
1000
0000
,
0001
0000
0010
0000
1000
0000
0001
1000
,
0000
0101
1001
1020
,
0130
0000
0010
1000
0010
0000
0100
0000
,
0100
0000
0001
0100
0010
0000
1000
0000
,
0010
0001
0100
1001
,
0000
0000
0010
0001
1000
0000
0010
0000
,
1000
0000
0100
0010
0100
0000
0110
0000
,
1001
0110
1001
1000
,
0010
0001
0010
1000
,
1100
0101
1100
0100
,
1000
0100
0010
0000
0001
0000
1000
0002
,
0000
0013
0001
0010
,
0100
0000
1000
0000
0001
1000
0000
0000
,
0010
0110
0000
0000
,
0000
0000
0100
0001
,
1000
0010
0001
0100
1000
0000
0100
0000
,
0010
0001
0100
1000
0020
0000
0130
0100
,
1000
0000
0001
1000
0100
1000
0100
0001
,
0010
0000
0100
0010
0000
0000
0000
0000
,
0000
0000
0000
0000
;

//---------------dance-single - ----------------
#NOTES:
     dance-single:
     :
     Medium:
     12:
     :
0000
0000
0000
0000
,
0000
0000
0000
0000
,
0000
0000
0000
0000
,
0000
0000
0000
0000
,
0000
0000
0000
0000
,
1000
0010
0001
0100
,
0001
0000
0010
0000
1000
0100
0001
0000
,
0100
0000
0000
1000
0000
0000
0001
1000
0001
1000
0000
0000
,
0011
0000
1100
0100
1000
0001
0100
0000
,
0110
0000
0001
0100
0010
1000
0010
0000
,
1000
0001
1000
0100
0010
0001
1000
0000
,
0010
0000
0000
1000
0001
0000
0010
0000
0001
0000
0000
1000
0010
0000
0100
0000
,
0001
0100
0010
1000
0100
0010
0001
0000
,
0020
0000
0030
0000
1001
0000
0010
0000
0001
0000
0000
1000
0010
0000
0100
0000
,
0010
1000
0001
0100
0010
0100
0010
0000
,
1000
0000
0000
0100
0010
0000
0001
0000
0100
0000
0000
0010
1000
0000
0100
0000
,
0110
0000
0000
0000
0001
1000
0100
0000
,
0001
0000
1000
0000
0001
0100
0000
0010
0000
0000
0100
0000
0010
0000
0000
0000
,
1000
0000
0010
0000
0100
0001
0000
0100
0000
0000
0010
0000
0100
0000
0010
0000
,
1000
0000
0100
0000
0010
0001
0000
1000
0000
0000
0001
0000
2000
0000
0000
0000
,
3100
0010
0001
0010
0001
0001
1000
0000
,
0010
1000
0001
0010
0001
0000
0010
0100
,
1000
0100
0010
0001
1000
0001
0000
0010
,
0010
0100
0000
0010
0000
0000
0100
0000
2000
0000
0000
0000
3010
0000
0010
0000
,
0001
0001
0100
0001
0010
0000
1000
0000
,
0010
0000
0000
0000
0001
0000
0000
0001
0100
0000
0010
0000
0000
0000
1000
0000
,
0010
0100
1000
0100
0001
0000
1000
0000
,
0100
0000
0000
0000
0010
0000
0000
0001
1000
0000
0001
0000
0000
0000
0001
0000
,
1000
0100
0010
0001
1000
0000
1000
0000
,
0001
0000
0000
0010
0100
0000
1000
0000
0000
0000
0010
0000
0100
0000
0010
0000
,
0001
0100
1000
0000
0001
0100
0001
0000
,
0010
0000
0001
0000
0010
0000
0100
0000
0000
0000
1000
0000
0000
1000
0000
0000
,
0001
0000
0000
0001
0000
0000
0100
0000
0002
0000
0000
2000
0003
0000
0200
0000
,
0000
0000
0000
0000
0000
0000
3000
0000
0020
0300
0000
0002
0030
0000
0200
0000
,
0000
0000
0000
0000
0000
0000
0003
0000
0020
0300
0000
2000
0030
0000
0002
0000
,
0000
0000
0000
3000
0200
0003
0302
2000
,
0000
0000
0000
0000
0000
0000
3003
0000
0012
0000
0000
1000
0003
0000
2200
0000
,
0000
0000
0000
0000
0000
0000
3300
0000
0120
0000
0000
0001
0030
0000
2002
0000
,
0000
0000
0000
0000
0000
0000
3003
0000
1020
0000
0000
0100
0030
0000
0202
0000
,
0000
0000
0000
0000
0000
0000
0303
0000
0210
0000
0000
0001
0300
0000
2002
0000
,
0000
0000
0000
3003
0010
1000
0100
0010
,
0001
0000
0010
0000
0100
0000
1000
0000
0100
0000
0010
0001
1000
0100
0010
0000
,
0001
0000
0000
0000
0100
0000
0000
0000
0010
0000
0100
0000
0010
0000
0000
0000
1000
0000
0000
0020
0000
0000
0100
0000
0000
0100
0000
0000
0130
0000
0000
0000
,
0001
0000
0000
0020
0000
0000
0100
0000
0000
0100
0000
0000
0130
0000
0000
0000
2000
0000
0000
3020
0000
0000
0230
0000
0000
0320
0000
0000
2030
0000
0000
0000
,
3002
0000
0000
0023
0000
0000
0230
0000
0000
0320
0000
0000
0032
0000
0000
0000
2003
0000
0000
0000
0000
0000
0000
0000
0000
0000
0000
0000
3000
0000
0000
0000
,
0010
0000
0000
0010
0000
0000
1000
0000
0000
0100
0000
0000
0010
0000
0001
0000
,
1000
0000
0000
1000
0000
0000
0010
0000
0000
0100
0000
0000
0001
0000
1000
0000
,
0001
0000
0010
0100
1000
0001
0100
1000
,
0000
0011
1001
1200
,
0310
0000
0100
0000
0000
0100
0000
0000
1000
0000
0100
0000
0010
0000
0000
0010
,
0000
0000
0001
0000
0000
1000
0000
0000
0001
0000
1000
0000
0100
0000
0000
0000
,
1000
0010
0100
1000
0100
0001
0010
0000
,
0000
0000
0000
0000
1000
0000
0001
0000
0101
0000
0000
0000
1000
0000
0000
0010
,
0000
0000
0001
0000
0000
0100
0000
0000
1000
0000
0000
0000
0110
0000
0000
0000
,
0012
0000
2003
0000
3200
0000
0320
0000
0031
0000
0000
0000
0000
0000
1000
0100
,
0000
0000
0001
0100
0000
0000
1000
0100
0000
0000
0001
0100
0000
0000
0000
0000
,
1020
0000
0001
0000
1030
0000
0010
1000
,
0000
0100
0000
0000
0010
0000
0000
0000
0110
0000
0000
0000
1000
0000
0002
0000
,
0000
0000
0103
0000
0001
0000
0100
0010
,
1000
0010
0100
0001
1000
0001
0000
0000
,
1000
1100
0000
0000
,
0000
0000
0000
0000
0000
0000
0000
0000
0010
0000
0000
0000
0001
0100
1000
0010
,
0100
0010
0001
0010
1000
0001
1000
0000
0010
0000
0001
1000
0010
0000
1000
0001
,
0100
0000
0000
0100
0000
0000
0100
0000
0001
0000
0100
0000
1000
0000
0000
0000
0020
0000
0000
0000
0000
0000
0000
0000
1030
0000
0100
0000
0010
0000
0001
0000
,
0010
0000
0000
0100
0000
0000
1000
0000
0002
0000
0000
0000
2003
0000
0000
0000
3010
0000
0000
0000
1000
0000
0001
0000
0010
0000
0000
0000
0001
0000
1000
0000
,
0100
0000
0000
0100
0000
0000
0100
0000
0010
0000
0001
0000
0100
0000
0001
0000
0000
0000
0000
0000
0000
0000
0000
0000
0000
0000
0000
0000
0000
0000
0000
0000
,
0000
0000
0000
0000
;

//---------------dance-single - ----------------
#NOTES:
     dance-single:
     :
     Hard:
     15:
     :
0000
0000
0000
0000
,
0000
0000
0000
0000
,
0000
0000
0000
0000
,
0000
0000
0000
0000
,
0000
0000
0000
0000
,
0001
0010
1000
0100
,
1000
0000
0010
0000
0001
0100
1000
0000
,
0100
0000
0000
0000
0000
0000
0001
0000
0000
1000
0000
0000
0100
0000
0010
0000
0001
0000
1000
0000
0000
0000
0000
0000
,
1010
0000
0000
0000
0101
0000
0000
0100
0001
1000
0100
1000
0001
0000
0000
0000
,
0110
0000
0000
0000
1000
0000
0100
0000
0010
0000
0001
0010
0000
0000
0001
0000
,
0010
0001
1000
0000
0001
0000
0100
0000
0010
0000
1000
0000
0001
1000
0001
0000
,
0010
0000
0000
0001
1000
0000
0010
0000
1000
0000
0000
0001
0010
0000
0100
0000
,
1000
0000
0100
0000
0010
0001
0100
0000
0010
0000
1000
0000
0010
0000
0100
0000
,
0020
0000
0030
0000
1001
0000
0010
0000
1000
0000
0001
0010
0001
0000
1000
0000
,
0010
1000
0100
0000
0010
0000
0100
0000
0010
0000
1000
0000
0010
0001
0010
0000
,
0001
0000
0000
0100
0010
0000
1000
0000
0100
0000
0000
0010
0001
0000
0100
0000
,
0110
0000
0000
0000
0000
0000
0000
0000
1000
0001
0100
0000
0010
0000
0000
0000
,
1000
0000
0001
0000
1000
0100
1000
0100
0000
0010
0100
0000
0010
0000
0001
0000
,
1000
0001
1000
0000
0010
1000
0001
0100
0000
0000
0010
0000
0100
0000
0010
0000
,
1000
0000
0100
0000
0010
0001
1000
0001
0000
0100
0001
0000
2000
0000
0000
0000
,
3100
0010
0001
0000
0010
0000
0100
0000
1000
0000
1000
0000
0001
0000
0001
0000
,
0010
0001
0000
1000
0000
0001
0100
0000
0010
0000
1000
0000
0010
0100
0010
0000
,
1000
0001
0000
0100
0010
0000
1000
0000
0100
0000
0001
0000
0000
0000
0110
0000
,
1000
0001
0000
0100
0000
0010
1000
0000
0002
0000
0000
0000
0013
0100
0010
0100
,
1000
0001
1000
0001
0100
0010
1000
0100
0010
0000
0000
0000
0001
0000
0000
0000
,
0010
0000
0100
0000
1000
0000
0001
1000
0100
0010
0001
0000
0000
0000
1000
0000
,
0010
0000
0100
0000
0001
0000
1000
0100
0000
1000
0001
0000
0000
0000
0010
0000
,
0100
0010
0000
0001
0010
0100
1000
0001
0000
0000
1000
0100
1000
0100
1000
0000
,
0001
0000
0100
0000
0010
0000
1000
0000
0001
0000
1000
0000
0001
0100
0000
0010
,
1000
0000
0100
0010
0000
0001
1000
0000
0010
1000
0010
0000
0100
0000
0010
0000
,
1000
0000
0100
0010
0001
1000
0001
0000
1000
0000
0100
0000
1000
0001
0000
0100
,
0010
0000
1000
0010
0000
0000
0100
0010
0100
0010
0100
0000
0000
0010
0000
0000
,
0110
0000
0010
0100
0000
0000
0020
0000
2000
0030
0000
0002
3000
0000
0200
0000
,
0000
0000
0000
0000
0000
0000
0003
0000
0020
0300
0000
2000
0030
0000
0200
0000
,
0000
0000
0000
0000
0000
0000
3000
0000
0020
0300
0000
0002
0030
0000
2000
0000
,
0000
0000
0000
0003
0200
3000
2300
0002
,
0000
0000
0000
0000
0000
0000
3003
0000
2010
0000
0000
0001
3000
0000
0202
0000
,
0000
0000
0000
0000
0000
0000
0303
0000
0120
0000
0000
1000
0030
0000
2002
0000
,
0000
0000
0000
0000
0000
0000
3003
0000
0021
0000
0000
0100
0030
0000
2200
0000
,
0000
0000
0000
0000
0000
0000
3300
0000
0210
0000
0000
1000
0300
0000
2002
0000
,
0000
0000
0000
0000
0000
0000
0000
0000
0000
3003
0000
0000
0010
0000
0000
0001
1000
0001
0100
0000
0000
0010
0000
0000
,
1000
0000
0000
0000
0000
0000
0100
0000
0010
0000
0100
0000
1000
0000
0000
0000
0000
0000
0001
0000
0000
0000
0000
0000
0100
0000
0000
0000
0000
0000
0010
0000
0000
1000
0000
0000
0001
0000
0000
0100
0000
0000
0010
0000
0000
0000
0000
0000
,
1000
0000
0000
0000
0100
0000
0000
0000
0010
0100
0010
0100
1000
0000
0000
0000
0001
0000
0000
0020
0000
0000
0100
0000
0000
0100
0000
0000
0130
0000
0000
0000
,
1000
0000
0000
0020
0000
0000
0100
0000
0000
0100
0000
0000
0130
0000
0001
0000
2000
0000
0000
3200
0000
0000
0302
0000
0000
0203
0000
0000
2300
0000
0000
0000
,
3002
0000
0000
0023
0000
0000
2030
0000
0000
3200
0000
0000
0302
0000
0023
0000
2030
0000
0000
0000
0000
0000
0000
0000
0000
0000
0000
0000
3000
0000
0000
0000
,
0001
0010
0000
0001
0010
0000
0100
1000
0000
0100
1000
0000
0001
1000
0001
0000
,
0100
0010
0000
0100
0010
0000
1000
0100
0000
1000
0100
0000
0010
0001
1000
0000
,
0001
0000
0000
0000
1000
0010
0100
0001
0100
0010
1000
0000
0100
0010
0001
0100
,
0000
1010
1001
0201
,
0310
0000
0100
0001
0000
0100
0001
0000
1000
0001
1000
0000
0100
0010
0000
0100
,
0010
0000
0001
0100
0000
0001
0100
0000
0010
1000
0001
0000
1000
0000
0000
0000
,
0001
0010
0100
1000
0100
0010
0001
0000
0100
0010
1000
0100
0010
0000
0000
0000
,
0000
0000
0000
0000
0001
0000
0101
0000
1100
0000
0000
0000
0001
0010
0000
0100
,
0010
0000
1000
0010
0000
0100
0010
0000
0001
1000
0001
0000
0110
0000
0000
0000
,
2010
0000
3002
0000
0203
0000
0320
0000
1030
0000
0000
0000
0000
0000
0001
0100
,
0000
0000
1000
0100
0000
0000
0001
0100
0000
0000
1000
0100
0010
0000
0000
0000
,
0021
0000
0000
0000
1000
0000
0000
0000
0031
0000
0000
0000
0010
0000
0001
0010
,
0000
0100
0010
0000
1000
0001
1000
0000
0110
0000
0000
0000
0011
0000
2001
0000
,
0000
0000
0000
0000
3100
0000
0000
0000
1000
0000
0000
0000
0100
0010
0001
1000
,
0001
0010
0100
0000
1000
0100
0010
0100
1000
0000
1000
0000
0000
0000
0000
0000
,
0001
0101
0000
0000
,
0000
0000
0000
0000
0000
0000
0000
0000
0000
0000
0000
0000
0000
0000
0000
0000
0010
0000
0000
0000
0000
0000
0000
0000
1000
0000
0100
0010
0001
0010
0001
0010
,
0100
0000
0010
0000
1000
0000
0010
0000
0001
0000
1000
0000
0001
0000
0100
0000
0010
0000
0000
0000
1000
0010
0001
0000
0010
0000
0000
0000
0010
0000
0100
0000
,
0100
0000
0000
0000
0000
0000
0000
0000
0000
0001
0000
0000
0000
0000
0000
0000
0000
0000
0001
0000
0000
0000
0000
0000
1000
0000
0000
0100
0000
0000
1000
0000
0000
0000
0000
0000
0001
0000
0000
0000
0000
0000
0000
0000
0000
0000
0000
0000
0020
0000
0000
0000
0000
0000
0000
0000
0000
0000
0000
0000
0000
0000
0000
0000
0000
0000
0000
0000
0000
0000
0000
0000
0031
0000
0000
0000
0100
0000
0000
0000
0010
0000
0000
0000
1000
0000
0000
0000
0010
0000
0000
0000
0100
0000
0000
0000
,
0001
0000
0000
1000
0000
0000
0001
0000
0201
0000
0000
0000
0320
0000
0000
0000
1030
0000
0000
0000
0001
0010
1000
0000
0010
0000
0000
0000
0010
0000
0100
0000
,
0100
0000
0000
1000
0000
0000
0100
0000
0010
0001
1000
0001
0100
0010
1000
0001
0000
0000
0000
0000
0000
0000
0000
0000
0000
0000
0000
0000
0000
0000
0000
0000
,
0000
0000
0000
0000
;

//---------------dance-single - ----------------
#NOTES:
     dance-single:
     :
     Challenge:
     18:
     :
0000
0000
0000
0000
,
0000
0000
0000
0000
,
0000
0000
0000
0000
,
0000
0000
0000
0000
,
0000
0000
0000
0000
,
0010
1000
0010
0000
0200
0000
0302
1003
0001
0000
0010
0100
2000
0000
3001
0000
,
0010
0001
0100
0000
0020
0000
2030
3100
1000
0000
0001
0010
0200
0000
0300
0000
,
2200
0000
0000
0000
0300
0000
3001
0000
0000
0100
0000
0000
0010
0000
1000
0000
0001
0000
0010
0000
0100
0000
1000
0000
,
0020
0000
0000
1030
0000
0000
0002
0000
0000
0000
0000
0000
0203
0000
0000
0301
0000
0000
2000
0000
0000
0000
0000
0000
3010
0000
0000
1000
0000
0000
0001
0000
0100
0000
0001
0000
0200
0000
0000
0000
0000
0000
0310
0000
0000
0000
0000
0000
,
0110
0000
0010
1000
0100
0000
1000
0001
0020
0000
0031
0200
0000
0310
2000
0000
,
3100
0000
1100
0000
0101
0000
1100
0000
0002
0203
0310
0000
1000
0001
1000
0100
,
0020
0000
0031
1000
0000
0100
0010
0000
0002
0000
0103
0010
1000
0001
0100
0000
,
0010
0000
1000
0001
0010
0100
1000
0010
1000
0100
0020
0000
0031
1000
0100
0000
,
0220
0000
0000
0300
0031
0000
0100
0000
0010
0000
1000
0001
1000
0000
0010
0100
,
0001
0000
0011
0000
0110
0000
1100
0000
0020
1030
0001
0000
0010
0100
1000
0001
,
0100
0000
0010
1000
0000
0100
0010
0000
0001
0100
0001
1000
0010
1000
0100
0000
,
1001
0000
2000
0000
3002
0000
2003
0000
3010
0100
0001
0010
0200
0000
1300
0000
,
2010
0000
3001
0000
0100
0010
1000
0001
0000
0010
0001
0100
0020
0000
1030
0001
,
0100
1000
0100
0001
0010
0100
1000
0010
0200
0301
1000
0000
0020
0130
0001
0010
,
1000
0000
0010
0100
0010
0001
1000
0100
0000
1000
0001
0000
0022
0000
0030
0000
,
1003
0001
0010
0001
0100
0001
0100
0010
1000
0100
1000
0010
0001
0010
0100
1000
,
0001
1000
0000
0101
0000
0010
0100
0000
0001
0000
0010
0100
1000
0010
0001
0000
,
0100
0001
0010
0000
0200
2300
3010
1000
0001
0010
0100
0000
1001
0000
0010
0001
,
1000
0010
0000
0200
0301
0010
1000
0010
0002
0000
0103
0000
0010
1000
0100
1000
,
0100
1000
0010
1000
0010
1000
0001
1000
0100
0000
0000
0000
2100
0000
3002
0000
,
0013
0100
0000
0010
0001
0000
1000
0010
0000
0100
0002
0000
0013
0001
0200
0000
,
0310
1000
0001
0010
0100
1000
0001
0010
0000
0100
0010
0000
0011
0000
1000
0010
,
0001
0100
0001
1000
0010
0100
0010
1000
0000
0100
0010
0000
0001
0100
0020
0000
,
1030
0001
0010
0100
1000
0010
2000
0000
3100
0010
0001
1000
0101
0000
1000
0001
,
0010
0000
0100
1000
0000
1000
0002
0000
0013
0001
0200
0000
1300
0100
0001
1000
,
0010
0100
0001
0010
0000
0001
1000
0000
0110
0000
1000
0010
1000
0001
0010
0100
,
1000
0001
0010
0001
0000
0100
0020
0000
1030
0100
0002
0000
0013
0001
0100
0010
,
1000
0100
1000
0001
0010
0100
1000
0100
0020
0000
0000
2000
0000
0030
0002
0000
,
0000
0000
0000
3000
0103
0010
0100
0010
0200
0000
0000
0002
0000
0300
2000
0000
,
0000
0000
0000
0003
3010
0100
0001
0000
0020
0000
0000
0200
0000
0030
2000
0000
,
0000
0000
0000
0300
0002
3000
2000
0003
0002
0000
3000
0200
0000
0003
0020
0000
,
0000
0000
0000
0300
1030
0100
0001
0000
0022
0000
0033
0220
0000
0330
2200
0000
,
0000
0000
0000
3300
0010
0001
1000
0000
0202
0000
0303
2002
0000
3003
2020
0000
,
0000
0000
0000
3030
0200
0000
0310
0001
2000
0000
3020
0200
0030
0302
0020
0000
,
0000
0000
0000
0003
0031
0100
0010
1000
0200
0000
2300
0002
3000
0203
0020
0000
,
0000
0000
0000
0000
0000
0000
0000
0000
0000
0000
0000
0000
0000
0000
0000
0000
0000
0000
0000
0000
0000
0000
0000
0000
0000
0000
0000
0000
0000
0000
0000
0000
0000
0000
0000
0000
0300
0000
0000
0000
0000
0000
0000
0000
0000
0000
0000
0000
2030
0000
0000
0000
0000
0000
0000
0000
0000
0000
0000
0000
0000
0000
0000
0000
0000
0000
0000
0000
0000
0000
0000
0000
3001
0000
0000
0000
0000
0000
0000
0000
0000
0000
0000
0000
0000
0000
0000
0000
0000
0000
0000
0000
0000
0000
0000
0000
0011
0000
0000
0000
0000
0000
0000
0000
0000
0000
0000
0000
0100
0000
0000
0000
0000
0000
0000
0000
0000
0000
0000
0000
1000
0000
0000
0000
0000
0000
0000
0000
0010
0000
0000
0000
0000
0000
0000
0000
0001
0000
0000
0000
0000
0000
0000
0000
0100
0000
0000
0000
0000
0000
0010
0000
0000
0000
0000
0000
1000
0000
0000
0000
0000
0000
0000
0000
0000
0000
0000
0000
0100
0000
0000
0000
0000
0000
0010
0000
0000
0000
0000
0000
0001
0000
0000
0000
0000
0000
1000
0000
0000
0000
0000
0000
,
0002
0000
0000
0000
0000
0000
0000
0000
0000
0000
0000
0000
0000
0000
0000
0000
0000
0000
0000
0000
0000
0000
0000
0000
0013
0000
0000
0000
0000
0000
0000
0000
0001
0000
0000
0000
0000
0000
0000
0000
0100
0000
0000
0000
0000
0000
0000
0000
1000
0000
0000
0000
0000
0000
0010
0000
0000
0000
0000
0000
0100
0000
0000
0000
0000
0000
0010
0000
0000
0000
0000
0000
2000
0000
0000
0000
0000
0000
0000
0000
0000
0000
0000
0000
0001
0000
0000
0000
0000
0000
3000
0000
0000
0000
0000
0000
0202
0000
0000
0000
0000
0000
0000
0000
0000
0000
0000
0000
0000
0000
0000
0000
0000
0000
0300
0000
0000
0000
0000
0000
0013
0000
0000
0000
0000
0000
0000
0000
0000
0000
0000
0000
0100
0000
0000
0000
0000
0000
0001
0000
0000
0000
0000
0000
1000
0000
0000
0000
0000
0000
0000
0000
0000
0000
0000
0000
0010
0000
0000
0000
0000
0000
0000
0000
0000
0000
0000
0000
0100
0000
0000
0000
0000
0000
0001
0000
0000
0000
0000
0000
0010
0000
0000
0000
0100
0000
0000
0000
0010
0000
0000
0000
,
0100
1000
0001
0100
0010
0000
1000
0001
0010
0000
0100
0001
1000
0000
0010
0000
2002
0000
3000
0020
0000
0003
2000
0000
0030
3200
0000
0000
0002
0000
0000
0300
,
0020
0000
0000
0000
0000
0000
0000
0000
0000
0000
0000
0000
0003
0000
0000
0000
0000
0000
0002
0000
0000
0000
0000
0000
0000
0000
0000
0000
0000
0000
0030
0000
0000
0000
0000
0000
0200
0000
0000
0000
0000
0000
0000
0000
0000
0000
0000
0000
0003
0000
0000
0000
0000
0000
2000
0000
0000
0000
0000
0000
0000
0000
0000
0000
0000
0000
0300
0000
0000
0000
0000
0000
0020
0000
0000
0000
0000
0000
3000
0000
0000
0000
0000
0000
0200
0000
0000
0000
0000
0000
0030
0000
0000
0000
0000
0000
0301
0000
0000
0000
0000
0000
0010
0000
0000
0000
0000
0000
0000
0000
0000
0000
0000
0000
0010
0000
0000
0000
0000
0000
1000
0000
0000
0000
0000
0000
0000
0000
0000
0000
0000
0000
0110
0000
0000
0000
0000
0000
0000
0000
0000
0000
0000
0000
0000
0000
0000
0000
0000
0000
1001
0000
0000
0000
0000
0000
0000
0000
0000
0000
0000
0000
0000
0000
0000
0000
0000
0000
1000
0000
0000
0000
0010
0000
0000
0000
1000
0000
0000
0000
0010
0000
0000
0000
0000
0000
0000
0000
0000
0000
0000
0000
,
0100
0001
0100
0010
0000
0010
1000
0000
1000
0100
0000
0100
0010
0000
0001
0000
1100
0000
0000
0101
0000
0000
1100
0000
0001
0100
0000
0000
0001
1000
0001
1000
,
0001
0000
0010
0001
0000
0100
0010
1000
0100
0001
0000
0010
0100
0000
1000
0010
,
1000
0000
0100
0010
0000
1000
0001
0000
0010
0001
0100
0010
1000
0000
0001
0000
,
0020
0000
0000
0000
0000
0000
0032
0000
0000
0000
0000
0000
0103
0000
0000
0000
0010
0000
0000
0000
1000
0000
0000
0000
0001
0000
0000
0000
0000
0000
0010
0000
0000
0100
0000
0000
0000
0000
0000
1000
0000
0000
0010
0000
0000
0000
0000
0000
,
0100
0000
0001
0010
0002
0000
1003
0010
0200
0000
0310
1000
0100
0010
0001
1000
,
0011
0000
1000
0010
0000
0100
0001
0010
1000
0001
0100
0000
0010
1000
0010
0100
,
0000
0001
0010
0000
0100
1000
0001
0010
0100
0000
1000
0001
2000
0000
3020
0000
,
0130
0001
0010
1000
0001
0000
0010
0001
0100
0010
1000
0000
1001
0000
1010
0000
,
0001
0010
0001
1000
0010
0100
0010
1000
0100
0000
0010
0001
0100
0010
0100
0001
,
0000
1000
0001
0000
0010
0100
1000
0001
0010
0000
0100
0001
2000
3010
0100
0010
,
2000
0000
3002
0000
0023
0000
0130
0010
0001
0100
0001
1000
0010
0000
0100
0001
,
0010
0100
1000
0001
0000
0010
0001
0100
0010
0000
1000
0001
0100
0000
0010
1000
,
0020
0000
0130
0001
2000
0000
3100
0010
0001
0100
0001
1000
0010
1000
0010
0100
,
0000
0001
1000
0001
0010
0000
0100
0000
2100
0000
3010
0000
1001
0000
0220
0000
,
0000
0300
0130
0000
0021
0000
0031
1000
0001
0000
0010
0001
1000
0010
1000
0100
,
0001
0000
0010
0001
0000
1000
0010
0000
0201
0000
0301
0000
1020
0000
0031
0000
,
0010
1000
0100
0010
0001
0100
0001
0000
0011
0000
0000
1100
0000
0000
0101
0000
,
1000
0000
0000
0000
0000
0000
0000
0000
0000
0000
0000
0000
0001
0000
0000
0000
0000
0000
0000
0000
0000
0000
0000
0000
0000
0000
0000
0000
0000
0000
0000
0000
0000
0000
0000
0000
0000
0000
0000
0000
0000
0000
0000
0000
0000
0000
0000
0000
0110
0000
0000
0000
0000
0000
0000
0000
0000
0000
0000
0000
0000
0000
0000
0000
0000
0000
0000
0000
0000
0000
0000
0000
0001
0000
0000
0000
0000
0000
0000
0000
0000
0000
0000
0000
0100
0000
0000
0000
0000
0000
0000
0000
0000
0000
0000
0000
1000
0000
0000
0000
0000
0000
0000
0000
0000
0000
0000
0000
0000
0000
0000
0000
0000
0000
2020
0000
0000
0000
0000
0000
0000
0000
0000
0000
0000
0000
0030
0000
0000
0000
0000
0000
3001
0000
0000
0000
0000
0000
0100
0000
0000
0000
0000
0000
0020
0000
0000
0000
0000
0000
0000
0000
0000
0000
0000
0000
1030
0000
0000
0000
0000
0000
0100
0000
0000
0000
0000
0000
0020
0000
0000
0000
0000
0000
0000
0000
0000
0000
0000
0000
0031
0000
0000
0000
1000
0000
0000
0000
0001
0000
0000
0000
,
1000
0000
0010
0100
0000
0100
0001
0000
0010
0000
0100
0000
1100
0000
1001
0000
0020
0000
0130
0001
0010
0001
0010
0001
0200
0000
0310
1000
0100
0010
0001
0000
,
0100
0000
0000
0000
0000
0000
0000
0000
0000
0000
0000
0000
0001
0000
0000
0000
0000
0000
1000
0000
0000
0000
0000
0000
0000
0000
0000
0000
0000
0000
1000
0000
0000
0000
0000
0000
0100
0000
0000
0000
0000
0000
0000
0000
0000
0000
0000
0000
0010
0000
0000
0000
0000
0000
0001
0000
0000
0000
0000
0000
1000
0000
0000
0000
0000
0000
0001
0000
0000
0000
0000
0000
0100
0000
0000
0000
0000
0000
0000
0000
0000
0000
0000
0000
0010
0000
0000
0000
0000
0000
1000
0000
0000
0000
0000
0000
0001
0000
0000
0000
0000
0000
0000
0000
0000
0000
0000
0000
0100
0000
0000
0000
0000
0000
0000
0000
0000
0000
0000
0000
0101
0000
0000
0000
0000
0000
0000
0000
0000
0000
0000
0000
0010
0000
0000
0000
0000
0000
1000
0000
0000
0000
0000
0000
0100
0000
0000
0000
0000
0000
0000
0000
0010
0000
0000
0000
0000
0000
0000
0000
0001
0000
0000
0000
0000
0000
0000
0000
1000
0000
0000
0000
0000
0000
0000
0000
0001
0000
0000
0000
0000
0000
0000
0000
0100
0000
0000
0000
0000
0000
0000
0000
,
0010
1000
0100
0010
0001
1000
0010
1000
0100
0010
0001
0000
0210
0000
0310
0000
2020
0000
0030
3001
1000
0001
0100
0000
0012
0000
2003
0000
3020
0000
0230
0000
,
0302
0000
0013
0100
0000
0100
1000
0000
0010
1000
0001
1000
0100
0000
0010
0001
2000
0000
0000
0000
0020
0000
0000
0000
0000
0000
0000
0000
0000
0000
0000
0000
,
0000
0000
0000
0000
0000
3030
0000
0000
;

//---------------dance-double - ----------------
#NOTES:
     dance-double:
     :
     Easy:
     9:
     :
00000000
00000000
00000000
00000000
,
00000000
00000000
00000000
00000000
,
00000000
00000000
00000000
00000000
,
00000000
00000000
00000000
00000000
,
00000000
00000000
00000000
00000000
,
00000010
00000001
00000100
00001000
,
00010000
00100000
10000000
01000000
,
10000000
00100000
00010000
00001000
,
00001010
00000101
00001001
00000000
,
00000010
00000000
00000001
00000100
00000010
00000000
00010000
00000000
,
00001000
00010000
01000000
00000000
10000000
00000000
00010000
00000000
,
00100000
00000000
00010000
00001000
00000100
00000000
00000010
00000000
,
00001000
00010000
00001000
00000000
00100000
00000000
00010000
00000000
,
10000000
11000000
00100000
00010000
,
00001000
00010000
00001000
00000000
00000010
00000001
00000100
00000000
,
00001000
00000000
00010000
00000000
00100000
10000000
00010000
00000000
,
10000000
00000000
00000000
00000000
01000000
00010000
00001000
00000000
,
00000010
00000001
00000010
00000000
00000001
00000000
00000100
00000000
,
00001000
00010000
00100000
00000000
01000000
00100000
10000000
00000000
,
01000000
00010000
00001000
00000000
00000010
00000000
00000001
00000000
,
00000010
00000100
00001000
00000000
00000010
00000100
00000001
00000000
,
00001000
00000000
00010000
01000000
00100000
00000000
10000000
00100000
,
01000000
00000000
00001000
00000000
00010000
00000000
00000010
00010000
,
00001000
00000000
00100000
00001000
00010000
00000000
00001000
00000000
,
00100000
01000000
10000000
01000000
,
00100000
00010000
01000000
00100000
,
00010000
00000000
00001000
00000100
00000010
00000000
00001000
00000000
,
00000100
00000000
00000010
00000000
00000001
00000000
00000100
00000010
,
00001000
00000000
00010000
01000000
00100000
00000000
10000000
00000000
,
00010000
00000000
01000000
00000000
00100000
00010000
00001000
00000000
,
00000100
00000010
00001000
00000000
00000001
00000000
00000010
00000000
,
00000100
00000000
00001000
00000010
00000000
00010000
00000000
00000000
,
00001000
00000000
00000000
00000000
00200000
00000000
00000000
02000000
,
00000000
00000000
00000000
03000000
00002000
00000000
00300000
00020000
,
00000000
00000000
00000000
00030000
00000200
00000000
00003000
00000020
,
00000000
00000000
00000000
00000030
00000002
00000300
00002003
00000200
,
00000000
00000000
00000000
00003300
00000022
00000000
00000030
00002000
,
00000000
00000000
00000000
00003003
00002020
00000000
00003000
00020000
,
00000000
00000000
00000000
00030030
00022000
00000000
00030000
02000000
,
00000000
00000000
00000000
03003000
02200000
00000000
03000000
20000000
,
00000000
00000000
00000000
30300000
00100000
10000000
00010000
00000000
,
10000000
01000000
00010000
00001000
00000010
00000001
00001000
00000000
,
00000001
00000100
00001000
00010000
00002000
00000000
00000000
00000000
,
00000000
00000000
00000000
00000000
,
00000000
00000000
00003000
00000000
,
00001000
00000000
00010000
00000000
00100000
10000000
01000000
00000000
,
00010000
00000000
01000000
00000000
10000000
00010000
10000000
00000000
,
00100000
00000000
01000000
00000000
00001000
00010000
00000010
00001000
,
00000000
00001010
00000101
00001200
,
00000310
00000000
00000100
00010000
00001000
00000000
00100000
00000000
,
00010000
00000000
01000000
00100000
10000000
00000000
01000000
00000000
,
00010000
00000000
00001000
00000010
00001000
00000010
00000100
00000000
,
00000000
00000010
00000010
00000001
,
00000100
00000000
00001000
00010000
00100000
00000000
10200000
00000000
,
01000000
00000000
10000000
00000000
01300000
00000000
00000000
10000000
,
00000000
01000000
00000000
00010000
00000000
00001000
00010000
00000000
,
00001010
00000110
00000101
00000001
,
00001000
00000100
00001000
00000000
00000001
00000000
00000100
00000020
,
00000000
00000030
00000100
00001000
,
00010000
00100000
01000000
00000000
00010000
10000000
00000000
00000000
,
00100000
01100000
00000000
00000000
,
00000000
00000000
10000000
01000000
,
00100000
00010000
00001000
00000100
00000010
00000000
00000001
00000000
,
00000100
00001000
00010000
00100000
01000000
00000000
00100000
00000000
,
00010000
00100000
10000000
00000000
01000000
00000000
00010000
00000000
,
00001000
00000100
00000001
00001000
00000000
00000000
00000000
00000000
,
00000000
00000000
00000000
00000000
;

//---------------dance-double - ----------------
#NOTES:
     dance-double:
     :
     Medium:
     12:
     :
00000000
00000000
00000000
00000000
,
00000000
00000000
00000000
00000000
,
00000000
00000000
00000000
00000000
,
00000000
00000000
00000000
00000000
,
00000000
00000000
00000000
00000000
,
00100000
10000000
01000000
00010000
,
00001000
00000000
00000010
00000000
00000001
00001000
00000100
00000000
,
00000001
00000000
00000000
00000010
00000000
00000000
00001000
00010000
00001000
00010000
00000000
00000000
,
00110000
00000000
11000000
00000000
00100000
10000000
01000000
00000000
,
10010000
00000000
10000000
01000000
00100000
00001000
00010000
00000000
,
00001000
00000100
00000001
00000010
00000001
00001000
00000010
00000000
,
00001000
00000000
00000000
00010000
01000000
00000000
00100000
00000000
10000000
00000000
00000000
01000000
00100000
00000000
00010000
00000000
,
00001000
00000100
00000010
00000100
00000010
00000001
00001000
00000000
,
00000001
00000000
00000000
00000000
00000101
00000000
00000010
00000000
00001000
00000000
00000000
00010000
01000000
00000000
00100000
00000000
,
10000000
00100000
00010000
00100000
10000000
01000000
00100000
00000000
,
00001000
00000000
00000000
00000010
00000100
00000000
00000010
00000000
00000001
00000000
00000000
00000100
00000010
00000000
00001000
00000000
,
00000001
00000000
00000000
00000000
00000100
00001000
00010000
00000000
,
00100000
00000000
10000000
00000000
00100000
01000000
00000000
00100000
00000000
00000000
10000000
00000000
01000000
00000000
00000000
00000000
,
00010000
00000000
00001000
00000000
00000010
00000001
00000000
00000010
00000000
00000000
00000100
00000000
00000010
00000000
00000001
00000000
,
00001000
00000000
00000100
00000000
00010000
00001000
00000000
00010000
00000000
00000000
00100000
00000000
20000000
00000000
00000000
00000000
,
31000000
00010000
01000000
00100000
10000000
00100000
00010000
00001000
,
00000100
00001000
00000010
00000100
00000001
00000000
00000010
00001000
,
00010000
00000000
00000000
00001000
01000000
00000000
10000000
00000000
01000000
00000000
00010000
00000000
00000000
00000000
10000000
00000000
,
10000000
00000000
00000000
01000000
00000000
00000000
00010000
00000000
00002000
00000000
00000000
00000000
00013000
00000000
00000010
00000000
,
00000100
00000010
00000100
00000001
00001000
00000000
00000100
00000000
,
00000010
00000000
00000001
00000000
00000100
00000000
00000000
00000010
00001000
00000000
00000100
00000000
00000000
00000000
00010000
00000000
,
00001000
01000000
00010000
10000000
00100000
00000000
01000000
00000000
,
00100000
00000000
10000000
00000000
01000000
00000000
00000000
00010000
00001000
00000000
00010000
00000000
00000100
00000000
00000100
00000000
,
00001000
00000001
00000010
00000001
00001000
00000000
00000100
00000000
,
00001000
00000000
00000000
00010000
00100000
00000000
01000000
00000000
00100000
00000000
00010000
00000000
01000000
00000000
00100000
00000000
,
10000000
01000000
00100000
00000000
10000000
01000000
00010000
00000000
,
00001000
00000000
00000000
00000010
00000001
00000000
00001000
00000000
00000000
00000000
00000001
00000000
00000000
00000100
00000000
00000000
,
00001000
00000000
00000000
00010000
00000000
00000000
00100000
00000000
20000000
00000000
00000000
00020000
30000000
00000000
02000000
00000000
,
00000000
00000000
00000000
00000000
00000000
00000000
00030000
00000000
00200000
03000000
00000000
20000000
00300000
00000000
02000000
00000000
,
00000000
00000000
00000000
00000000
00000000
00000000
30000000
00000000
00200000
03000000
00000000
00002000
00300000
00000000
00000020
00000000
,
00000000
00000000
00000000
00003000
00000002
00000030
00002003
00000200
,
00000000
00000000
00000000
00000000
00000000
00000000
00003300
00000000
00000022
00000030
00000000
00000200
00000003
00000000
00002000
00000000
,
00000000
00000000
00000000
00000000
00000000
00000000
00003300
00000000
00022000
00003000
00000000
02000000
00030000
00000000
20000000
00000000
,
00000000
00000000
00000000
00000000
00000000
00000000
33000000
00000000
20200000
30000000
00000000
00020000
00300000
00000000
00002000
00000000
,
00000000
00000000
00000000
00000000
00000000
00000000
00033000
00000000
00002020
00003000
00000000
00000002
00000030
00000000
00002000
00000000
,
00000000
00000000
00000000
00003003
00000010
00000001
00001000
00000000
,
00000001
00000000
00001000
00000000
00010000
00000000
01000000
00000000
00100000
00000000
10000000
01000000
00100000
00000000
00010000
00001000
,
00000100
00000000
00000000
00000000
00000010
00000000
00000000
00000000
00000001
00000000
00000100
00000000
00000010
00000000
00000000
00000000
00001000
00000000
00000000
00000010
00000000
00000000
00000100
00000000
00000000
00000010
00000000
00000000
00001000
00000000
00000000
00000000
,
00010000
00000000
00000000
00100000
00000000
00000000
01000000
00000000
00000000
00100000
00000000
00000000
00010000
00000000
00000000
00000000
00001000
00000000
00000000
00000100
00000000
00000000
00000001
00000000
00000000
00000100
00000000
00000000
00001000
00000000
00000000
00000000
,
00010000
00000000
00000000
01000000
00000000
00000000
10000000
00000000
00000000
01000000
00000000
00000000
00010000
00000000
00000000
00000000
20000000
00000000
00000000
00000000
00000000
00000000
00000000
00000000
00000000
00000000
00000000
00000000
30000000
00000000
00000000
00000000
,
00100000
00000000
00000000
00100000
00000000
00000000
10000000
00000000
00000000
01000000
00000000
00000000
00010000
00000000
00000000
00000000
,
00001000
00000000
00000000
00001000
00000000
00000000
00000100
00000000
00000000
00000001
00000000
00000000
00000010
00000000
00000000
00000000
,
00000001
00000000
00001000
00000100
00010000
00001000
00000100
00001000
,
00010000
00110000
11000000
02010000
,
03100000
00000000
00010000
00000000
00000000
00001000
00000000
00000000
00000010
00000000
00000001
00000000
00000010
00000000
00000000
00000010
,
00000000
00000000
00000100
00000000
00000000
00000100
00000000
00000000
00010000
00000000
00001000
00000000
00100000
00000000
00000000
00000000
,
01000000
10000000
00010000
01000000
00100000
10000000
00010000
00000000
,
00000000
00000000
00000000
00000000
00100000
00000000
00010000
00000000
10000000
00000000
00000000
00000000
00100000
00000000
00000000
10000000
,
00000000
00000000
01000000
00000000
00000000
00010000
00000000
00000000
00001000
00000000
00000010
00000000
00000001
00000000
00000000
00000000
,
00000100
00000000
00000010
00000000
00001000
00000000
00000010
00000000
00000100
00000000
00000000
00000000
00000000
00000000
00000010
00001000
,
00000000
00000000
00010000
00001000
00000000
00000000
00000010
00001000
00000000
00000000
00010000
00001000
00000000
00000000
00000000
00000000
,
00101000
00000000
00110000
00000000
01100000
00000000
10000000
00010000
,
00000000
01000000
00000000
00000000
00100000
00000000
10000000
00000000
00010000
00000000
00000000
00000000
10000000
00000000
02000000
00000000
,
00000000
00000000
03100000
00000000
00010000
00000000
01000000
00010000
,
00001000
00000010
00000100
00000010
00001000
00000001
00000000
00000000
,
00000010
00000110
00000000
00000000
,
00000000
00000000
00000000
00000000
00000000
00000000
00000000
00000000
00000001
00000000
00000000
00000000
00000100
00001000
00010000
00001000
,
00000010
00001000
00010000
01000000
00100000
00010000
10000000
00000000
00100000
00010000
00001000
00000000
00100000
00010000
00001000
00000000
,
00000100
00000000
00000000
00000000
00000000
00000000
00000000
00000000
00000000
00000000
00000000
00000000
00000000
00000000
00000000
00000000
00000000
00000000
00000100
00000000
00000000
00000000
00000000
00000000
00000000
00000000
00000000
00000000
00000000
00000000
00000000
00000000
00000000
00000000
00000000
00000000
00000100
00000000
00000000
00000000
00000000
00000000
00000000
00000000
00000000
00000000
00000000
00000000
00000010
00000000
00000000
00000000
00000000
00000000
00000000
00000000
00000000
00000000
00000000
00000000
00000001
00000000
00000000
00000000
00000000
00000000
00000000
00000000
00000000
00000000
00000000
00000000
00000100
00000000
00000000
00000000
00000000
00000000
00000000
00000000
00000000
00000000
00000000
00000000
00000000
00000000
00000000
00000000
00000000
00000000
00000000
00000000
00000000
00000000
00000000
00000000
00000002
00000000
00000000
00000000
00000000
00000000
00000000
00000000
00000000
00000000
00000000
00000000
00000000
00000000
00000000
00000000
00000000
00000000
00000000
00000000
00000000
00000000
00000000
00000000
00000000
00000000
00000000
00000000
00000000
00000000
00000000
00000000
00000000
00000000
00000000
00000000
00000000
00000000
00000000
00000000
00000000
00000000
00000000
00000000
00000000
00000000
00000000
00000003
00000100
00000000
00000000
00000000
00000000
00000000
00000000
00000000
00000000
00000000
00000000
00000000
00000010
00000000
00000000
00000000
00000000
00000000
00000000
00000000
00000000
00000000
00000000
00000000
00001000
00000000
00000000
00000000
00000000
00000000
00000000
00000000
00000000
00000000
00000000
00000000
00010000
00000000
00000000
00000000
00000000
00000000
00000000
00000000
00000000
00000000
00000000
00000000
,
01000000
00000000
00000000
00100000
00000000
00000000
10000000
00000000
00020000
00000000
00000000
00000000
20030000
00000000
00000000
00000000
31000000
00000000
10000000
00000000
00100000
00000000
00000000
00000000
01000000
00000000
00010000
00000000
00100000
00000000
00000000
00000000
,
00010000
00000000
00000000
00001000
00000000
00000000
00000100
00000000
00000010
00000000
00000001
00000000
00001000
00000000
00000001
00000000
00000000
00000000
00000000
00000000
00000000
00000000
00000000
00000000
00000000
00000000
00000000
00000000
00000000
00000000
00000000
00000000
,
00000000
00000000
00000000
00000000
;

//---------------dance-double - ----------------
#NOTES:
     dance-double:
     :
     Hard:
     15:
     :
00000000
00000000
00000000
00000000
,
00000000
00000000
00000000
00000000
,
00000000
00000000
00000000
00000000
,
00000000
00000000
00000000
00000000
,
00000000
00000000
00000000
00000000
,
00001000
00000010
00000001
00000100
,
00001000
00000000
00010000
00000000
01000000
10000000
00010000
00000000
,
10000000
00000000
00000000
00000000
00000000
00000000
00100000
00000000
00000000
01000000
00000000
00000000
00001000
00000000
00010000
00000000
00000010
00000000
00001000
00000000
00000000
00000000
00000000
00000000
,
00000011
00000000
00000000
00000000
00001100
00000000
00000000
00001000
00000010
00000100
00000010
00000100
00000001
00000000
00000000
00000000
,
00001001
00000000
00000000
00000000
00000001
00000000
00000100
00000000
00000010
00000000
00010000
00001000
00000000
00000000
00010000
00000000
,
00001000
00100000
00010000
00000000
00100000
00000000
01000000
00000000
10000000
00000000
01000000
00000000
00100000
01000000
00100000
00000000
,
00010000
00000000
00000000
00001000
00000100
00000000
00000010
00000000
00000001
00000000
00000000
00000100
00000010
00000000
00001000
00000000
,
00010000
00000000
01000000
00000000
00100000
01000000
00100000
00000000
10000000
00000000
00100000
00000000
10000000
00000000
00010000
00000000
,
10000000
00000000
00000000
00000000
11000000
00000000
00010000
00000000
00001000
00000000
00010000
00000010
00001000
00000000
00000010
00000000
,
00001000
00000001
00001000
00000000
00000100
00000000
00000010
00000000
00000001
00000000
00000100
00000000
00001000
00010000
00001000
00000000
,
00010000
00000000
00000000
00100000
01000000
00000000
00100000
00000000
10000000
00000000
00000000
01000000
00100000
00000000
00010000
00000000
,
10000000
00000000
00000000
00000000
00000000
00000000
00000000
00000000
00010000
01000000
00001000
00000000
00010000
00000000
00000000
00000000
,
00000010
00000000
00001000
00000000
00000001
00000010
00000001
00000010
00000000
00000100
00000010
00000000
00000100
00000000
00010000
00000000
,
00001000
00010000
00001000
00000000
00100000
00010000
10000000
00010000
00000000
00000000
01000000
00000000
00100000
00000000
10000000
00000000
,
00010000
00000000
01000000
00000000
00001000
00010000
00001000
00010000
00000000
00000100
00001000
00000000
00000002
00000000
00000000
00000000
,
00000103
00000010
00001000
00000000
00000100
00000000
00000010
00000000
00000001
00000000
00000100
00000000
00001000
00000000
00010000
00000000
,
00100000
10000000
00000000
00010000
00000000
00100000
01000000
00000000
10000000
00000000
01000000
00000000
00100000
00010000
00100000
00000000
,
00001000
00010000
00000000
00000100
00000010
00000000
00000001
00000000
00000100
00000000
00001000
00000000
00000000
00000000
00000100
00000000
,
00000001
00001000
00000000
00000100
00000000
00000010
00001000
00000000
00020000
00000000
00000000
00000000
00031000
00100000
00001000
00100000
,
00010000
00100000
00010000
00100000
01000000
10000000
01000000
10000000
00010000
00000000
00000000
00000000
01000000
00000000
00000000
00000000
,
00100000
00000000
10000000
00000000
01000000
00000000
00100000
01000000
00100000
00010000
00100000
00000000
00000000
00000000
00001000
00000000
,
00010000
00000000
00000100
00000000
00001000
00000000
00000001
00000010
00000000
00000100
00001000
00000000
00000000
00000000
00000010
00000000
,
00000100
00000010
00000000
00010000
00001000
00100000
00001000
00010000
00000000
00000000
00001000
00000000
01000000
00100000
01000000
00000000
,
00010000
00000000
10000000
00000000
00100000
00000000
10000000
00000000
00010000
00000000
10000000
00000000
01000000
00100000
00000000
00001000
,
00010000
00000000
00000100
00000010
00000000
00000001
00000010
00000000
00000100
00000010
00000100
00000000
00001000
00000000
00000010
00000000
,
00000001
00000000
00000100
00000010
00001000
00000001
00001000
00000000
00000001
00000000
00000100
00000000
00000010
00001000
00000000
00010000
,
01000000
00000000
00100000
10000000
00000000
00000000
00100000
00000000
10000000
00010000
01000000
00000000
00000000
00100000
00000000
00000000
,
10000000
00000000
01000000
00100000
00000000
00000000
00001000
00000000
00020000
00000000
00000000
00002000
00030000
00000000
00000200
00000000
,
00000000
00000000
00000000
00000000
00000000
00000000
00003000
00000000
00000002
00000300
00000000
00000020
00000003
00000000
00002000
00000000
,
00000000
00000000
00000000
00000000
00000000
00000000
00000030
00000000
00000020
00003000
00000000
00020000
00000030
00000000
00200000
00000000
,
00000000
00000000
00000000
00030000
00020000
00300000
02030000
00200000
,
00000000
00000000
00000000
00000000
00000000
00000000
03300000
00000000
20200000
00300000
00000000
02000000
30000000
00000000
00020000
00000000
,
00000000
00000000
00000000
00000000
00000000
00000000
03030000
00000000
00022000
00030000
00000000
00000200
00003000
00000000
00000002
00000000
,
00000000
00000000
00000000
00000000
00000000
00000000
00000303
00000000
00000022
00000003
00000000
00002000
00000030
00000000
00020000
00000000
,
00000000
00000000
00000000
00000000
00000000
00000000
00033000
00000000
00220000
00030000
00000000
20000000
00300000
00000000
00020000
00000000
,
00000000
00000000
00000000
00000000
00000000
00000000
00000000
00000000
00000000
30030000
00000000
00000000
00100000
00000000
00000000
10000000
01000000
00100000
00010000
00000000
00000000
00001000
00000000
00000000
,
00000100
00000000
00000000
00000000
00000000
00000000
00000010
00000000
00000001
00000000
00001000
00000000
00000001
00000000
00000000
00000000
00000000
00000000
00000100
00000000
00000000
00000000
00000000
00000000
00000010
00000000
00000000
00000000
00000000
00000000
00000100
00000000
00000000
00001000
00000000
00000000
00010000
00000000
00000000
01000000
00000000
00000000
10000000
00000000
00000000
00000000
00000000
00000000
,
00010000
00000000
00000000
00000000
01000000
00000000
00000000
00000000
00100000
10000000
00100000
10000000
00010000
00000000
00000000
00000000
00100000
00000000
00000000
00020000
00000000
00000000
10000000
00000000
00000000
10000000
00000000
00000000
10030000
00000000
00000000
00000000
,
01000000
00000000
00000000
00010000
00000000
00000000
00001000
00000000
00000000
00000010
00000000
00000000
00000001
00000000
00001000
00000000
00000002
00000000
00000000
00000203
00000000
00000000
00002300
00000000
00000000
00023000
00000000
00000000
02030000
00000000
00000000
00000000
,
23000000
00000000
00000000
30020000
00000000
00000000
02030000
00000000
00000000
03200000
00000000
00000000
20300000
00000000
30020000
00000000
20000000
00000000
00000000
00000000
00000000
00000000
00000000
00000000
00000000
00000000
00000000
00000000
30030000
00000000
00000000
00000000
,
10000000
00100000
00000000
01000000
00010000
00000000
00100000
00001000
00000000
00010000
00000100
00000000
00000010
00000100
00000010
00000000
,
00000001
00000100
00000000
00000010
00000100
00000000
00001000
00010000
00000000
00100000
01000000
00000000
00010000
10000000
00010000
00000000
,
00100000
00000000
00000000
00000000
01000000
10000000
01000000
10000000
00100000
01000000
00100000
00000000
01000000
00001000
00010000
00000100
,
00000000
00000011
00001010
00000201
,
00000310
00000000
00010000
00001000
00000000
00010000
00001000
00000000
00100000
00010000
10000000
00000000
00100000
10000000
00000000
00100000
,
01000000
00000000
00100000
10000000
00000000
01000000
00100000
00000000
00010000
00100000
00001000
00000000
00010000
00000000
00000000
00000000
,
00000100
00000010
00000001
00000100
00000010
00001000
00000010
00000000
00000100
00000010
00001000
00000001
00001000
00000000
00000000
00000000
,
00000000
00000000
00000000
00000000
00000010
00000000
00001000
00000000
00000001
00000000
00000000
00000000
00000001
00000010
00000000
00000100
,
00010000
00000000
00001000
01000000
00000000
00100000
10000000
00000000
00010000
01000000
00010000
00000000
10000000
00000000
00000000
00000000
,
00100000
00000000
00010000
00000000
00001000
00000000
00000010
00000000
00001000
00000000
00000000
00000000
00000000
00000000
00100000
00010000
,
00000000
00000000
00000010
00001000
00000000
00000000
00100000
00010000
00000000
00000000
00000010
00001000
00000010
00000000
00000000
00000000
,
00001010
00000000
00000000
00000000
00011000
00000000
00000000
00000000
00110000
00000000
00000000
00000000
01000000
00000000
10000000
01000000
,
00000000
00010000
00001000
00000000
00000010
00000100
00000010
00000000
00000110
00000000
00000000
00000000
00001000
00000000
00000002
00000000
,
00000000
00000000
00000000
00000000
00000103
00000000
00000000
00000000
00000001
00000000
00000000
00000000
00000100
00000010
00001000
00000100
,
00010000
00001000
00010000
00000000
00001000
00100000
00010000
10000000
00100000
00000000
00100000
00000000
00000000
00000000
00000000
00000000
,
01000000
01100000
00000000
00000000
,
00000000
00000000
00000000
00000000
00000000
00000000
00000000
00000000
00000000
00000000
00000000
00000000
00000000
00000000
00000000
00000000
10000000
00000000
00000000
00000000
00000000
00000000
00000000
00000000
01000000
00000000
00010000
00001000
00010000
00001000
00010000
00001000
,
00100000
00000000
00010000
00000000
00001000
00000000
00000100
00000000
00000010
00000000
00000001
00000000
00000100
00000000
00000010
00000000
00001000
00000000
00000000
00000000
00000010
00010000
00001000
00000000
00010000
00000000
00000000
00000000
00001000
00000000
00010000
00000000
,
01000000
00000000
00000000
00000000
00000000
00000000
00000000
00000000
00000000
01000000
00000000
00000000
00000000
00000000
00000000
00000000
00000000
00000000
01000000
00000000
00000000
00000000
00000000
00000000
10000000
00000000
00000000
01000000
00000000
00000000
00100000
00000000
00000000
00000000
00000000
00000000
01000000
00000000
00000000
00000000
00000000
00000000
00000000
00000000
00000000
00000000
00000000
00000000
20000000
00000000
00000000
00000000
00000000
00000000
00000000
00000000
00000000
00000000
00000000
00000000
00000000
00000000
00000000
00000000
00000000
00000000
00000000
00000000
00000000
00000000
00000000
00000000
30010000
00000000
00000000
00000000
01000000
00000000
00000000
00000000
00001000
00000000
00000000
00000000
00010000
00000000
00000000
00000000
00000010
00000000
00000000
00000000
00001000
00000000
00000000
00000000
,
00000100
00000000
00000000
00000010
00000000
00000000
00000001
00000000
00001200
00000000
00000000
00000000
00000320
00000000
00000000
00000000
00000031
00000000
00000000
00000000
00000100
00000010
00001000
00000000
00000100
00000000
00000000
00000000
00000010
00000000
00001000
00000000
,
00010000
00000000
00000000
00100000
00000000
00000000
10000000
00000000
00010000
01000000
00100000
10000000
01000000
00100000
00010000
10000000
00000000
00000000
00000000
00000000
00000000
00000000
00000000
00000000
00000000
00000000
00000000
00000000
00000000
00000000
00000000
00000000
,
00000000
00000000
00000000
00000000
;
