#TITLE:Deep tenDon Reflex;
#SUBTITLE:;
#ARTIST:BEMANI Sound Team "Coyaan";
#TITLETRANSLIT:;
#SUBTITLETRANSLIT:;
#ARTISTTRANSLIT:;
#GENRE:;
#CREDIT:;
#BANNER:Deep tenDon Reflex-bn.png;
#BACKGROUND:Deep tenDon Reflex-bg.png;
#LYRICSPATH:;
#CDTITLE:;
#MUSIC:Deep tenDon Reflex.ogg;
#OFFSET:0.000000;
#SAMPLESTART:88.001999;
#SAMPLELENGTH:20.000000;
#SELECTABLE:YES;
#DISPLAYBPM:180.000000;
#BPMS:0.000000=180.000000
;
#STOPS:
;
#BGCHANGES:;
#KEYSOUNDS:;
#ATTACKS:;

//---------------dance-single - ----------------
#NOTES:
     dance-single:
     :
     Challenge:
     16:
     0.942300,0.960653,0.954475,0.136354,0.677507,774.000000,662.000000,112.000000,16.000000,0.000000,0.000000,0.942300,0.960653,0.954475,0.136354,0.677507,774.000000,662.000000,112.000000,16.000000,0.000000,0.000000:
0000
0000
0000
0000
,
0000
0000
0000
0000
,
0000
0000
0000
0000
,
0000
0000
0000
0000
,
0000
0000
0000
0000
,
0000
0000
0000
0000
,
0002
0000
0000
0000
1003
0010
1000
0010
1000
0000
0001
0000
0000
0000
0200
0000
,
0000
0000
0310
0000
1000
0000
0001
0000
1000
0100
1000
0000
0010
0000
0100
0000
,
0002
0000
0000
0000
0103
0010
0100
0000
0001
0000
1000
0000
0000
0000
0020
0000
,
0000
0000
1030
0000
0010
0000
1000
0001
1000
0000
0010
0100
0010
0000
0100
0000
,
0001
0000
1000
0010
0100
0010
0100
0001
1000
0000
1100
0000
0000
0000
0101
0000
,
1000
0100
0010
0001
0010
0100
1000
0000
1001
0000
0000
0000
0110
0000
0000
0000
,
1001
0000
1000
0001
0010
0100
1000
0000
1010
0000
0101
0000
0000
0000
0011
0000
,
0000
0000
1000
0001
0100
0001
0010
0100
1000
0000
0010
0100
0000
0001
1000
0000
,
0100
0000
1000
0001
0010
0100
1000
0001
0100
0000
0110
0000
0000
0000
1010
0000
,
0001
0010
0100
1000
0100
0010
0001
0000
0101
0000
0000
0000
1100
0000
0000
0000
,
0101
1000
0001
0011
0010
0100
1100
0010
,
1000
0000
0110
0000
0001
0000
0010
0001
0100
0000
0010
1000
0100
0000
0000
0000
,
1001
0010
0101
1100
,
0011
0000
0000
0000
1000
0001
1000
0000
0001
1000
0001
0000
0100
0000
0000
0000
,
0001
0001
1000
1000
0010
0010
0100
0100
,
0001
0010
0001
0010
0100
1000
0100
1000
0001
0000
1000
0010
1000
0000
0001
0000
,
0000
1010
0101
0000
0011
1100
0000
0110
,
1001
0000
0101
1100
0000
0011
1010
0000
,
0100
0101
0011
0000
1100
1010
0000
1001
,
0110
0000
0000
0000
1010
0000
0011
0000
0000
0000
1100
0000
0101
0000
1000
0001
,
1000
1010
0101
0000
0011
1100
0000
0110
,
1001
0000
0000
0000
1100
0000
0011
0000
0000
0000
0100
0000
0001
1000
0001
1000
,
0001
0011
1001
0000
0110
1010
0000
1100
,
0101
0000
1001
0011
0000
0110
1100
0000
,
0001
0000
1000
0010
1000
0000
0100
0000
0001
0000
0010
0100
1000
0000
0001
0000
,
0100
0000
0001
0010
0001
0000
1000
0010
1000
0000
0100
0000
0001
0000
0000
0000
,
0010
0000
0001
1000
0010
0000
1000
0000
0100
0000
0010
0001
0010
0000
0100
0000
,
1000
0010
0100
0010
1000
0000
0001
0010
0001
0000
1000
0000
0100
0000
0010
0001
,
0000
0000
1000
0001
1000
0000
0010
0000
0100
0000
0001
0010
0001
0000
0100
0000
,
1000
0000
0010
0100
0010
0000
1000
0001
0010
0000
0100
0000
1000
0000
0001
0000
,
0100
0000
0001
0000
0010
0000
0000
0000
0100
0000
1000
0001
1000
0000
0010
0100
,
0001
0000
0010
0100
1000
0000
0001
0100
0010
0100
0001
1000
0100
0000
0000
1000
,
0001
0000
0100
0010
1001
0010
0100
0002
,
0000
0000
1003
0000
0100
0000
1000
0010
2000
0000
0000
0000
3000
0000
0001
0100
,
0001
0000
1000
0010
0110
2000
0000
3200
,
0000
0000
0000
0310
0000
0000
0001
0000
0000
0100
0000
0000
0001
0000
0010
0000
0100
0000
1000
0000
0100
0000
0010
0000
,
0002
0000
0000
0000
0103
0010
0100
0010
1000
0000
0001
0000
0000
0000
0020
0000
,
0000
0000
0130
0000
0010
0000
0001
0000
0100
0000
1000
0010
1000
0000
0001
0000
,
0200
0000
0000
0000
0301
0010
0001
0010
0001
0000
1000
0000
0000
0000
0002
0000
,
0000
0000
1003
0100
0010
0000
0001
1000
0010
0000
0000
0101
0000
0000
1100
0000
,
0001
0000
0100
0010
0100
0001
1000
0100
0010
0000
0011
0000
0000
0000
1100
0000
,
0001
0100
0010
1000
0001
1000
0100
0000
1001
0000
0000
0000
0110
0000
0000
0000
,
1001
0000
0010
1000
0001
0010
0100
0000
1100
0000
0011
0000
0000
0000
0101
0000
,
0000
0000
1000
0010
0100
0001
1000
0001
0010
0000
0001
0100
0000
0010
1000
0000
,
0100
0000
0000
0000
1000
0010
1000
0001
0100
0000
1010
0000
0000
0000
0101
0000
,
0001
0010
0100
0010
0001
1000
0010
0000
0110
0000
0000
0000
1001
0000
0000
0000
,
1100
0010
0001
0101
0010
1000
1010
0001
,
0010
0000
0011
0000
0100
0000
0010
0000
1000
0000
0100
0010
0001
0000
0000
0000
,
1001
0100
0011
1010
,
0101
0000
0000
0000
1000
0100
0010
0100
1000
0010
0100
0010
1000
0000
0001
0100
,
0001
0001
1000
1000
0100
0100
0010
0010
,
0001
1000
0001
1000
0010
0100
0010
0100
0001
0000
1000
0010
0100
0001
0010
0100
,
1000
0000
1100
0000
0011
0000
0000
0000
0101
0000
1010
0000
0000
0000
1000
0100
,
0001
0000
0000
0000
1000
0010
0001
0000
0000
0000
0100
0010
1000
0000
0000
0000
,
0001
0000
0011
0000
1100
0000
0000
0000
0010
1000
0100
0000
0000
0000
0010
0001
,
0100
0000
0000
0000
0001
0010
1000
0000
0000
0000
0100
0010
0001
0000
0100
0010
,
1000
0000
1001
0000
0110
0000
0000
0000
0100
0001
1000
0000
0000
0000
0001
0010
,
0100
0000
0000
0000
1000
0010
1000
0000
0000
0000
0001
0010
0100
0010
0100
1000
,
0000
1010
0011
0000
0110
1100
0000
1001
,
0011
0000
0101
1100
0000
1010
0101
0000
,
1000
0000
0010
0000
0001
0000
0100
0000
1000
0000
0010
0100
0010
0000
1000
0000
,
0001
0000
0010
0001
0100
0000
0010
1000
0100
0010
0001
0000
1000
0000
0001
0000
,
0100
0000
0010
0000
1000
0000
0100
0000
0001
0000
0010
0001
0010
0000
0100
0000
,
1000
0010
0100
0001
1000
0000
0001
0010
0001
0000
0100
0010
1000
0000
0001
0000
,
1000
0000
0100
0000
0001
0000
1000
0000
0001
0000
0100
0010
0100
0000
0001
0000
,
1000
0000
0010
1000
0100
0000
0010
0001
0100
0001
0010
0000
0100
0000
1000
0001
,
1000
0000
0010
0000
0001
0000
0000
0000
0100
0000
0001
0010
0001
0000
1000
0010
,
1000
0100
0010
0100
0010
0001
1000
0001
0100
0010
1000
0001
0010
0000
0001
1000
,
0200
0000
0000
0000
1300
0001
1000
0001
1000
0000
0010
0000
0000
0000
0200
0000
,
0000
0000
0301
0000
0010
0001
0010
0100
1000
0000
0001
1000
0100
0000
0000
0000
,
0110
0000
0000
0000
0001
0000
1000
0010
1000
0000
0001
0000
0000
0000
1010
0000
,
0000
0000
0000
0001
0000
0000
1000
0000
0100
0000
0010
0000
0001
0000
1000
0000
0001
0000
0100
0000
0010
0000
1000
0000
,
0001
0000
0010
0001
0100
0000
0010
1000
0100
0000
0010
0000
0000
0000
0002
0000
,
0000
0000
1003
0001
1000
0010
0100
0001
2000
0000
0000
0000
3100
0000
0000
0000
,
0011
0000
0100
1010
0000
0001
1100
0000
,
0010
0000
1001
0000
0000
0000
0100
0000
1010
0000
0000
0000
0011
0000
1000
0001
,
1000
0000
0010
0000
0001
0000
0100
0000
0001
0000
0010
0000
1000
0001
1000
0000
,
1100
0011
0000
0110
1001
0000
0000
0000
;

//---------------dance-single - ----------------
#NOTES:
     dance-single:
     :
     Hard:
     13:
     0.678115,0.747175,0.818121,0.170442,0.012783,557.000000,461.000000,96.000000,20.000000,0.000000,0.000000,0.678115,0.747175,0.818121,0.170442,0.012783,557.000000,461.000000,96.000000,20.000000,0.000000,0.000000:
0000
0000
0000
0000
,
0000
0000
0000
0000
,
0000
0000
0000
0000
,
0000
0000
0000
0000
,
0000
0000
0000
0000
,
0000
0000
0000
0000
,
0002
0000
1003
0010
1000
0001
0000
0200
,
0000
0301
0100
0010
1000
0001
1000
0100
,
0020
0000
0031
1000
0010
1000
0000
0200
,
0000
0310
0001
0100
0001
0010
0100
1000
,
0001
1000
0010
1000
0001
0011
0000
1100
,
0010
1000
0100
0001
1001
0000
0110
0000
,
1001
0010
1000
0100
0001
0101
0000
1010
,
0000
0000
1000
0000
0100
0000
0010
0000
0011
0000
0000
1100
0000
0000
0101
0000
,
0010
1000
0010
0100
0001
0011
0000
1100
,
0001
0010
0100
1000
1001
0000
0110
0000
,
1001
0000
0000
1010
0000
0000
0101
0000
,
0000
0011
0000
0000
1000
0001
0100
0000
,
0110
1000
1001
1010
,
0101
0000
1000
0010
1000
0100
0001
0000
,
0010
0001
0010
0001
1000
0100
1000
0100
,
1000
0001
0100
0010
1000
0001
0100
0010
,
0000
1000
1010
0000
0100
0101
0000
0001
,
0011
0000
0100
0110
0000
1000
1001
0000
,
0010
1000
1010
0000
0001
0011
0000
0100
,
1100
0000
0010
0110
0000
0001
0100
1000
,
0000
0010
1010
0000
0001
0011
0000
1000
,
1100
0000
0001
0101
0000
1000
0010
0001
,
0000
0100
1001
0000
0001
0011
0000
1000
,
0110
0000
0010
0101
0000
0001
1010
0000
,
0100
0001
1000
0001
0020
0000
0130
1000
,
0001
0100
0001
0100
0001
0010
1000
0001
,
0000
1000
0010
1000
0002
0000
0013
0100
,
1000
0001
1000
0010
0100
0001
1000
0000
,
0000
0001
0010
0000
0001
0100
1000
0001
,
1000
0010
1000
0001
1000
0100
0010
0001
,
0100
0010
1000
0000
0001
1000
0001
0100
,
0001
0010
0001
0100
1000
0010
1001
0000
,
0100
0000
0010
0000
0110
1000
0000
0002
,
0000
0013
0001
1000
0100
0000
0000
1000
,
0001
0000
0100
0001
0100
0010
0000
2000
,
0000
3100
1000
0010
1000
0010
0100
0001
,
0020
0000
0031
1000
0001
0100
0000
0020
,
0000
1030
0010
1000
0100
0010
0001
0100
,
2000
0000
3001
1000
0001
0100
0000
0020
,
0000
0000
0130
0000
0001
0000
0100
0000
0110
0000
0000
1001
0000
0000
0110
0000
,
0001
0010
0001
0100
1000
1010
0000
1100
,
0010
0001
0100
1000
1001
0000
0101
0000
,
0011
1000
0001
1000
0010
0110
0000
0101
,
0000
0000
1000
0000
0001
0000
0010
0000
0011
0000
0000
0110
0000
0000
1100
0000
,
0010
0000
1000
0001
1000
1010
0000
0101
,
0010
0001
0100
1000
1001
0000
0110
0000
,
1001
0000
0000
0011
0000
0000
1100
0000
,
0000
1010
0000
0000
1001
1000
0100
0000
,
0110
0001
0101
1100
,
0011
0000
1000
0010
1000
0100
0001
0000
,
0010
0100
0010
0100
1000
0001
1000
0001
,
0100
0010
1000
0001
0100
0010
1000
0001
,
0000
1000
1100
0000
0010
0011
0000
0100
,
0101
0000
0010
0110
0000
1000
1001
0000
,
0001
0010
0011
0000
0100
1100
0000
0010
,
1001
0000
0100
1010
0000
0001
1000
0100
,
0000
0010
0110
0000
0010
0011
0000
1000
,
1001
0000
0001
0101
0000
0010
1000
0001
,
0000
0100
1010
0000
0001
0011
0000
1000
,
0101
0000
0010
1100
0000
0001
0110
0000
,
1000
0010
0001
0000
1000
0100
0010
0001
,
0100
0010
0100
0001
0010
0100
1000
0001
,
0000
1000
0010
0000
1000
0000
0100
0001
,
0010
0001
0100
0000
0010
1000
0001
0100
,
0000
0001
0010
0000
0001
1000
0000
0100
,
0010
0001
0100
0001
0010
0100
1000
0001
,
0100
0010
1000
0000
1000
0100
0010
0001
,
0100
0010
0100
0010
0100
0010
0100
0010
,
2000
0000
3001
0010
0001
1000
0000
0200
,
0000
0310
0001
0100
0002
0000
2003
0000
,
3020
0000
0030
1000
0100
0001
0000
0020
,
0000
0031
0100
0000
0101
0000
1100
0000
,
0002
0000
0003
0010
0001
0100
0000
2000
,
0000
3010
1000
0001
1000
0000
0100
0000
,
0011
0000
0000
0110
0000
0000
1100
0000
,
0000
1010
0000
0000
1001
0000
0101
0000
,
1000
0010
1000
0001
1000
0100
0010
0001
,
0000
0110
0000
0100
1001
0000
0000
0000
;

//---------------dance-single - ----------------
#NOTES:
     dance-single:
     :
     Medium:
     10:
     0.504021,0.569276,0.426105,0.340884,0.012783,414.000000,364.000000,50.000000,40.000000,0.000000,0.000000,0.504021,0.569276,0.426105,0.340884,0.012783,414.000000,364.000000,50.000000,40.000000,0.000000,0.000000:
0000
0000
0000
0000
,
0000
0000
0000
0000
,
0000
0000
0000
0000
,
0000
0000
0000
0000
,
0000
0000
0000
0000
,
0000
0000
0000
0000
,
0002
0000
2003
0000
3010
0100
0000
0002
,
0000
0023
0000
0032
0000
1003
0010
0100
,
0002
0000
0003
0000
1000
0100
0000
0020
,
0000
0031
1000
0001
2000
0000
3000
0000
,
1100
0000
0001
0100
0010
1000
0000
0101
,
0000
1000
0100
0010
0001
0000
1001
0000
,
0110
0000
0010
1000
0001
0100
0000
1010
,
0000
0000
0100
0000
0010
0000
0001
0000
1000
0000
0000
0001
0000
0000
0100
0000
,
0010
0000
1000
0010
0100
0001
0000
0011
,
0000
0100
0010
1000
0001
0000
0101
0000
,
1100
0000
0000
0011
0000
0000
0101
0000
,
0000
1010
0000
0000
0110
0000
1001
0000
,
0220
0300
1000
0031
,
0010
0000
0010
0000
1000
0001
0100
0000
,
0001
0010
0001
0000
1000
0010
1000
0000
,
0001
0100
0010
1000
0001
0000
0000
0000
,
0000
1000
0100
0000
0100
0010
0000
0010
,
0001
0000
0001
1000
0000
1000
0010
0000
,
0000
0000
1010
0000
0000
0101
0000
0000
,
0011
0000
0000
1100
0000
0001
1000
0001
,
0000
0000
1100
0000
0000
0011
0000
0000
,
1001
0000
0000
0110
0000
0010
1000
0001
,
0000
0010
0001
0000
0001
0100
0000
0100
,
0010
0000
0010
1000
0000
1000
0100
0000
,
1000
0100
0010
0000
0001
0000
0000
0100
,
0010
1000
0001
0000
0010
0100
1000
0000
,
0000
0001
0100
0000
0010
0000
0000
1000
,
0001
1000
0100
0000
0010
0001
0100
0000
,
0000
0001
1000
0000
0100
0000
0000
0010
,
0001
1000
0001
0000
0010
0100
1000
0000
,
0001
0100
0010
0000
1000
0001
0000
0020
,
0000
0031
0100
0010
1000
0000
1001
0000
,
0020
0000
1000
0000
0130
0000
0000
0001
,
0000
0000
1000
0010
0001
0000
0000
0000
,
1000
0000
0001
0000
0110
0000
0000
0001
,
0000
0010
0100
0000
1100
0000
0101
0000
,
0002
0000
2003
0000
3010
0100
0000
0002
,
0000
0023
0000
0032
0000
1003
0100
0010
,
0002
0000
0003
0000
0100
0010
0000
2000
,
0000
0000
3020
0000
0000
0000
0130
0000
0001
0000
0000
1000
0000
0000
0001
0000
,
0010
0000
0001
1000
0010
0100
0000
1010
,
0000
0100
0010
1000
0001
0000
0011
0000
,
0101
0000
0010
1000
0001
0100
0000
0110
,
0000
0000
0010
0000
1000
0000
0010
0000
0100
0000
0000
0001
0000
0000
1000
0000
,
0200
0000
0320
0000
0031
1000
0000
0101
,
0000
0010
1000
0001
0100
0000
0110
0000
,
1001
0000
0000
0011
0000
0000
1100
0000
,
0000
0101
0000
0000
0010
1000
0001
0000
,
2200
0300
0010
3001
,
0102
0000
2003
0000
3001
0100
0010
0000
,
1000
0100
1000
0000
0001
0100
0001
0000
,
0010
0001
1000
0001
0100
0000
0000
0000
,
0000
0001
1000
0000
0001
0010
0000
0001
,
0100
0000
0010
1000
0000
0010
0100
0000
,
0000
0000
1010
0000
0000
0101
0000
0000
,
0011
0000
0000
1100
0000
1000
0010
0100
,
0000
0000
1001
0000
0000
1010
0000
0000
,
0011
0000
0000
1100
0000
0001
1000
0010
,
0000
0100
0001
0000
0100
0010
0000
1000
,
0001
0000
0010
0001
0000
0010
0100
0000
,
1000
0010
0100
0000
0001
0000
0000
1000
,
0010
0100
0001
0000
0010
0001
1000
0000
,
0000
0100
0010
0000
0001
0000
0000
1000
,
0010
1000
0100
0000
1000
0010
0001
0000
,
0000
1000
0001
0000
0010
0000
0000
0100
,
0010
0001
1000
0000
0001
1000
0100
0000
,
1000
0010
1000
0000
0001
0100
0001
0000
,
0010
0010
0010
0010
,
0002
0000
0003
0000
1000
0010
0000
0200
,
0000
0300
0020
0000
2030
0000
3002
0000
,
2003
0000
3000
0010
1000
0100
0000
0002
,
0000
0103
0010
0000
1010
0000
0011
0000
,
2000
0000
3000
0010
1000
0100
0000
0020
,
0000
0031
0200
0000
0320
0000
2030
0000
,
3001
0000
0010
0001
0000
1000
0010
0000
,
1000
0100
0000
0010
0001
0000
1000
0000
,
0002
0000
0203
0000
0310
1000
0001
1000
,
0000
0110
0000
0000
1001
0000
0000
0000
;

//---------------dance-single - ----------------
#NOTES:
     dance-single:
     :
     Easy:
     7:
     0.337232,0.462537,0.340884,0.034088,0.000000,277.000000,237.000000,40.000000,4.000000,0.000000,0.000000,0.337232,0.462537,0.340884,0.034088,0.000000,277.000000,237.000000,40.000000,4.000000,0.000000,0.000000:
0000
0000
0000
0000
,
0000
0000
0000
0000
,
0000
0000
0000
0000
,
0000
0000
0000
0000
,
0000
0000
0000
0000
,
0000
0000
0000
0000
,
0001
0000
1000
0000
,
0010
1000
0001
0010
,
0100
0000
1000
0000
,
0001
0100
1000
0000
,
1001
0000
0000
0000
0000
1010
0000
0101
,
0000
0000
1000
0001
,
0110
0000
0000
0000
0000
0101
0000
1010
,
0000
0000
1000
0100
,
0110
0000
0000
0000
0000
0011
0000
1100
,
0000
0000
0001
1000
,
0010
0000
0000
1000
0000
0000
0100
0000
,
0000
0001
0000
0000
1000
0000
0001
0000
,
0200
0300
0010
1000
,
0102
1000
1003
0000
,
0010
0010
0100
0100
,
0001
1000
0100
0000
,
0000
0000
1000
0000
0000
0001
0000
0000
,
0010
0000
0000
0001
0000
0000
0100
0000
,
0000
0000
0010
0000
0000
1000
0000
0000
,
0100
0000
0000
0010
0000
0000
0001
0000
,
0000
0000
1000
0000
0000
0001
0000
0000
,
0010
0000
0000
0001
0000
0000
0100
0010
,
0000
0000
1010
0000
0000
0101
0000
0000
,
0011
0000
0000
1100
0000
0000
1001
0000
,
1000
0010
0001
0000
,
0100
0001
0010
1000
,
0000
0000
0001
0000
1000
0000
0000
0010
,
1000
0100
0010
0001
,
0000
0100
0010
0000
,
1000
0001
1000
0100
,
0010
0000
0001
0000
0100
0000
0000
0001
,
1000
0010
1000
1001
,
0010
1000
0100
0000
,
1000
0010
0001
0000
,
1000
0001
1000
0000
,
0100
0010
0001
1000
,
0001
0000
0100
0000
,
0001
0010
1000
0100
,
0010
0000
0001
0000
,
0100
0010
1000
1000
,
1001
0000
0000
0000
0000
1100
0000
0011
,
0000
0000
0100
0010
,
0110
0000
0000
0000
0000
1010
0000
0101
,
0000
0000
0010
0001
,
1001
0000
0000
0000
0000
1100
0000
0011
,
0000
0000
1000
0100
,
0010
0000
0000
0001
0000
0000
0100
0000
,
0000
1000
0000
0000
0010
0000
0100
0000
,
0002
0003
0010
1000
,
1020
0100
0130
0000
,
0001
0010
0001
0100
,
1000
1000
1000
0000
,
0000
0000
0001
0000
0000
0010
0000
0000
,
0001
0000
0000
0100
0000
0000
1000
0000
,
0000
0000
0010
0000
0000
0100
0000
0000
,
0010
0000
0000
1000
0000
0000
0001
0000
,
0000
0000
1000
0000
0000
0100
0000
0000
,
0010
0000
0000
0100
0000
0000
1000
0001
,
0000
0000
0011
0000
0000
0110
0000
0000
,
1100
0000
0000
1001
0000
0000
1010
0000
,
0001
0100
0001
0010
,
1000
0100
1000
0001
,
0010
0001
0010
0100
,
1000
0010
1000
0001
,
0100
0001
0100
0010
,
1000
0001
0010
0001
,
0100
0010
1000
0100
,
0001
0001
1000
0001
,
0100
0001
0010
0000
,
0001
0100
1000
1000
,
1000
0000
0000
0000
0010
0000
0000
0110
,
0000
0001
1000
0100
,
1000
0000
0010
0000
,
0001
0100
0010
1000
,
1010
0000
0000
0101
0000
0000
1100
0000
,
0000
0011
0000
0000
1001
0000
0110
0000
,
1000
0010
1000
0001
,
0000
0110
0000
0000
1001
0000
0000
0000
;

//---------------dance-single - ----------------
#NOTES:
     dance-single:
     :
     Beginner:
     4:
     0.172877,0.249058,0.085221,0.034088,0.000000,142.000000,132.000000,10.000000,4.000000,0.000000,0.000000,0.172877,0.249058,0.085221,0.034088,0.000000,142.000000,132.000000,10.000000,4.000000,0.000000,0.000000:
// measure 0
0000
0000
0000
0000
,  // measure 1
0000
0000
0000
0000
,  // measure 2
0000
0000
0000
0000
,  // measure 3
0000
0000
0000
0000
,  // measure 4
0000
0000
0000
0000
,  // measure 5
0000
0000
0000
0000
,  // measure 6
0001
0000
0000
0000
,  // measure 7
1000
0000
0000
0000
,  // measure 8
0010
0000
0000
0000
,  // measure 9
0100
0000
0000
0000
,  // measure 10
1001
0000
0000
0000
,  // measure 11
0110
0000
0001
0001
,  // measure 12
0001
0000
0000
0000
,  // measure 13
0010
0000
0100
0000
,  // measure 14
0110
0000
0000
0000
,  // measure 15
1001
0000
1000
1000
,  // measure 16
1000
0000
0001
0000
,  // measure 17
1000
0000
0010
0000
,  // measure 18
0100
0000
0100
0000
,  // measure 19
0002
0000
0003
0000
,  // measure 20
2000
0000
0000
0000
,  // measure 21
0000
0000
3000
0000
,  // measure 22
0000
0001
0000
0001
,  // measure 23
0000
0001
0000
0001
,  // measure 24
0000
1000
0000
1000
,  // measure 25
0000
1000
0000
1000
,  // measure 26
0000
0010
0000
0010
,  // measure 27
0000
0010
0000
0010
,  // measure 28
0000
0100
0000
0100
,  // measure 29
0000
0100
0000
0100
,  // measure 30
0000
0000
1000
0000
,  // measure 31
0001
0001
0001
0000
,  // measure 32
0000
0000
0010
0000
,  // measure 33
0100
0100
0100
0000
,  // measure 34
0000
0000
1000
0000
,  // measure 35
0010
0010
0010
0000
,  // measure 36
0100
0000
0001
0000
,  // measure 37
1000
1000
1000
0000
,  // measure 38
0010
0000
0000
0000
,  // measure 39
1000
0000
0000
0000
,  // measure 40
0100
0000
0000
0000
,  // measure 41
0001
0000
0000
0000
,  // measure 42
1000
0000
0000
0000
,  // measure 43
0001
0000
0000
0000
,  // measure 44
0100
0000
0000
0000
,  // measure 45
0010
0000
0000
0000
,  // measure 46
1001
0000
0000
0000
,  // measure 47
0110
0000
0100
0100
,  // measure 48
0100
0000
0000
0000
,  // measure 49
0001
0000
1000
0000
,  // measure 50
0110
0000
0000
0000
,  // measure 51
1001
0000
0010
0010
,  // measure 52
0010
0000
0100
0000
,  // measure 53
0001
0000
1000
0000
,  // measure 54
0001
0000
0001
0000
,  // measure 55
0200
0000
0300
0000
,  // measure 56
0020
0000
0000
0000
,  // measure 57
0000
0000
0030
0000
,  // measure 58
0000
1000
0000
1000
,  // measure 59
0000
1000
0000
1000
,  // measure 60
0000
0010
0000
0010
,  // measure 61
0000
0010
0000
0010
,  // measure 62
0000
0001
0000
0001
,  // measure 63
0000
0001
0000
0001
,  // measure 64
0000
0100
0000
0100
,  // measure 65
0000
0100
0000
0100
,  // measure 66
0000
0000
0010
0000
,  // measure 67
1000
0001
1000
0000
,  // measure 68
0000
0000
0100
0000
,  // measure 69
0010
0001
0010
0000
,  // measure 70
0000
0000
0001
0000
,  // measure 71
1000
0010
1000
0000
,  // measure 72
0001
0000
0100
0000
,  // measure 73
0010
0010
0010
0000
,  // measure 74
1000
0000
0000
0000
,  // measure 75
0001
0000
1000
0000
,  // measure 76
0100
0000
0010
0000
,  // measure 77
0010
0000
0000
0000
,  // measure 78
0001
0000
0000
0000
,  // measure 79
1000
0000
0000
0000
,  // measure 80
0010
0000
0100
0000
,  // measure 81
0010
0000
1000
0001
,  // measure 82
0100
0000
0000
0000
,  // measure 83
0110
0000
1001
0000
;
