#VERSION:0.83;
#TITLE:Death of a Bachelor;
#SUBTITLE:;
#ARTIST:Panic! At the Disco;
#TITLETRANSLIT:;
#SUBTITLETRANSLIT:;
#ARTISTTRANSLIT:;
#GENRE:;
#ORIGIN:;
#TAGS:;
#CREDIT:;
#BANNER:Death of a Bachelor-bn.png;
#BACKGROUND:Death of a Bachelor-bg.png;
#PREVIEWVID:;
#JACKET:Death of a Bachelor-jacket.png;
#CDIMAGE:;
#DISCIMAGE:;
#LYRICSPATH:;
#CDTITLE:;
#MUSIC:Death of a Bachelor.ogg;
#OFFSET:0.950000;
#SAMPLESTART:47.683998;
#SAMPLELENGTH:20.000000;
#SELECTABLE:YES;
#DISPLAYBPM:134.000000:160.000000;
#BPMS:0.000000=139.000000,
4.000000=140.000000,
16.000000=139.000000,
20.000000=137.000000,
22.000000=142.000000,
24.000000=140.000000,
36.000000=138.000000,
38.000000=141.000000,
40.000000=143.000000,
46.000000=140.000000,
64.000000=139.000000,
68.000000=136.000000,
70.000000=144.000000,
71.000000=141.000000,
72.000000=139.000000,
82.000000=141.000000,
89.000000=143.000000,
91.000000=142.000000,
92.000000=140.000000,
94.000000=138.000000,
98.000000=160.000000,
99.000000=142.000000,
100.000000=139.000000,
102.000000=138.000000,
105.000000=145.000000,
106.000000=141.000000,
107.000000=138.000000,
108.000000=140.000000,
109.000000=136.000000,
112.000000=135.000000,
113.000000=149.000000,
114.000000=154.000000,
115.000000=137.000000,
116.000000=144.000000,
117.000000=139.000000,
124.000000=137.000000,
126.000000=140.000000,
128.000000=144.000000,
132.000000=134.000000,
135.000000=141.000000,
138.000000=137.000000,
139.000000=142.000000,
142.000000=138.000000,
146.000000=142.000000,
148.000000=135.000000,
150.000000=138.000000,
153.000000=145.000000,
159.000000=140.000000,
168.000000=138.000000,
170.000000=142.000000,
173.000000=137.000000,
180.000000=140.000000,
196.000000=142.000000,
204.000000=139.000000,
216.000000=143.000000,
219.000000=141.000000,
225.000000=138.000000,
236.000000=141.000000,
260.000000=139.000000,
283.000000=142.000000,
296.000000=138.000000;
#STOPS:;
#DELAYS:;
#WARPS:;
#TIMESIGNATURES:0.000000=4=4;
#TICKCOUNTS:0.000000=4;
#COMBOS:0.000000=1;
#SPEEDS:0.000000=1.000000=0.000000=0;
#SCROLLS:0.000000=1.000000;
#FAKES:;
#LABELS:0.000000=Song Start;
#BGCHANGES:;
#KEYSOUNDS:;
#ATTACKS:
;

//---------------dance-single - ----------------
#NOTEDATA:;
#CHARTNAME:;
#CHARTHASH:0:
#STEPSTYPE:dance-single;
#BANNER:;
#DESCRIPTION:;
#CHARTSTYLE:;
#DIFFICULTY:Hard;
#METER:13;
#METERF:0.000000;
#RADARVALUES:0.549605,0.729182,0.273176,0.485647,0.402176,507.000000,471.000000,36.000000,64.000000,0.000000,0.000000,0.000000,0.000000,0.000000,0.549605,0.729182,0.273176,0.485647,0.402176,507.000000,471.000000,36.000000,64.000000,0.000000,0.000000,0.000000,0.000000,0.000000;
#CREDIT:;
#DISPLAYBPM:134.000000:160.000000;
#NOTES:
0000
0000
0000
0000
,
0000
0000
0000
0000
,
0000
0000
0000
0000
,
0000
0000
0000
0000
,
0000
0000
0000
0000
0000
0000
0000
0000
0001
0000
0000
0010
0000
0000
0100
0000
,
2000
0000
3010
0100
0101
0000
1000
0000
,
0010
0000
0100
0000
0110
0000
0000
0000
0001
0000
0000
1000
0000
0000
0010
0000
,
0100
0000
0000
0001
0000
0000
1000
0000
0010
0000
0100
0000
0001
0000
1000
0000
,
0010
0000
0000
0010
0000
0000
0010
0000
1000
0000
0000
0001
0000
0000
0100
0000
,
0020
0000
1030
0100
1100
0000
0001
0000
,
0100
0010
2010
0000
3002
0000
1003
0200
,
0001
0000
0310
0001
1001
0000
0100
0000
,
1000
0000
0000
1000
0000
0000
1000
0000
0100
0000
0000
0010
0000
0000
0001
0000
,
2000
0000
3010
0200
0001
0000
0310
0000
,
2000
0000
0001
0000
3001
0000
0000
0000
0010
0000
0000
0001
0000
0000
0200
0000
,
1000
0000
0310
2000
0001
0000
3100
0000
,
0001
0000
0000
1000
0000
0000
0010
0100
0010
0000
0000
1000
0001
0000
0100
0000
,
0101
0000
0000
0000
0000
0000
0001
0010
0001
0000
0000
0100
0010
0000
1000
0000
,
2010
0000
0000
3001
0000
0000
1000
0100
2000
0000
0000
3020
0000
0000
0230
0000
,
0000
0302
0000
0000
2003
0000
0010
0000
0010
0000
0000
0000
3100
0000
0000
0000
,
0210
0000
0000
0001
0000
0000
1000
0000
1300
0000
0000
0010
0000
0000
0100
0000
,
0002
1000
0000
0100
0103
0000
0010
1000
,
0100
0000
0010
0000
0001
0000
0000
0000
1000
0000
0000
0000
0010
0100
0010
0100
,
0020
1000
0000
0230
0001
0000
0310
0100
,
0001
0000
0010
0000
1000
0000
0100
0000
0010
0000
0000
0000
0001
1000
0001
1000
,
0001
0000
0011
0000
0000
0000
0100
0000
1000
0000
0000
0010
0100
0000
0001
0000
,
0010
0000
0100
0000
1100
0000
0000
0000
0001
0000
1000
0000
0010
0100
0010
0100
,
0010
0000
1000
0000
0001
0100
0001
0000
1000
0100
1000
0000
0010
0100
0010
0000
,
1000
0000
0001
0100
0001
0000
1001
0000
0220
0000
0000
0000
0330
0000
1000
0010
,
2000
0100
3100
0010
0002
1000
1000
0000
,
0013
0000
0100
0000
0100
0000
0000
0000
1000
0000
0000
0001
1000
0000
0000
0000
,
0010
0100
0100
0001
2000
0010
3010
0100
,
0002
0000
1000
0000
1003
0000
1100
0000
0022
0000
0000
0000
0033
0000
0100
0010
,
0200
0000
0301
1000
0020
0100
0100
0000
,
1030
0000
0001
0000
0001
0000
0000
0000
0010
0000
0000
0100
0010
0000
0000
0000
,
1001
0000
0000
0000
0100
0000
0010
0000
2000
0000
0000
0001
0000
0000
3100
0000
,
1000
0000
0000
0010
0000
0000
1010
0000
0001
0000
0000
0001
0000
0000
0010
0100
,
0020
0000
0031
0100
2000
0010
3010
0100
,
0002
1000
1003
0010
1000
0001
0100
0000
,
0010
1000
0001
1000
0200
0000
0310
0002
,
0100
0000
1000
0000
1003
0000
0000
0000
0010
0000
0000
0100
0000
0000
0001
0000
,
0021
0000
1030
0010
0002
0100
0103
0000
,
0110
0000
0000
0010
1000
0000
0001
0000
0000
0000
1000
0000
0100
0000
0010
0000
,
0001
0000
0000
1000
0010
0000
2000
0000
0100
0000
3100
0000
0010
0000
0002
0000
,
0100
0100
0103
0010
1000
0001
0100
0000
,
0001
0000
0000
1000
0000
1000
0000
0010
0100
0000
0000
0001
0000
0001
0000
0010
,
0100
0000
0000
1000
0000
1000
0000
0001
0100
0000
0000
0010
0000
0010
0000
1000
,
0001
0000
0101
0000
,
0000
0000
0101
1100
,
0010
0000
0000
0100
0000
0100
0000
0001
1000
0000
0000
0100
0000
0100
0000
0010
,
0001
0000
0000
0010
0000
0010
0000
0100
1000
0000
0000
0001
0000
0001
0000
1000
,
0100
0000
1100
0000
,
0000
0000
0000
0000
0002
0000
0000
0000
2003
0000
0000
0000
3001
0100
0001
0100
,
0001
0000
0000
1000
0000
0010
0000
1000
0100
0000
0000
0010
0000
0001
0000
1000
,
0001
0000
0000
0100
0000
0010
0000
1000
0010
0000
0000
1000
0000
0001
0000
1000
,
0100
0000
0110
0000
,
0001
0000
1000
0100
1000
0010
1000
0001
,
1000
0000
0000
0001
0000
0010
0000
0001
0100
0000
0000
0010
0000
1000
0000
0100
,
1000
0000
0000
0001
0000
0010
0000
0001
1000
0000
0000
0100
0000
0010
0000
0100
,
1000
0000
1001
0000
,
0001
0000
0000
0100
0000
0000
0110
0000
2002
0000
0000
0000
3003
0000
0010
1000
,
0020
0100
0130
0002
1000
1000
2003
0000
,
3200
0000
0010
0000
0310
0000
0000
0000
1000
0000
0000
0001
1000
0000
0000
0000
,
0001
0000
0100
0000
0010
0000
1000
0000
0200
0000
0000
0320
0000
0000
0032
0000
,
1000
0000
1000
0000
1003
0000
0011
0000
2200
0000
0000
0000
3300
0000
0001
0100
,
0002
0010
0013
0100
2000
0001
3001
0000
,
1000
0000
0001
0000
0001
0000
0000
0000
0100
0000
0000
0010
0100
0000
0000
0000
,
0001
0000
0000
0000
1010
0000
0010
0000
2000
0000
0000
3200
0000
0000
0320
0000
,
0001
0000
0000
1000
0000
0000
0031
0000
0100
0000
0000
0010
0000
0000
1000
0001
,
2000
0010
3010
0100
0002
1000
1003
0000
,
0101
0001
1000
0100
0001
0100
1000
0000
,
0010
1000
0001
1000
0210
0000
0301
0100
,
0020
0000
1000
0000
1030
0000
0000
0000
0100
0000
0000
0010
0000
0000
0001
0000
,
2100
0000
3001
0100
1000
0100
0001
0000
,
0110
0000
0000
0001
0100
0000
0010
0000
0000
0000
1000
0000
0001
0000
0100
0000
,
0010
0000
0000
1000
0001
0000
1000
0000
0100
0000
0010
0000
0001
0000
0100
0000
,
0101
0000
0000
1100
0000
0000
0102
0000
0000
1003
0001
0000
0100
0000
0010
0000
;

//---------------dance-single - ----------------
#NOTEDATA:;
#CHARTNAME:;
#CHARTHASH:0:
#STEPSTYPE:dance-single;
#BANNER:;
#DESCRIPTION:;
#CHARTSTYLE:;
#DIFFICULTY:Medium;
#METER:10;
#METERF:0.000000;
#RADARVALUES:0.422773,0.466676,0.212470,0.485647,0.163147,390.000000,362.000000,28.000000,64.000000,0.000000,0.000000,0.000000,0.000000,0.000000,0.422773,0.466676,0.212470,0.485647,0.163147,390.000000,362.000000,28.000000,64.000000,0.000000,0.000000,0.000000,0.000000,0.000000;
#CREDIT:;
#DISPLAYBPM:134.000000:160.000000;
#NOTES:
0000
0000
0000
0000
,
0000
0000
0000
0000
,
0000
0000
0000
0000
,
0000
0000
0000
0000
,
0000
0000
0000
0000
0000
0000
0000
0000
0001
0000
0000
0010
0000
0000
0100
0000
,
2000
0000
0000
3020
0100
0000
0001
0000
,
0000
0000
1030
0000
0001
0000
0000
0000
1000
0000
0000
0010
0000
0000
0100
0000
,
0001
0000
0000
1000
0000
0000
0020
0000
0000
0000
0230
0000
0000
0000
0302
0000
,
1000
0000
0000
0000
0013
0000
0000
0000
0001
0000
0000
1000
0000
0000
0010
0000
,
0200
0000
0000
0302
1000
0000
0010
0000
,
0000
0103
0001
0000
0011
0000
1000
0020
,
0200
0000
0330
0001
1000
0000
1100
0000
,
0002
0000
0000
0000
0100
0000
0000
0000
1003
0000
0000
0001
0000
0000
0100
0000
,
0020
0000
0000
2030
0001
0000
0100
0000
,
0000
0000
3100
0000
0010
0000
0000
0000
0001
0000
0000
0100
0000
0000
0020
0000
,
0000
0000
1030
0002
1000
0000
0010
0000
,
0103
0000
0001
0010
0100
0000
1000
0001
,
0010
0000
0000
0001
0100
0000
0010
1000
,
0001
0000
0000
0000
0000
0000
0010
0000
0100
0000
0000
1000
0000
0000
0010
0000
,
0000
0100
0000
0000
0001
0000
1000
0000
0100
0000
0000
0000
1010
0000
0000
0000
,
0202
0000
0000
0000
0300
0000
0000
0000
1003
0000
0000
0001
0000
0000
0100
0000
,
0010
1000
0000
0002
0000
0000
0103
0010
,
0000
0000
0010
0000
1000
0000
0000
0000
0100
0000
0000
0010
0000
0000
0001
0000
,
1000
0001
0000
0200
0000
0000
0310
1000
,
0000
0000
1000
0000
0001
0000
0000
0000
0010
0000
0000
0001
0000
0000
1000
0000
,
0100
0000
1000
0000
0000
0000
0000
0000
0010
0000
0000
1000
0000
0000
0001
0000
,
0100
0000
0010
0000
1000
0000
0000
0000
1000
0000
0000
0001
0000
0000
0200
0000
,
0010
0302
1000
0100
,
1003
0000
0010
0100
0220
0000
0330
0001
,
2000
0000
0000
3010
0200
0000
0001
0000
,
0310
0000
1000
0000
0100
0000
0000
0000
1000
0000
0000
0001
1000
0000
0000
0000
,
0000
0000
0010
0000
1000
0000
0001
0000
0100
0000
0000
0010
0000
0000
2000
0000
,
0000
0001
3001
0000
2002
0000
3003
0100
,
0020
0000
0000
1030
0001
1000
0200
0000
,
0310
0000
0001
0000
1000
0000
0000
0000
0010
0000
0000
0100
0010
0000
0000
0000
,
0000
0000
0000
0000
1100
0000
0001
0000
1000
0000
0000
0010
0000
0000
0200
0000
,
0000
0000
0010
0000
0310
0000
0000
0000
1000
0000
0000
0001
0000
0000
0100
0000
,
0102
1003
2010
3001
,
0021
0000
0001
0000
1030
0010
0100
0000
,
0000
1000
0001
1000
0020
0000
0130
0002
,
0000
0000
1000
0000
1003
0000
0000
0000
0010
0000
0000
0100
0000
0000
0001
0000
,
0020
0000
0000
0130
1000
0001
1000
0000
,
1001
0000
0010
0100
0000
0000
0001
1000
,
0010
0000
1000
0001
0200
0000
0310
1000
,
0001
0000
0000
1000
0000
0000
0110
0000
0000
0000
0010
0000
0200
0000
0000
0000
,
0301
0000
0000
0010
0000
0000
0100
0000
1000
0000
0000
0010
0000
0000
0100
0000
,
0010
0000
0000
1000
0000
0000
0001
0000
1000
0000
0000
0100
0000
0000
0001
0000
,
0020
0130
0110
0000
,
2000
3001
0101
1100
,
1000
0000
0000
0001
0000
0000
0010
0000
0100
0000
0000
1000
0000
0000
0010
0000
,
1000
0000
0000
0001
0000
0000
0100
0000
0001
0000
0000
0010
0000
0000
0100
0000
,
2000
3001
1001
0000
,
0010
0000
1010
0000
0012
0000
1003
0001
,
1000
0000
0000
1000
0000
0000
1000
0000
0010
0000
0000
0010
0000
0000
0010
0000
,
0100
0000
0000
0100
0000
0000
0100
0000
0001
0000
0000
0001
0000
0000
0001
0000
,
0020
0030
0002
0003
,
2000
0000
3010
1000
0001
1000
0010
0100
,
0001
0000
0000
0001
0000
0000
0001
0000
1000
0000
0000
1000
0000
0000
1000
0000
,
0100
0000
0000
0100
0000
0000
0100
0000
0010
0000
0000
0010
0000
0000
0010
0000
,
0002
0003
2000
3000
,
0020
0000
0030
1000
2002
0000
3003
0100
,
0020
0000
0000
0031
0100
0010
2000
0000
,
3001
0000
1000
0000
0100
0000
0000
0000
1000
0000
0000
0001
1000
0000
0000
0000
,
0000
0000
0010
0000
1000
0000
0001
0000
1000
0000
0000
0100
0000
0000
0020
0000
,
0000
0100
0130
0000
0220
0000
0330
0001
,
2000
0000
0000
3100
1000
0001
0100
0000
,
0001
0000
0010
0000
0100
0000
0000
0000
0010
0000
0000
0100
0010
0000
0000
0000
,
0000
0000
0000
0000
0011
0000
0001
0000
1000
0000
0000
0010
0000
0000
0200
0000
,
0000
0000
0010
0000
0310
0000
0000
0000
1000
0000
0000
0001
0000
0000
0100
0000
,
0201
0310
2010
3001
,
1200
0000
0001
0000
1300
0100
0010
0000
,
0000
0001
0100
0001
2000
0000
3010
0200
,
0000
0000
0001
0000
0301
0000
0000
0000
0010
0000
0000
0100
0000
0000
1000
0000
,
0002
0000
0000
1003
0010
1000
0100
0000
,
1010
0000
0001
1000
0000
0000
0100
0010
,
0001
0000
1000
0010
0200
0000
0301
0010
,
0011
0000
0000
1100
0000
0000
0101
0000
0000
0000
1000
0000
0001
0000
0010
0000
;

//---------------dance-single - ----------------
#NOTEDATA:;
#CHARTNAME:;
#CHARTHASH:0:
#STEPSTYPE:dance-single;
#BANNER:;
#DESCRIPTION:;
#CHARTSTYLE:;
#DIFFICULTY:Easy;
#METER:7;
#METERF:0.000000;
#RADARVALUES:0.323042,0.378558,0.273176,0.424941,0.000000,298.000000,262.000000,36.000000,56.000000,0.000000,0.000000,0.000000,0.000000,0.000000,0.323042,0.378558,0.273176,0.424941,0.000000,298.000000,262.000000,36.000000,56.000000,0.000000,0.000000,0.000000,0.000000,0.000000;
#CREDIT:;
#DISPLAYBPM:134.000000:160.000000;
#NOTES:
0000
0000
0000
0000
,
0000
0000
0000
0000
,
0000
0000
0000
0000
,
0000
0000
0000
0000
,
0000
0000
0001
0100
,
2000
0000
0000
3002
0000
0000
0103
0000
,
0000
0010
0100
0000
0001
0000
1000
0000
,
0001
0100
1000
0100
,
0002
0003
0010
0100
,
2000
0000
0000
3020
0000
0000
0130
0000
,
0000
0001
1000
0000
1100
0000
0101
0000
,
2000
3000
1010
0000
,
0001
0001
1000
0100
,
0020
0000
0000
0032
0000
0000
0103
0000
,
0000
0100
0010
0000
1000
0000
0001
0000
,
0100
0000
0010
2000
0000
0000
0000
0000
,
3200
0000
0300
0000
0110
0000
0001
1000
,
0020
0000
0030
0000
1001
0000
0100
0001
,
2000
3000
0010
0100
,
0002
1000
1003
0100
,
0022
0030
1000
0013
,
0001
1000
0000
0000
1010
0000
0010
0100
,
0000
0000
0001
1000
,
0100
0010
0000
0000
0011
0000
0001
1000
,
0000
0000
0010
0100
,
0202
0303
1000
0001
,
2200
0000
3300
0000
0010
0000
0100
0002
,
0100
0100
0000
2000
0000
0000
0003
0000
,
0010
3010
0220
0330
,
1001
0000
0100
0010
1000
0000
0001
0000
,
0020
0100
1000
1000
,
0031
0100
1000
0010
,
0100
0100
2002
3003
,
0110
0001
1000
0100
,
0002
1000
0010
0013
,
0001
1000
0010
0100
,
0001
1000
0010
0100
,
2020
3030
0202
0303
,
2100
0001
0100
3001
,
1000
0000
0010
0000
0100
0000
0001
2000
,
0200
3300
1000
0001
,
0011
0000
0001
0100
0010
0000
1000
0000
,
0100
0000
0010
0001
0000
0000
0101
0000
,
1010
0000
1000
0001
0100
0000
0010
0000
,
2000
3002
1003
1001
,
0001
0100
1000
0100
,
0001
0100
1000
0100
,
0002
0000
0003
0000
,
0000
0000
0100
0100
,
0001
0010
1000
0010
,
0001
0010
1000
0010
,
0002
0000
0003
0000
,
0000
0011
0110
1100
,
1000
0010
0001
0010
,
1000
0010
0001
0010
,
2000
0000
3010
0000
,
0100
0002
2003
3002
,
1003
0100
0001
0100
,
1000
0100
0001
0100
,
2000
0000
3001
0000
,
0100
0000
0220
0330
,
1001
0000
1000
0010
0100
0000
0001
0000
,
0020
0100
1000
1000
,
0031
0100
1000
0010
,
0100
0001
0022
0033
,
1100
0000
1000
0100
0010
0000
0001
0000
,
0200
1000
0010
0310
,
0100
0001
0010
1000
,
0001
0100
0101
1010
,
2200
3300
0202
0303
,
0021
1000
0100
0031
,
1000
0010
1010
0001
,
0100
0010
1000
0001
,
0110
0000
0001
1000
0010
0000
0100
0000
,
0001
0000
0010
0100
0000
0000
1000
0001
,
1000
0010
0100
0001
,
2000
3002
1003
1001
;

//---------------dance-single - ----------------
#NOTEDATA:;
#CHARTNAME:;
#CHARTHASH:0:
#STEPSTYPE:dance-single;
#BANNER:;
#DESCRIPTION:;
#CHARTSTYLE:;
#DIFFICULTY:Beginner;
#METER:3;
#METERF:0.000000;
#RADARVALUES:0.151765,0.201847,0.121412,0.151765,0.000000,140.000000,124.000000,16.000000,20.000000,0.000000,0.000000,0.000000,0.000000,0.000000,0.151765,0.201847,0.121412,0.151765,0.000000,140.000000,124.000000,16.000000,20.000000,0.000000,0.000000,0.000000,0.000000,0.000000;
#CREDIT:;
#DISPLAYBPM:134.000000:160.000000;
#NOTES:
// measure 0
0000
0000
0000
0000
,  // measure 1
0000
0000
0000
0000
,  // measure 2
0000
0000
0000
0000
,  // measure 3
0000
0000
0000
0000
,  // measure 4
0000
0000
0001
0000
,  // measure 5
1000
0000
0100
0000
,  // measure 6
0000
0000
0100
0000
,  // measure 7
1000
0000
0001
0000
,  // measure 8
1000
0000
0010
0000
,  // measure 9
0100
0000
0001
0000
,  // measure 10
0000
0000
1000
0000
,  // measure 11
0020
0000
0030
0000
,  // measure 12
0100
0000
0001
0000
,  // measure 13
0010
0000
0200
0000
,  // measure 14
0300
0000
1000
1000
,  // measure 15
0000
0002
0000
0000
,  // measure 16
0003
0000
0100
0000
,  // measure 17
0110
0000
1000
0000
,  // measure 18
1001
0000
0010
0000
,  // measure 19
1000
2000
3000
0000
,  // measure 20
1001
0000
0110
0000
,  // measure 21
0001
0000
0200
0000
,  // measure 22
0300
0000
0010
0000
,  // measure 23
1000
0000
0002
0000
,  // measure 24
0003
0000
0010
0000
,  // measure 25
0110
0000
0001
0000
,  // measure 26
1001
0000
0100
0100
,  // measure 27
0000
0020
0000
0000
,  // measure 28
0030
0000
0110
0000
,  // measure 29
1000
0000
0002
0000
,  // measure 30
0003
0000
1000
1000
,  // measure 31
0000
0000
0010
0000
,  // measure 32
0100
0000
1001
0000
,  // measure 33
0100
0000
2000
0000
,  // measure 34
3000
0000
0010
0010
,  // measure 35
0000
0000
1000
0000
,  // measure 36
0001
0000
0100
0000
,  // measure 37
0001
0000
0001
0000
,  // measure 38
2002
0000
0000
3003
,  // measure 39
0000
0000
0010
0000
,  // measure 40
1000
0000
0100
0000
,  // measure 41
0010
0000
0010
0000
,  // measure 42
0001
0000
1000
0000
,  // measure 43
0010
0000
0100
0000
,  // measure 44
0110
0000
0000
0000
,  // measure 45
0001
0000
0001
0000
,  // measure 46
1000
0000
1000
0000
,  // measure 47
0020
0000
0030
0000
,  // measure 48
0020
0000
0030
0000
,  // measure 49
1000
0000
1000
0000
,  // measure 50
0001
0000
0001
0000
,  // measure 51
0200
0000
0300
0000
,  // measure 52
0100
0100
0100
0000
,  // measure 53
0010
0000
0010
0000
,  // measure 54
0100
0000
0100
0000
,  // measure 55
0002
0000
0003
0000
,  // measure 56
1000
1000
1000
0000
,  // measure 57
0100
0000
0010
0000
,  // measure 58
0100
0000
0010
0000
,  // measure 59
0002
0000
0003
0000
,  // measure 60
1000
0000
0110
0000
,  // measure 61
0001
0000
0020
0000
,  // measure 62
0030
0000
1000
1000
,  // measure 63
0000
0000
0100
0000
,  // measure 64
1000
0000
1001
0000
,  // measure 65
0010
0000
0200
0000
,  // measure 66
0300
0000
0010
0010
,  // measure 67
0000
0000
1000
0000
,  // measure 68
0001
0000
1000
0000
,  // measure 69
0010
0000
0010
0000
,  // measure 70
0220
0000
0000
0330
,  // measure 71
0000
0000
1001
0000
,  // measure 72
0110
0000
1000
0000
,  // measure 73
0100
0000
0100
0000
,  // measure 74
0010
0000
0010
0000
,  // measure 75
0001
0000
1000
0000
,  // measure 76
1001
0000
0000
0000
;
