#TITLE:Dazzlin' Darlin;
#ARTIST:HHH;
#BANNER:Dazzlin' Darlin.png;
#BACKGROUND:Dazzlin' Darlin-bg.png;
#JACKET:Dazzlin' Darlin-jacket.png;
#MUSIC:Dazzlin' Darlin.ogg;
#SAMPLESTART:88.98;
#SAMPLELENGTH:20;
#DISPLAYBPM:149;
#BPMS:0=148.7,4=149;
#BGCHANGES:0=Dazzlin' Darlin.avi=1=0=0=0,
;

//---------------dance-single - ----------------
#NOTES:
     dance-single:
     :
     Beginner:
     2:
     :
0000
0000
0000
0000
,
0000
0000
0000
0000
,
0000
0000
0000
0000
,
0000
0000
0000
0000
,
0000
0000
0000
0000
,
0000
0000
0000
0000
,
1000
0000
0000
0000
,
0001
0000
0000
0000
,
1000
0000
0000
0000
,
0000
0000
0000
0000
,
0100
0000
0000
0000
,
1000
0000
0000
0000
,
0001
0000
0000
0000
,
1000
0000
0000
0000
,
0100
0000
0000
0000
,
0001
0000
0000
0000
,
1000
0000
0000
0000
,
0001
0000
0000
0000
,
0001
0000
0000
0000
,
0100
0000
0000
0000
,
1000
0000
0000
0000
,
0100
0000
0000
0000
,
0001
0000
0000
0000
,
1000
0000
0000
0000
,
0001
0000
0000
0000
,
0100
0000
0000
0000
,
0000
0000
0000
0000
,
1000
0000
1000
0000
,
0100
0000
0000
0000
,
0001
0000
0000
0000
,
0010
0000
0000
0000
,
1000
0000
0000
0000
,
0001
0000
0000
0000
,
1000
0000
0000
0000
,
0100
0000
0000
0000
,
1000
0000
0000
0000
,
0010
0000
0000
0000
,
0100
0000
0000
0000
,
1000
0000
0000
0000
,
0001
0000
0000
0000
,
0100
0000
0000
0000
,
0100
0000
0000
0000
,
1001
0000
0000
0000
,
1000
0000
0000
0000
,
0001
0000
0000
0000
,
1001
0000
0000
0000
,
1000
0000
1000
0000
,
0100
0000
0000
0000
,
0010
0000
0000
0000
,
0001
0000
0000
0000
,
1000
0000
0000
0000
,
0100
0000
0000
0000
,
0001
0001
0001
0000
,
0001
0000
0000
0000
,
0000
0000
0000
0000
,
0000
0000
0000
0000
,
1000
1000
1000
0000
,
0001
0000
0000
0000
,
1000
0000
0000
0000
,
0001
0000
0000
0000
,
0100
0000
0000
0000
,
1000
0000
0000
0000
,
0001
0000
0000
0000
,
1000
0000
0000
0000
,
0010
0010
0010
0000
,
1000
0000
0000
0000
,
0100
0000
0000
0000
,
0010
0000
0000
0000
,
1000
0000
0000
0000
,
0001
0000
0000
0000
,
1000
0000
0000
0000
,
1001
0000
0000
0000
,
0000
0000
0000
0000
;

//---------------dance-single - ----------------
#NOTES:
     dance-single:
     :
     Easy:
     6:
     :
0000
0000
0000
0000
,
0000
0000
0000
0000
,
0000
0000
0000
0000
,
0000
0000
0000
0000
,
0000
0000
0000
0000
,
0000
0000
0000
0000
,
1000
1010
0000
0000
,
0001
1001
0000
0000
,
2002
0000
0000
0000
,
0000
3003
0000
0000
0000
0000
0000
0000
,
0100
0100
0010
0000
,
1000
0100
0010
0000
,
0102
0000
0000
0003
0100
0000
0001
0000
,
1000
0100
0001
0000
,
0100
1000
0001
0000
,
0001
0100
0001
0000
,
1002
0000
1000
0003
0100
0000
0000
0000
,
1000
0010
0100
0000
,
0001
0100
1000
0001
,
0100
0010
0001
1000
,
1100
0000
0101
0000
,
0100
0100
0010
0000
,
1000
0100
0001
0000
,
0001
0100
1000
0000
,
1000
1000
0001
0001
,
0100
0010
0220
0000
,
0000
0330
0000
0000
0000
0000
0000
0000
,
1000
0000
1000
0000
,
0100
0010
0001
0000
,
2001
0000
0000
3000
0001
0000
0000
0000
,
0010
0100
0010
0000
,
2000
0000
0000
3000
0200
0000
0000
0300
,
0001
1000
0100
1000
,
1100
0000
1001
0000
,
0100
0010
0010
0000
,
1000
0100
1000
0000
,
0010
0001
0010
1000
,
0100
0001
0100
0000
,
1001
0000
0110
0000
,
0101
0100
1000
0100
,
0100
0100
0001
0010
,
0100
0001
1000
0000
,
1001
1001
0001
0000
,
1000
0000
0100
1000
,
0100
0000
0010
0000
,
1001
0000
0110
0000
,
1000
0001
1000
0000
,
0100
0010
0100
0000
,
1020
0000
0000
0030
0000
0000
0000
0000
,
0011
0000
1100
0000
,
1000
0010
0001
0000
,
0100
0010
0100
0000
,
0001
0100
0010
1000
,
0001
0100
0110
0000
,
0000
0000
0000
0000
,
0000
0000
0000
0000
,
1000
1000
1000
0000
,
0001
0100
0010
0000
,
1010
0000
1010
0000
,
0101
0001
0001
0000
,
0100
0010
0001
0000
,
1000
0100
0010
0000
,
1000
0001
1000
1001
,
1000
0010
0001
0000
,
1000
0000
1010
0000
0010
0000
1000
1000
,
1000
0010
0100
0010
,
0100
0000
0001
0000
1000
0000
0010
0010
,
0010
1000
0110
0000
,
1000
0010
0001
1000
,
0001
0100
0010
0000
,
1000
0000
1000
0000
,
1000
0010
1000
0000
,
0000
0000
0000
0000
;

//---------------dance-single - ----------------
#NOTES:
     dance-single:
     :
     Medium:
     9:
     :
0000
0000
0000
0000
,
0000
0000
0000
0000
,
0000
0000
0000
0000
,
0000
0000
0000
0000
,
0000
0000
0000
0000
,
0000
0000
0000
0000
,
1000
0000
0100
0000
0100
1000
0001
0010
,
0000
1001
0110
1001
,
0000
0000
0000
0000
,
1000
0010
0001
0000
1000
0000
0000
0000
,
1000
0000
0000
0010
0100
0000
1000
0000
,
0001
0000
0000
0010
0001
0000
1000
0100
,
0010
0001
1000
1000
,
0010
0000
1000
0000
0001
0000
0001
0100
,
0001
0000
0000
1000
0001
0000
1000
0000
,
0100
0000
0000
0100
0010
0000
1000
0100
,
0001
0000
0000
1000
0001
0000
0000
0010
,
1000
0010
0100
0000
1100
0000
0000
0000
,
0011
0110
1100
1001
,
1000
0000
0000
0001
1000
0000
0001
0100
,
0001
0100
1000
0000
0100
0010
0100
0000
,
1000
0100
0010
0000
0011
0000
0100
0010
,
0100
0000
0000
0001
1000
0000
0100
0000
,
1000
0000
0000
0001
1000
0000
0000
0000
,
1000
1000
0000
0000
0001
0001
0000
0000
,
0100
0000
0100
0000
2002
0000
0000
3003
,
0000
0000
0000
0000
,
1000
0000
0001
0000
1000
0100
1000
0100
,
0000
0000
0000
0000
0001
0100
1000
0000
,
0100
0010
0100
0000
0001
0010
0100
0000
,
0011
1000
0100
0001
,
1100
0000
1100
0000
0010
0001
0010
0001
,
0000
0000
0000
0000
1000
0100
1000
0000
,
0100
0010
0100
0000
1000
0100
0001
0000
,
0100
0001
0100
0000
1000
0000
0100
0000
,
1000
0000
1000
0000
0100
0010
0100
0010
,
0000
0001
1000
0010
,
0100
0000
0010
0000
1000
0001
1000
0001
,
0000
0110
0110
0011
,
1000
0000
0100
0000
0010
0001
0010
0001
,
0000
0000
1000
0000
1000
0100
0001
0000
,
1000
0100
1000
0000
0001
0100
0001
0000
,
1000
0100
0010
0000
0022
0033
0000
0000
,
1000
0000
0000
1000
0010
0000
1000
0000
,
0100
0000
0000
0100
0001
0000
1000
0100
,
0001
0000
0000
0010
0100
0000
0000
0010
,
0100
0110
0011
0010
,
1000
0000
0000
0010
0100
0000
0100
0000
,
0010
0000
0000
0001
0100
0000
0100
0000
,
1100
0000
0011
0000
,
0101
1010
0101
0000
,
0110
0110
0110
0000
,
2001
3001
1002
1003
,
0100
0010
0100
0000
2200
0000
0000
3300
,
0000
0000
0000
0000
,
0000
0000
0000
0000
0000
0000
1000
0100
,
0001
0000
0000
1000
0100
0000
0010
0000
,
0100
0000
0000
0100
0001
0000
0000
0000
,
0010
0000
0000
0010
1000
0000
0000
0100
,
1000
0100
0010
0001
0010
0000
1100
0000
,
1100
0000
0011
0000
1000
0100
1000
0100
,
0000
0001
0100
1001
,
0100
0000
1100
0101
,
0001
0010
1000
0000
0011
0000
0000
0000
,
1000
0000
0001
0000
0100
0010
0100
0010
,
0000
0100
1000
0001
,
0100
0000
0010
0000
1000
0100
1000
0100
,
0000
1000
0100
0010
,
0001
0000
0010
0000
0100
0001
0100
0001
,
0000
1000
0100
0010
,
0001
0001
0000
0000
1000
1000
0000
0000
,
1100
0011
1001
0000
,
0000
0000
0000
0000
;

//---------------dance-single - ----------------
#NOTES:
     dance-single:
     :
     Hard:
     11:
     :
0000
0000
0000
0000
,
0000
0000
0000
0000
,
0000
0000
0000
0000
,
0000
0000
0000
0000
,
0000
0000
0000
0000
,
0000
0000
0000
0000
,
0100
0010
1000
0000
0100
0010
0001
0000
,
0100
0010
0100
0000
1000
0100
0001
0000
,
1000
0010
0100
0000
0010
0100
0001
0000
,
1000
0100
0010
0001
2000
0000
3000
0000
,
0001
0000
0000
0010
0000
0000
0001
0000
0010
0000
0000
0000
0100
0000
0000
0000
,
1000
0000
0000
0100
0000
0000
1000
0000
0100
0000
0000
0000
0001
0000
0100
0000
,
0001
0000
0000
0100
0000
0000
0010
0000
0001
0000
0000
1000
0000
0000
0001
0000
,
0001
0100
0010
1000
0001
0000
1000
0010
,
0001
0000
0000
1000
0000
0000
0001
0000
0010
0000
0000
0000
0100
0000
0000
0000
,
1000
0000
0000
0100
0000
0000
1000
0000
0100
0000
0000
0000
1000
0000
1000
0000
,
0001
0000
0000
0100
0000
0000
0010
0000
1000
0000
0000
0001
0000
0000
0100
0000
,
1000
0100
0010
1000
0001
0000
0001
1000
,
0001
0000
0000
0010
0000
0000
0001
0000
0010
0000
0000
0000
0100
0000
0000
0000
,
1000
0000
0000
0100
0000
0000
1000
0000
0100
0000
0000
0000
0001
0000
0100
0000
,
0001
0000
0000
0100
0000
0000
0010
0000
1000
0000
0000
0001
0000
0000
0100
0000
,
0100
0010
0100
0001
1000
0000
1000
0010
,
0001
0000
0000
0010
0000
0000
1000
0000
0010
0000
0000
0000
0100
0000
0000
0000
,
1000
0000
0000
0100
0000
0000
1000
0000
0100
0000
0000
0000
0001
0000
0000
0000
,
1000
1010
0000
0000
0010
0011
0000
0000
,
1001
0000
0110
0000
2002
0000
0000
3003
,
0000
0000
0000
0000
,
1000
0100
0001
0000
0100
0001
0100
0000
,
1000
0010
0001
0000
0001
0010
1000
0000
,
1000
0100
0001
0000
1000
0010
0100
0000
,
0001
0010
0100
0000
1000
0001
1000
0000
,
1001
1010
0110
0011
,
1100
0011
1010
0110
,
0011
0110
1100
0011
,
0011
0110
0000
0000
,
1000
0100
0010
0100
1000
0100
0001
0100
,
0000
0000
0001
1000
0001
1000
0001
0100
,
0001
0100
0001
1000
0010
0100
0001
1000
,
0000
0001
0001
0010
,
1000
0010
0001
0100
0010
0100
0010
1000
,
0000
0000
1000
0100
0010
0000
0001
0100
,
0010
0000
1000
0100
0001
0000
0100
0010
,
0010
0100
0010
0000
2020
0000
3030
0000
,
1000
0000
0000
0100
0000
0000
1000
0000
0010
0000
0000
0000
1000
0000
0000
0000
,
0100
0000
0000
1000
0000
0000
0100
0000
0001
0000
0000
0000
1000
0000
0000
0000
,
1100
0000
0000
0100
0000
0000
0010
0000
0100
0000
0000
0100
0000
0000
0010
0000
,
0101
0000
1010
0000
0110
0000
1000
0100
,
1000
0000
0000
0100
0000
0000
0010
0000
0100
0000
0000
0000
1000
0000
0000
0000
,
0010
0000
0000
1000
0000
0000
0001
0000
0100
0000
0000
0000
0001
0000
0000
0000
,
0110
0000
1001
0000
,
0110
0000
1100
0000
0011
0000
1000
1000
,
0001
0000
1100
0000
1001
0000
1000
0100
,
1000
0100
1000
0000
0010
0000
0000
0000
0010
0001
0010
0000
0100
0000
0000
0000
,
0010
0100
0010
0000
1000
0000
0000
0000
2002
0000
0000
0000
0000
0000
0000
0000
,
0000
3003
0000
0000
0000
0000
0000
0000
,
0000
0000
0000
0000
0000
0000
1000
0010
,
0001
0000
0000
0010
0000
0000
0100
0000
0001
0000
0000
0000
0100
0000
0000
0000
,
0001
0000
0000
1000
0000
0000
0010
0000
0100
0000
0000
0000
0001
0000
0010
0000
,
0001
0000
0000
0010
0000
0000
0100
0000
1000
0000
0000
0010
0000
0000
0100
0000
,
0010
0001
0010
1000
0001
0000
1000
0100
,
1000
0000
0000
0100
0000
0000
0010
0000
0100
0000
0000
0000
0001
0000
0000
0000
,
1000
0000
0000
0010
0000
0000
0001
0000
0010
0000
0000
0000
0100
0000
0010
0000
,
1000
0000
0000
0100
0000
0000
0010
0000
0001
0000
0000
1000
0000
0000
0100
0000
,
1000
0100
0010
0001
0010
0000
1000
0100
,
2000
0000
0000
0010
0000
0000
0001
0000
3001
0000
0000
0000
0010
0000
0000
0000
,
0002
0000
0000
0100
0000
0000
1000
0000
1003
0000
0000
0000
0010
0000
0100
0000
,
1000
0000
1000
0100
0010
0000
0001
0000
,
0110
0000
1100
0000
0011
0000
1000
0100
,
0010
0000
0000
0001
0000
0000
0010
0000
1000
0000
0000
0000
0010
0000
0000
0000
,
0001
0000
0000
0010
0000
0000
0001
0000
0010
0000
0000
0000
0011
0000
0000
0000
,
0010
0010
0000
0000
0100
0100
0000
0000
,
1100
0000
0110
0000
2002
0000
0000
3003
,
0000
0000
0000
0000
;

//---------------dance-single - ----------------
#NOTES:
     dance-single:
     :
     Challenge:
     13:
     :
0000
0000
0000
0000
,
0000
0000
0000
0000
,
0000
0000
0000
0000
,
0000
0000
0000
0000
,
0000
0000
0000
0000
,
0000
0000
0000
0000
,
0010
1000
0100
1000
0001
0100
0010
0001
,
1000
0010
0001
1000
0100
0010
0100
0001
,
0010
0100
1000
0001
0100
0001
1000
0010
,
1000
0100
0001
0100
1000
0000
0010
0100
,
0001
0000
0000
0010
0000
0000
0001
0000
1000
0000
0000
0000
1100
0000
0000
0000
,
0010
0000
0000
1000
0000
0000
0100
0000
0001
0000
0000
0000
0010
0000
0001
0000
,
0011
0000
0000
0100
0000
0000
1000
0000
0010
0000
0000
0100
0000
0000
0001
0000
,
1000
0100
0001
0100
1000
0000
0010
0100
,
0010
0000
0000
0100
0000
0000
0001
0000
1000
0000
0000
0000
1010
0000
0000
0000
,
0100
0000
0000
0010
0000
0000
0001
0000
1000
0000
0000
0000
0101
0000
0001
0000
,
1000
0000
0000
0010
0000
0000
0100
0000
0001
0000
0000
0010
0000
0000
0100
0000
,
1000
0010
0001
0010
1000
0000
0100
0010
,
0100
0000
1000
0010
0000
0010
0100
0000
0001
0000
0000
0000
0011
0000
0000
0000
,
0100
0000
0010
1000
0000
1000
0001
0000
0010
0000
0000
0000
0101
0000
0100
0000
,
0010
0000
1000
0100
0000
1000
0100
0000
0010
0000
0001
0100
0000
0001
0100
0000
,
0001
0000
0010
0000
1000
0000
0010
0000
0001
0000
0000
0000
1000
0100
1000
0000
,
0010
0000
1000
0001
0000
0001
0100
0000
0010
0000
0000
0000
1010
0000
0000
0000
,
1100
0000
0100
0010
0000
0010
0001
0000
1000
0000
0000
0000
0001
0000
1000
0000
,
0010
0010
1000
0001
0100
0100
0001
1000
,
0001
0100
1000
0100
0001
0000
0000
0000
,
0000
0010
0010
0010
,
1001
0100
0010
0100
1000
0100
0001
0100
,
0010
0100
1000
0100
0010
0100
1000
0100
,
0001
0010
1000
0010
0001
0100
1000
0100
,
0010
0001
0010
1000
0010
0100
0001
0000
,
0110
0000
1001
0000
1000
0010
0100
0001
,
0010
1000
0010
0100
0010
1000
0010
0001
,
0100
1000
0100
0010
0100
1000
0100
0001
,
0010
1000
0010
0001
0010
0100
0010
0000
,
0011
0000
1100
0000
0001
0100
0010
1000
,
0100
0010
0010
0010
,
2001
0000
3002
0000
1003
0010
1000
0100
,
1000
0010
0010
0010
,
1010
0000
0101
0000
0010
0001
0100
1000
,
0100
0000
0001
0010
0001
0000
1000
0100
,
0010
0001
0010
0100
0001
0100
1000
0010
,
0100
1000
0100
0001
0100
0000
0010
1000
,
0001
0000
0000
0010
0000
0000
0001
0000
1000
0000
0000
0000
1000
0000
0000
0000
,
0100
0000
0000
0010
0000
0000
0001
0000
1000
0000
0000
0000
1000
0000
0010
0000
,
1001
0000
0000
0010
0000
0000
1000
0000
0100
0000
0000
0010
0000
0000
0001
0000
,
1000
0010
0001
0010
1000
0000
0100
0010
,
0110
0000
0000
0001
0000
0000
0100
0000
0010
0000
0000
0000
1000
0000
0000
0000
,
1001
0000
0000
0010
0000
0000
1000
0000
0001
0000
0000
0000
1000
0000
0100
0000
,
1100
0000
0000
0010
0000
0000
0001
0000
0101
0000
0000
1000
0000
0000
0100
0000
,
1000
0010
0001
0010
1000
0000
0100
0010
,
0001
0100
1000
0100
0001
0000
0010
0100
,
1000
0010
0001
0010
1000
0100
0001
0100
,
1000
0010
0001
0010
1000
0000
0000
0000
,
0101
2200
0000
0000
,
0300
0000
0010
0000
0010
0000
3010
0100
,
0001
0000
0010
0001
0000
0010
0100
0000
1000
0000
0000
0000
1010
0000
0000
0000
,
0100
0000
1000
0010
0000
0100
0001
0000
0010
0000
0000
0000
0001
0000
1000
0000
,
1001
0000
0100
0000
0001
0000
1000
0000
0010
0000
0100
0010
0000
0010
1000
0000
,
0001
0010
1000
0010
0001
0100
0010
1000
,
0100
0000
1000
0001
0000
0001
0100
0000
0010
0000
0000
0000
0110
0000
0000
0000
,
0100
0000
0001
0010
0000
0001
1000
0000
0100
0000
0000
0000
1000
0000
0010
0000
,
1000
0000
0100
0010
0000
0010
0001
0000
0100
0000
0010
1000
0000
1000
0001
0000
,
1000
0010
0001
0010
1000
0000
0100
0010
,
0001
0100
0010
0100
1000
0100
0001
0010
,
0100
0000
1000
0010
0000
0100
0001
0000
1000
0000
0000
0000
0010
0000
0100
0000
,
1001
0000
0001
0010
1000
0010
0100
1000
,
0001
0100
1000
0100
0001
0000
0010
0100
,
1000
0010
0100
1000
0100
0001
0010
0000
,
0001
0000
1000
0010
0000
1000
0001
0000
0100
0000
0000
0000
1010
0000
1000
0000
,
0100
0000
0000
0010
0000
0000
0001
0000
1000
0000
0000
0001
0000
0000
0100
0000
,
0001
0010
1000
0010
0001
0000
0000
0000
;

//---------------dance-double - ----------------
#NOTES:
     dance-double:
     :
     Easy:
     6:
     :
00000000
00000000
00000000
00000000
,
00000000
00000000
00000000
00000000
,
00000000
00000000
00000000
00000000
,
00000000
00000000
00000000
00000000
,
00000000
00000000
00000000
00000000
,
00000000
00000000
00000000
00000000
,
10000000
01000000
00010000
00001000
,
00000001
00000010
00000001
00001000
,
00010000
00100000
00010000
00100000
,
01000000
00010000
00011000
00000000
,
00001200
00000000
00001000
00000300
00010000
00000000
00001000
00000000
,
00000010
00001000
00001010
00000000
,
00000110
00000010
00000001
00000100
,
00001000
00010000
00110000
10000000
,
01000000
00010000
00001000
00000010
,
00000001
00000100
00001001
00000000
,
00000010
00000100
00000100
00002010
,
00003100
00000100
00011000
00000000
,
00010000
00100000
10000000
00100000
,
01000000
00010000
00001000
00000010
,
00000001
00000100
00000001
00000001
,
00000100
00001000
00001100
00000000
,
00001000
00010000
00110000
11000000
,
00100000
00100000
01000000
01000000
,
10000000
00000000
00010000
00000000
,
00001000
00010000
00022000
00000000
,
00000000
00033000
00000000
00000000
00000000
00000000
00000000
00000000
,
00001000
00000100
00001000
00010000
,
01000000
00010000
00001000
00000010
,
00000001
00000100
00001000
00010000
,
00100000
10000000
01000000
10010000
,
01000000
00010000
10000000
01000000
,
00010000
10000000
00010000
00100000
,
01000000
00010000
00001000
00001000
,
00000100
00001001
00000000
00000000
,
00000100
00000010
00001000
00010000
,
00000000
00100000
01000000
00010000
,
10000000
01000000
10000000
00010000
,
00000000
00100000
00010000
00001000
,
00000010
00000100
00001000
00000010
,
00000000
00010000
00001000
00010000
,
00001000
00010000
00100000
00010000
,
10000000
00100000
00220000
00330000
,
00010000
00000000
00010000
00001000
,
00000100
00000000
00100000
00010000
,
00000100
00000000
00100000
00000000
,
00011000
00000100
00000010
00000100
,
00001000
00000000
00010000
00001000
,
00000100
00000000
01000000
00010000
,
00000100
00000000
00000100
00000000
,
00000100
00001100
00000010
00000100
,
00000010
00000100
00000101
00001000
,
00010000
00100000
10100000
01000000
,
00010000
00001000
00022000
00000000
,
00000000
00033000
00000000
00000000
00000000
00000000
00000000
00000000
,
00000000
00000000
00000000
00000100
,
00001000
00001000
00000010
00000001
,
00000100
00001000
00001000
00010000
,
01000000
00100000
00010000
01000000
,
00100000
10000000
01000000
00010000
,
00001000
00000100
00001000
00000100
,
00001010
00001000
00000001
00001000
,
00001000
00010000
00001000
00010000
,
01000000
10000000
00110000
00000000
,
10000000
00100000
00010000
00001000
,
00000100
00000001
00000100
00001000
,
00010000
00100000
10000000
01000000
,
00100000
00010000
10100000
00010000
,
10000000
00010000
01000000
00100000
,
00010000
00001000
00001000
00000000
,
00110000
01000000
00100000
00100000
,
00100000
00010000
10100000
00000000
,
00000000
00000000
00000000
00000000
;

//---------------dance-double - ----------------
#NOTES:
     dance-double:
     :
     Medium:
     10:
     :
00000000
00000000
00000000
00000000
,
00000000
00000000
00000000
00000000
,
00000000
00000000
00000000
00000000
,
00000000
00000000
00000000
00000000
,
00000000
00000000
00000000
00000000
,
00000000
00000000
00000000
00000000
,
00100000
00000000
00010000
00001000
00001000
00000000
00000100
00000010
,
00000001
00000000
00000010
00000100
00000001
00000000
00001000
00000000
,
00010000
00000000
00100000
01000000
00010000
00000000
00100000
10000000
,
01000000
00000000
00001000
00010000
00011000
00000000
00000000
00000000
,
10100000
00000000
00100000
00000000
01000000
00010000
00001000
00000000
,
00000010
00001000
00001010
00000000
,
00000001
00000000
00000000
00000100
00000001
00000000
00000000
00001000
,
00010000
00001000
00010000
00000000
00110000
00000000
10000000
01000000
,
00010000
00000000
10000000
01000000
00100000
00000000
00110000
00000000
,
00010000
00001000
00001100
00000000
,
00000010
00000100
00000010
00000000
00001100
00000000
00000000
00010000
,
00100000
00010000
01000000
00000000
11000000
00000000
00000000
00000000
,
20000000
30000000
02000000
03000000
00020000
00030000
00000100
00000000
,
00000001
00000000
00000010
00000100
00000001
00000000
00000100
00000010
,
00000100
00000000
00001000
00000001
00001000
00000000
00010000
00000000
,
00100000
01000000
10000000
00000000
02200000
03300000
00000000
00000000
,
11000000
01100000
00110000
11000000
,
00100000
00000000
01000000
00000000
02200000
03300000
00000000
00000000
,
00010000
00010000
00000000
00000000
00001000
00001000
00000000
00000000
,
00001000
00010000
00001000
00000000
00022000
00000000
00000000
00000000
,
00000000
00033000
00000000
00000000
00000000
00000000
00000000
00000000
,
00100000
10000000
00010000
10000000
,
01000000
00000000
00010000
00000000
00001000
00000100
00000001
00000000
,
00000001
00000000
00000100
00000000
00001000
00010000
00010000
00000000
,
00100000
00010000
01000000
10010000
,
01000000
00100000
00010000
00000000
00001000
00000010
00000001
00000000
,
00000010
00000100
00000010
00000000
00000100
00001000
00000100
00000000
,
00001000
00010000
01000000
00000000
10000000
01000000
00100000
00000000
,
00010000
10000000
00100000
00000000
00000000
00000000
00000000
00000000
,
00010000
00000000
01000000
00000000
00100000
00010000
00100000
00010000
,
00000000
00001000
00000100
00000010
,
00000100
00000000
00000010
00000000
00000001
00000100
00000001
00000100
,
00000000
00000010
00000001
00000100
,
00001000
00000000
00000100
00000000
00001000
00000100
00001000
00000100
,
00000000
00010000
00001000
00010000
,
00001000
00010000
00100000
00010000
,
10000000
01000000
00100000
00000000
02200000
00000000
03300000
00000000
,
10000000
00000000
00000000
00010000
00001000
00000000
00000010
00000000
,
00000001
00000000
00000000
00000100
00000010
00000000
00000100
00000010
,
00000100
00000000
00000000
00001000
00000100
00000000
00010000
00000000
,
00011000
00000000
00001000
00000000
00011000
00000000
00010000
00100000
,
01000000
00000000
00000000
00100000
01000000
00000000
00100000
00000000
,
00010000
00000000
00000000
00010000
01000000
00000000
10000000
00000000
,
00110000
00000000
00000000
00010000
00001000
00000000
00000000
00000001
,
00000100
00000100
00001000
00000000
00000110
00000000
00001010
00000000
,
00000110
00000000
00000100
00000000
00001001
00000000
00001000
00010000
,
00001000
00010000
00001000
00000000
00010000
00100000
00010000
00000000
,
00100000
10000000
00100000
00000000
00220000
00000000
00000000
00000000
,
00000000
00330000
00000000
00000000
00000000
00000000
00000000
00000000
,
00000000
00000000
00000000
00000000
00000000
00000000
00000100
00000010
,
00001000
00000000
00000000
00000001
00001000
00000000
00000001
00000000
,
00000100
00000000
00000000
00000100
00001000
00000000
00010000
00010000
,
01000000
00000000
00000000
01000000
10000000
00000000
00000000
01000000
,
00100000
01000000
10000000
00010000
01000000
00000000
00010000
00001000
,
00000100
00000000
00000000
00000100
00001000
00000000
00000100
00000000
,
00000010
00000000
00000000
00001000
00000001
00000000
00001000
00000100
,
00001000
00000000
00000000
00010000
00001000
00000000
00000000
00100000
,
10000000
01000000
00100000
00000000
00011000
00000000
00000000
00000000
,
00011000
00110000
01010000
00011000
,
00001000
00000000
00000000
00000010
00000001
00000000
00000100
00000000
,
00011000
00000010
00001100
00001000
,
00010000
10000000
00010000
00000000
00100000
00000000
00010000
00001000
,
00010000
00000000
00000000
00010000
01000000
00000000
00100000
00000000
,
00010000
00000000
00000000
00000100
00001000
00000000
00000000
00000000
,
00001010
00000000
00001100
00000000
00001000
00010000
00100000
00000000
,
00100000
10000000
00010000
00000000
00001000
00000000
00000000
00000000
,
00000000
00000000
00000000
00000000
;

//---------------dance-double - ----------------
#NOTES:
     dance-double:
     :
     Hard:
     12:
     :
00000000
00000000
00000000
00000000
,
00000000
00000000
00000000
00000000
,
00000000
00000000
00000000
00000000
,
00000000
00000000
00000000
00000000
,
00000000
00000000
00000000
00000000
,
00000000
00000000
00000000
00000000
,
00001000
00000100
00000001
00000000
00000100
00000010
00000001
00000000
,
00000100
00000010
00000100
00000000
00000010
00000100
00001000
00000000
,
00100000
01000000
10000000
00000000
00010000
01000000
00100000
00000000
,
10000000
01000000
00010000
00001000
00011000
00000000
00000000
00000000
,
10000000
00000000
00000000
01000000
00000000
00000000
00100000
00000000
01000000
00000000
00000000
00000000
00010000
00000000
00000000
00000000
,
00001000
00000000
00000000
00000100
00000000
00000000
00000001
00000000
00000100
00000000
00000000
00000000
00000001
00000000
00000010
00000000
,
00000001
00000000
00000000
00000100
00000000
00000000
00000010
00000000
00001000
00000000
00000000
00000100
00000000
00000000
00000010
00000000
,
00001000
00010000
01000000
10000000
01000000
00000000
00100000
00010000
,
00001000
00000000
00000000
00000100
00000000
00000000
00001000
00000000
00000010
00000000
00000000
00000000
00000100
00000000
00000000
00000000
,
00000001
00000000
00000000
00001000
00000000
00000000
00000100
00000000
00000001
00000000
00000000
00000000
00000100
00000000
00000010
00000000
,
00000100
00000000
00000000
00001000
00000000
00000000
00000010
00000000
00000100
00000000
00000000
00001000
00000000
00000000
00100000
00000000
,
01000000
10000000
01000000
10000000
00100000
00000000
01000000
10000000
,
01000000
00000000
00000000
00010000
00000000
00000000
00100000
00000000
01000000
00000000
00000000
00000000
00010000
00000000
00000000
00000000
,
00001000
00000000
00000000
00000100
00000000
00000000
00000010
00000000
00000100
00000000
00000000
00000000
00000001
00000000
00001000
00000000
,
00000100
00000000
00000000
00000010
00000000
00000000
00000001
00000000
00000010
00000000
00000000
00001000
00000000
00000000
00010000
00000000
,
00001000
00010000
00001000
00010000
00100000
00000000
10000000
01000000
,
00010000
00000000
00000000
01000000
00000000
00000000
00100000
00000000
00010000
00000000
00000000
00000000
01000000
00000000
00000000
00000000
,
00100000
00000000
00000000
00010000
00000000
00000000
00001000
00000000
00000100
00000000
00000000
00000000
00001000
00000000
00000000
00000000
,
00001000
00011000
00000000
00000000
00100000
01100000
00000000
00000000
,
10010000
00110000
00022000
00000000
,
00000000
00033000
00000000
00000000
00000000
00000000
00000000
00000000
,
10000000
01000000
00100000
00000000
01000000
00010000
00001000
00000000
,
00000100
00000001
00000010
00000000
00000100
00000010
00000100
00000000
,
00001000
00000010
00000100
00000000
00000010
00000100
00001000
00000000
,
00010000
00001000
00001000
00000000
00010000
00100000
01000000
00000000
,
10000000
01000000
00010000
00000000
00001000
00010000
00100000
00000000
,
01000000
00010000
00100000
00000000
00010000
00001000
00000010
00000000
,
00000001
00000100
00001000
00000000
00000100
00000010
00000100
00000000
,
00000001
00001000
00000001
00000000
00000000
00000000
00000000
00000000
,
00010000
00100000
10000000
00100000
00010000
00100000
01000000
10000000
,
00000000
00000000
00010000
00010000
00001000
00010000
00001000
00000100
,
00001000
00000100
00000010
00000100
00000001
00000010
00000001
00000010
,
00001000
00010000
00010000
00100000
,
01000000
00100000
10000000
01000000
00010000
01000000
00010000
01000000
,
00000000
00000000
10000000
00010000
10000000
00000000
00010000
00100000
,
00010000
00000000
00001000
00000100
00000010
00000000
00000100
00000010
,
00001000
00000010
00000001
00000000
00002020
00000000
00003030
00000000
,
00001000
00000000
00000000
00010000
00000000
00000000
00010000
00000000
00001000
00000000
00000000
00000000
00000100
00000000
00000000
00000000
,
00000010
00000000
00000000
00000001
00000000
00000000
00000100
00000000
00000010
00000000
00000000
00000000
00000001
00000000
00000000
00000000
,
00000110
00000000
00000000
00000100
00000000
00000000
00001000
00000000
00000010
00000000
00000000
00000100
00000000
00000000
00001000
00000000
,
00011000
00000000
00110000
00000000
10010000
00000000
00010000
01000000
,
00010000
00000000
00000000
01000000
00000000
00000000
10000000
00000000
01000000
00000000
00000000
00000000
00100000
00000000
00000000
00000000
,
10000000
00000000
00000000
10000000
00000000
00000000
00010000
00000000
01000000
00000000
00000000
00000000
00010000
00000000
00000000
00000000
,
00001100
00000000
00000101
00000000
,
00000110
00000000
00001100
00000000
00011000
00000000
00001000
00001000
,
00011000
00000000
00110000
00000000
01100000
00000000
00010000
00001000
,
00000100
00000010
00000100
00000000
00000001
00000000
00000000
00000000
00000100
00001000
00000100
00000000
00000010
00000000
00000000
00000000
,
00000001
00000010
00000001
00000000
00000100
00000000
00000000
00000000
00000202
00000000
00000000
00000000
00000000
00000000
00000000
00000000
,
00000000
00000303
00000000
00000000
00000000
00000000
00000000
00000000
,
00000000
00000000
00000000
00000000
,
00000100
00000000
00000000
00000010
00000000
00000000
00000001
00000000
00000100
00000000
00000000
00000000
00001000
00000000
00000000
00000000
,
00010000
00000000
00000000
01000000
00000000
00000000
10000000
00000000
10000000
00000000
00000000
00000000
01000000
00000000
00100000
00000000
,
01000000
00000000
00000000
00100000
00000000
00000000
01000000
00000000
00010000
00000000
00000000
00100000
00000000
00000000
01000000
00000000
,
00010000
10000000
01000000
00100000
00011000
00000000
00001000
00001000
,
00000100
00000000
00000000
00000001
00000000
00000000
00000100
00000000
00000010
00000000
00000000
00000000
00001000
00000000
00000000
00000000
,
00000010
00000000
00000000
00000100
00000000
00000000
00000010
00000000
00000001
00000000
00000000
00000000
00000001
00000000
00000010
00000000
,
00001000
00000000
00000000
00010000
00000000
00000000
00001000
00000000
00010000
00000000
00000000
00100000
00000000
00000000
10000000
00000000
,
01000000
00010000
10000000
00100000
01000000
00000000
00100000
00010000
,
00002000
00000000
00000000
01000000
00000000
00000000
00010000
00000000
00013000
00000000
00000000
00000000
00000100
00000000
00000000
00000000
,
00020000
00000000
00000000
00000010
00000000
00000000
00001000
00000000
00031000
00000000
00000000
00000000
00001000
00000000
00000100
00000000
,
00000010
00000000
00000100
00000001
00001000
00000000
00000001
00000000
,
00000110
00000000
00000011
00000000
00001100
00000000
00001000
00010000
,
00100000
00000000
00000000
01000000
00000000
00000000
00100000
00000000
10000000
00000000
00000000
00000000
01000000
00000000
00000000
00000000
,
00010000
00000000
00000000
10000000
00000000
00000000
00100000
00000000
00010000
00000000
00000000
00000000
00001100
00000000
00000000
00000000
,
00001000
00001000
00000000
00000000
00000100
00000100
00000000
00000000
,
00000110
00000000
00001100
00000000
00022000
00000000
00000000
00033000
,
00000000
00000000
00000000
00000000
;
