#TITLE:Dance Floor;
#SUBTITLE:;
#ARTIST:neuras feat. Yurai;
#TITLETRANSLIT:;
#SUBTITLETRANSLIT:;
#ARTISTTRANSLIT:;
#GENRE:;
#CREDIT:;
#BANNER:Dance Floor.png;
#BACKGROUND:Dance Floor-bg.png;
#LYRICSPATH:;
#CDTITLE:;
#MUSIC:Dance Floor.ogg;
#OFFSET:0.000000;
#SAMPLESTART:37.750000;
#SAMPLELENGTH:20.000000;
#SELECTABLE:YES;
#DISPLAYBPM:120.000000;
#BPMS:0.000000=120.000000
;
#STOPS:
;
#BGCHANGES:;
#KEYSOUNDS:;
#ATTACKS:;

//---------------dance-single - ----------------
#NOTES:
     dance-single:
     :
     Beginner:
     2:
     0.095383,0.136973,0.019638,0.000000,0.000000,68.000000,66.000000,2.000000,0.000000,0.000000,0.000000,0.095383,0.136973,0.019638,0.000000,0.000000,68.000000,66.000000,2.000000,0.000000,0.000000,0.000000:
0000
0000
0000
0000
,
0000
0000
0000
0000
,
0000
0000
0000
0000
,
1000
0000
0000
0000
,
0001
0000
0000
0000
,
1000
0000
1000
0000
,
0001
0000
0001
0000
,
0010
0000
0000
0000
,
0010
0000
0000
0000
,
0001
0000
0001
0000
,
1000
0000
1000
0000
,
0100
0000
0000
0000
,
0100
0000
0000
0000
,
1000
0000
1000
0000
,
0001
0000
0001
0000
,
0100
0000
0000
0000
,
0010
0000
0000
0000
,
1000
0000
0000
0000
,
0001
0000
0000
0000
,
0010
0010
0000
0000
,
1000
0000
1000
0000
,
0010
0010
0000
0000
,
0001
0000
0001
0000
,
0100
0100
0000
0000
,
1000
0000
1000
0000
,
0001
0000
0000
0000
,
1000
0000
0000
0000
,
0100
0000
0000
0000
,
0100
0000
0000
0000
,
1001
0000
0000
0000
,
0100
0000
0100
0000
,
0001
0000
0000
0000
,
1000
0000
1000
0000
,
0100
0000
0000
0000
,
0001
0000
0000
0000
,
0100
0000
1000
0000
,
0010
0010
0010
0000
,
0100
0000
0000
0000
,
1000
0000
0001
0000
,
0100
0000
0000
0000
,
0001
0000
1000
0000
,
0010
0000
0000
0000
,
1000
0000
0001
0000
,
1000
0000
0100
0000
,
0010
0000
0100
0000
,
0010
0000
0000
0000
,
0000
0000
1001
0000
,
0000
0000
0000
0000
;

//---------------dance-single - ----------------
#NOTES:
     dance-single:
     :
     Easy:
     5:
     0.193571,0.228288,0.127645,0.019638,0.000000,138.000000,125.000000,13.000000,2.000000,0.000000,0.000000,0.193571,0.228288,0.127645,0.019638,0.000000,138.000000,125.000000,13.000000,2.000000,0.000000,0.000000:
0000
0000
0000
0000
,
0000
0000
0000
0000
,
0000
0000
0000
0000
,
1001
0000
0000
0000
,
1000
0001
0100
1000
,
0000
1000
1001
0000
,
0001
1001
0000
0000
,
1000
1000
0010
0100
,
0001
0001
0010
0000
,
1000
0001
0010
0100
,
0110
0000
0000
0000
,
0001
0010
0010
1000
,
0001
0100
0100
0000
,
0001
0010
0100
1000
,
1001
0000
0000
0100
,
0020
0000
0030
0100
,
0020
0000
0000
0030
,
1000
0000
1000
0000
,
0001
0000
0001
0000
,
0001
1001
0000
0000
,
1000
0100
0001
0100
,
1000
1001
0000
0000
,
0001
0010
1000
0010
,
0001
1001
0000
0000
,
1000
0010
0001
0010
,
1000
0100
1000
0100
,
0001
0100
0001
0100
,
0010
0100
0010
0100
,
0010
0010
0010
0010
,
1001
0000
0000
0010
,
0000
0010
0000
0010
,
0100
0001
0001
0000
,
0100
1000
1000
0000
,
0001
0000
0000
0000
,
1000
0000
0000
0000
,
0100
0000
0010
0000
,
0001
0001
0001
0000
,
1000
1001
0000
0000
,
1000
0010
0001
0010
,
1000
1001
0000
0000
,
0001
0100
1000
0100
,
0001
1001
0000
0000
,
1000
0100
0001
0100
,
1000
0010
1000
0010
,
0001
0010
0001
0010
,
0100
0010
0100
0010
,
0001
1000
1001
0000
,
0000
0000
0000
0000
;

//---------------dance-single - ----------------
#NOTES:
     dance-single:
     :
     Medium:
     6:
     0.270719,0.273946,0.088370,0.186558,0.000000,193.000000,184.000000,9.000000,19.000000,0.000000,0.000000,0.270719,0.273946,0.088370,0.186558,0.000000,193.000000,184.000000,9.000000,19.000000,0.000000,0.000000:
0000
0000
0000
0000
,
0000
0000
0000
0000
,
0000
0000
0000
0000
0000
0000
0000
0010
,
0100
0001
1000
1001
,
0001
0100
1000
0100
,
0010
0010
1100
0000
,
0010
1100
0010
0010
,
1000
0100
1000
0000
0100
0000
0001
0000
,
0100
0001
0100
0000
0010
0000
1000
0000
,
0001
0001
0001
0010
,
2002
3003
0000
0100
,
0001
0010
0001
0000
1000
0000
0100
0000
,
1000
0001
1000
0000
0100
0000
0001
0000
,
1000
1000
1000
0010
,
2002
0000
3003
0000
0000
0010
0100
0000
,
0010
0002
0000
0000
0000
0000
0103
0000
,
0010
2000
0000
0000
0001
0000
3001
0000
,
0100
0001
0010
0000
0100
0000
0010
0000
,
1000
0100
0001
0000
1000
0010
0010
0200
,
0000
0301
1000
0001
,
1000
0001
0100
0000
0001
0010
0010
0200
,
0000
1300
0001
1000
,
1001
0000
0010
0001
0000
0100
0001
0200
,
0000
0310
1000
0100
,
0010
0001
0010
0000
0100
0000
0100
0000
,
2000
0010
0010
3010
,
0002
0100
0100
0103
,
0020
1000
0100
1030
,
0010
1000
0001
0000
0010
0001
1000
0000
,
1001
0000
0000
0000
0000
0010
0100
0000
,
1000
1000
0001
0001
,
0100
0100
0010
0010
,
1000
0100
0001
0010
,
0010
0000
0000
0000
0000
0000
0000
0010
,
0100
0000
0001
0001
,
1000
0000
0100
0000
,
0010
0000
0001
0000
1000
0100
0100
0020
,
0000
0031
1000
0001
,
1000
0001
0010
0001
0000
0100
0100
0020
,
0000
1030
0001
1000
,
1001
0000
0100
0001
0000
0010
0001
0020
,
0000
0130
1000
0010
,
0100
0001
0100
0000
0010
1000
0010
0000
,
2000
0001
0001
3001
,
0002
1000
1000
1003
,
0200
0310
0020
0130
,
1001
0000
0000
0010
0100
0000
0000
0000
,
0000
0000
0000
0000
;

//---------------dance-single - ----------------
#NOTES:
     dance-single:
     :
     Hard:
     9:
     0.345062,0.342432,0.196377,0.294565,0.019638,246.000000,226.000000,20.000000,30.000000,0.000000,0.000000,0.345062,0.342432,0.196377,0.294565,0.019638,246.000000,226.000000,20.000000,30.000000,0.000000,0.000000:
0000
0000
0000
0000
,
0000
0000
0000
0000
,
0000
0000
0000
0000
0000
0000
0000
0000
0000
0000
0000
0000
0000
0000
0010
0100
,
0010
0000
1100
0000
0001
0100
0010
0000
,
1000
0000
0101
0000
0010
1000
0100
0000
,
0010
0100
0010
1000
0002
0000
0013
0100
,
0010
0100
2000
0000
3002
0000
0103
0000
,
1000
0100
1000
0000
0010
0000
0001
1000
,
0001
0100
0001
0010
0100
0000
1001
0000
,
0001
0100
1000
0000
1002
0000
1003
0100
,
0020
0030
0000
0101
,
0001
0100
0001
0000
0100
0000
1000
0001
,
1000
0100
1000
0010
0100
0000
1001
0000
,
1000
0100
0001
0000
2001
0000
3001
0100
,
0020
0000
0030
0000
0000
0100
0020
0000
,
0031
0001
1000
0000
0001
0000
0010
0100
,
0001
0001
1000
0001
1000
1000
0100
0010
,
0002
0000
0100
0000
1000
0000
0013
0100
,
2000
0000
0100
0000
3001
0001
1001
0220
,
0030
0000
0301
0000
1000
0100
0001
0000
,
1000
0100
0001
0010
0000
0100
1000
0200
,
0000
0000
0310
0000
0001
0100
1000
0010
,
1000
0100
0001
0010
0001
0100
1000
0020
,
0000
0000
1030
0000
0001
0010
0100
0000
,
0001
0010
0100
1000
0000
0010
2000
0000
,
0001
0100
0001
3020
,
0230
1000
0010
0302
,
1000
0023
0230
2300
,
3001
0010
0100
0001
1000
0000
0110
0000
,
1001
0000
0000
0000
0000
0010
0100
0000
,
1000
1100
0001
0101
,
0010
1000
0000
1000
0001
0000
0001
0100
,
0000
0100
0010
0000
1000
0001
1000
0000
,
0010
0000
0000
0000
0000
0000
0000
0010
,
0100
0000
0001
0001
,
1001
0000
0110
0000
,
1100
0000
0101
0000
1000
0001
1001
0220
,
0030
0000
0301
0000
0001
0010
1000
0000
,
0001
0010
1000
0100
0000
0010
0001
0200
,
0000
0000
0310
0000
1000
0010
0001
0100
,
0001
0010
1000
0100
1000
0010
0001
0020
,
0000
0000
1030
0000
1000
0010
0100
0000
,
1000
0010
0100
0001
0000
0010
2000
0000
,
0001
0100
0001
3020
,
0230
1000
0010
0302
,
1000
0023
0100
1030
,
0001
0100
0001
0100
0000
0010
0100
0000
1001
0000
0000
0000
0000
0000
0000
0000
,
0000
0000
0000
0000
;

//---------------dance-double - ----------------
#NOTES:
     dance-double:
     :
     Easy:
     5:
     0.172531,0.228288,0.108007,0.019638,0.000000,123.000000,112.000000,11.000000,2.000000,0.000000,0.000000,0.172531,0.228288,0.108007,0.019638,0.000000,123.000000,112.000000,11.000000,2.000000,0.000000,0.000000:
00000000
00000000
00000000
00000000
,
00000000
00000000
00000000
00000000
,
00000000
00000000
00000000
00000000
,
10010000
00000000
00100000
00000000
,
00010000
00001000
00010000
00000000
,
00010000
00000000
00100000
00000000
,
01000000
00010000
00001000
00000000
,
00000010
00000000
00000100
00000000
,
00001000
00010000
01000000
00000000
,
00010000
00010000
00010000
00000000
,
10010000
00000000
00100000
00000000
,
01000000
00100000
10000000
00000000
,
00010000
00001000
00000100
00000000
,
00001000
00001000
00001000
00000000
,
00001001
00000000
00000000
00000100
,
00000020
00000000
00000000
00000030
,
00002000
00000000
00000000
00003000
,
00010000
00000000
01000000
00000000
,
10000000
00000000
00100000
00000000
,
00010000
00011000
00000000
00000000
,
00001000
00000100
00000001
00000000
,
00001000
00011000
00000000
00000000
,
00010000
01000000
10000000
00000000
,
00010000
00011000
00000000
00000000
,
00001000
00000010
00000001
00000000
,
00001000
00010000
00001000
00010000
,
00001000
00000100
00001000
00000100
,
00010000
01000000
00010000
01000000
,
00001000
00010000
01000000
10000000
,
10010000
00000000
00000000
00100000
,
00000000
00001000
00000000
00000010
,
00000000
00000001
00001000
00000000
,
00010000
10000000
00000000
00000000
,
01000000
00000000
00000000
00000000
,
00000000
00000000
00000000
00000000
,
00010000
00000000
00001000
00000000
,
00000010
00001000
00000100
00000000
,
00010000
00011000
00000000
00000000
,
00010000
00100000
10000000
00000000
,
00010000
00011000
00000000
00000000
,
00001000
00000010
00000001
00000000
,
00001000
00011000
00000000
00000000
,
00010000
01000000
10000000
00000000
,
00010000
00001000
00010000
00001000
,
00010000
01000000
00010000
01000000
,
00001000
00000100
00001000
00000100
,
00010000
00001000
00011000
00000000
,
00000000
00000000
00000000
00000000
;

//---------------dance-double - ----------------
#NOTES:
     dance-double:
     :
     Medium:
     7:
     0.276330,0.296775,0.088370,0.137464,0.004909,197.000000,188.000000,9.000000,14.000000,0.000000,0.000000,0.276330,0.296775,0.088370,0.137464,0.004909,197.000000,188.000000,9.000000,14.000000,0.000000,0.000000:
00000000
00000000
00000000
00000000
,
00000000
00000000
00000000
00000000
,
00000000
00000000
00000000
00000000
00000000
00000000
00000000
00100000
,
10000000
11000000
00010000
00001000
,
00000100
00000001
00000010
00001000
,
00000010
00000100
00000010
00000000
00001100
00000000
00000000
00100000
,
00010000
00100000
01000000
00000000
10000000
00000000
00010000
00000000
,
01000000
00100000
10000000
00000000
01000000
00000000
00100000
00000000
,
00001000
00010000
00000100
00000010
,
00000001
00000100
00001000
00000000
00010000
00000000
01000000
00000000
,
00022000
00033000
00000000
00000100
,
00000010
00000100
00000001
00000000
00000010
00000000
00000100
00000000
,
00010000
00001000
00100000
01000000
,
10000000
01000000
00010000
00000000
00001000
00000000
00000010
00000000
,
00022000
00000000
00033000
00000000
00000000
01000000
00100000
00000000
,
10000000
01000000
10000000
00000000
01000000
00000000
00010000
00000000
,
00001000
00000000
00000100
00000000
00000001
00000100
00000001
00000000
,
00000010
00000010
00010000
00010000
,
00001000
00000000
00001000
00000000
00100000
01000000
01000000
20000000
,
00000000
30010000
00100000
00001000
,
00010000
00001000
00000100
00000000
00000010
00000100
00000100
00000002
,
00000000
00001003
00000010
00020000
,
00031000
00100000
00001000
00100000
00000000
01000000
01000000
00200000
,
00000000
00301000
00020000
00030010
,
00000100
00000001
00000100
00001000
,
00010000
00100000
00001000
00100000
,
00001000
00000010
00010000
00000010
,
00010000
01000000
00001000
00000100
,
00000001
00001000
00010000
01000000
,
10010000
00000000
00000000
00000000
00000000
00010000
00001000
00000000
,
00000100
00000001
00000010
00001000
,
00010000
01000000
00000000
01000000
10000000
00000000
10000000
00010000
,
00000000
00010000
00001000
00000000
00001000
00000001
00000100
00000000
,
00000010
00000000
00000000
00000000
00000000
00000000
00000000
00001000
,
00010000
00000000
01000000
00000000
,
00001000
00000000
00010000
00000000
,
00101000
00000000
00011000
00000000
00010100
00000010
00000010
00000002
,
00000000
00001003
00000100
00010000
,
00001000
00010000
00100000
00000000
01000000
00100000
00100000
20000000
,
00000000
30010000
01000000
00002000
,
00013000
00000100
00010000
00000100
00000000
00000010
00000010
00000200
,
00000000
00010300
00002000
01003000
,
00100000
10000000
00100000
00010000
,
00001000
00000100
00010000
00000100
,
00010000
01000000
00001000
01000000
,
00001000
00000010
00010000
00100000
,
10000000
00000000
00010000
00000000
00000000
00010000
00000000
00000000
00011000
00000000
00000000
00000000
00000000
00000000
00000000
00000000
,
00000000
00000000
00000000
00000000
;

//---------------dance-double - ----------------
#NOTES:
     dance-double:
     :
     Hard:
     10:
     0.353478,0.456576,0.206196,0.255290,0.093279,252.000000,231.000000,21.000000,26.000000,0.000000,0.000000,0.353478,0.456576,0.206196,0.255290,0.093279,252.000000,231.000000,21.000000,26.000000,0.000000,0.000000:
00000000
00000000
00000000
00000000
,
00000000
00000000
00000000
00000000
,
00000000
00000000
00000000
00000000
00000000
00000000
00000000
00000100
,
00001000
00010000
00100000
10000000
00000000
00010000
01000000
00000000
,
00100000
10000000
01000000
00010000
00000000
00001000
00000100
00000000
,
00000010
00000000
00000001
00000000
00000100
00000000
00000010
00000000
00001000
00000000
00000000
00000001
00000000
00000000
00000100
00000000
,
00001000
00000000
00010000
00000000
01000000
00000000
00000000
00100000
00000000
00000000
00010000
10000000
00000000
00010000
10000000
00000000
,
01000000
00100000
01000000
00010000
00000000
00001000
00000100
00000000
,
00000100
00000010
00000100
00000001
00000000
00000010
00001000
00000000
,
00000100
00000000
00001000
00000000
00010000
00000000
00000000
00100000
00000000
00000000
00000000
00000000
00100000
00000000
01000000
00000000
,
21000000
00000000
00000000
00000000
30010000
00001000
00000100
00000000
,
00000100
00000010
00000001
00001000
00000000
00010000
01000000
00000000
,
01000000
00100000
10000000
01000000
00000000
00100000
00010000
00000000
,
01000000
00000000
00010000
00000000
00001000
00000000
00000000
00000010
00000000
00000000
00000000
00000000
00000010
00000000
00000100
00000000
,
00001002
00000000
00000000
00000000
00001003
00010000
02000000
00000000
,
03100000
00100000
10000000
00000000
01000000
00000000
00010000
00000000
,
00000100
00000010
00000001
00000001
00000100
00000000
00001000
00000000
,
00021000
01000000
00001000
01030000
,
00102000
00000000
00000100
00000000
00103000
01000000
01000000
20100000
,
00000000
30010000
20100000
31000000
,
00100000
00010000
00001000
00000010
00000000
00000100
00000100
00000012
,
00000000
00000000
00001003
00000000
00000012
00000000
00000103
00000010
,
00001000
00010000
00100000
10000000
00000000
01000000
01000000
00102000
,
00000000
00013000
00020010
00030100
,
00001000
00000100
00000001
00000100
00000000
00010000
00001000
00000000
,
00020000
00100000
00001000
00100000
,
00032000
00000010
00010000
00000010
,
00023000
01000000
00032000
00003200
,
00000301
00000001
00000010
00000100
00001000
00010000
01000000
10000000
,
10010000
00000000
00000000
00000000
00000000
00010000
00001000
00000000
,
00000100
00000001
00000010
00010000
,
00000000
00000000
00010000
00001000
00010000
00001000
00000000
00000000
01000000
00100000
01000000
00100000
00000000
00000000
10000000
01000000
,
10000000
01000000
00000000
00000000
00010000
00001000
00010000
00001000
00000000
00000000
00000100
00000001
00000100
00000001
00000000
00000000
,
00000000
00000000
00000000
00000000
00000000
00000000
00000000
00001000
,
00010000
00000000
00000000
00000000
,
00100000
00001000
00010000
00000100
,
00000011
00000000
00010100
00000000
01001000
00100000
00100000
21000000
,
00000000
30010000
21000000
30100000
,
01000000
00010000
00001000
00000100
00000000
00000010
00000010
00000102
,
00000000
00001003
00000102
00000013
,
00001000
00010000
01000000
10000000
00000000
00100000
00100000
01002000
,
00000000
00013000
00020100
00030010
,
00001000
00000010
00000001
00000010
00010000
00001000
00001000
00000000
,
00020000
00100000
00001000
00100000
,
00032000
00000010
00010000
00000010
,
00023000
01000000
00032000
00003100
,
00000001
00001000
00000001
00001000
00000000
00000010
00010000
00000000
00101000
00000000
00000000
00000000
00000000
00000000
00000000
00000000
,
00000000
00000000
00000000
00000000
;

//---------------dance-single - ----------------
#NOTES:
     dance-single:
     :
     Challenge:
     14:
     0.652252,0.619692,0.500761,0.363297,0.515489,465.000000,414.000000,51.000000,37.000000,0.000000,0.000000,0.652252,0.619692,0.500761,0.363297,0.515489,465.000000,414.000000,51.000000,37.000000,0.000000,0.000000:
// measure 0
0000
0000
0000
0000
,  // measure 1
0000
0000
0000
0000
,  // measure 2
0000
0000
0000
0000
0000
0000
0000
0000
0000
0000
0000
0000
0000
0000
0001
1000
,  // measure 3
0002
0000
0000
0000
0013
0000
0100
0000
1000
0000
0010
0100
0010
0200
0000
0000
,  // measure 4
0301
0000
1000
0100
1000
0100
0000
0020
0000
0031
1000
0001
0010
0100
0010
0001
,  // measure 5
0000
0000
1000
0010
1000
0010
0000
0000
0102
0000
0000
0013
0000
0000
0001
0100
,  // measure 6
0001
0100
0000
0000
1020
0000
0000
0130
0000
0000
0001
1000
0000
1000
0001
0000
,  // measure 7
1001
0000
0010
0000
0100
0000
0001
0010
0000
0100
1000
0000
0010
0000
0100
0000
,  // measure 8
0001
0000
1000
0000
0010
0000
1010
0000
0002
0000
0000
1003
0100
0010
0100
0000
,  // measure 9
1000
0000
1000
0000
1000
0000
0010
0100
0000
0100
0001
0000
0010
0001
1000
0001
,  // measure 10
0100
0000
0100
0000
0010
1000
0001
2000
0000
0000
3020
0000
1030
0100
0010
0001
,  // measure 11
0100
0000
0010
0000
1000
0000
0001
1000
0000
0100
0010
0000
0001
0000
0100
0000
,  // measure 12
0010
0000
1000
0000
0001
0000
0011
0000
0200
0000
0000
0301
2000
0000
0000
0000
,  // measure 13
3010
0000
1001
0000
0100
0010
0000
2000
0001
0000
0000
0000
3001
1000
0010
0100
,  // measure 14
0001
0000
0001
0000
0010
0100
0000
0100
1000
0000
0110
0000
1001
0000
0100
0000
,  // measure 15
0101
0000
1200
0000
1000
0000
1000
0000
1300
0000
0100
0010
0001
1000
0001
0000
,  // measure 16
1010
0000
0021
0000
0001
0000
0001
0000
0031
0000
0100
0010
1000
0020
0000
0000
,  // measure 17
0130
0000
0010
0000
1000
0100
0000
0100
0010
0000
0010
0001
0000
0001
1000
0000
,  // measure 18
0010
0000
0100
0000
0010
0000
1000
0001
0000
0001
0100
0000
1010
0000
0102
0000
,  // measure 19
1000
0000
0013
0000
1100
0000
0001
0100
0020
0000
1030
0000
0110
0000
0001
0000
,  // measure 20
1000
0000
0010
0000
0100
0000
0001
0010
0000
0010
0100
0000
1100
0000
0021
0000
,  // measure 21
1000
0000
0031
0000
1001
0000
0100
0010
2000
0000
3001
0000
1010
0000
0100
0000
,  // measure 22
0001
0000
1000
0000
0010
0000
1000
0100
0000
0100
0010
0000
0011
0000
1200
0000
,  // measure 23
0010
0000
1300
0000
0110
0000
0001
0100
0002
0000
1003
0000
0101
0000
0010
0000
,  // measure 24
1000
0000
0100
0000
0010
0000
0001
0000
0100
0000
0010
0000
1000
0100
2000
0000
,  // measure 25
0010
0010
0100
0100
3010
1100
0110
0012
,  // measure 26
0100
0100
0010
0010
0103
0011
0101
2001
,  // measure 27
0100
0000
0100
0000
0001
0000
0001
0000
0100
0000
0100
0000
3010
1000
0010
0000
,  // measure 28
0100
0000
0001
0010
0001
0100
0010
0100
0001
1000
0010
1000
0100
2000
0000
0000
,  // measure 29
3010
0000
0100
0000
0001
1000
0000
1000
0010
0000
1001
0000
0010
0001
0100
0000
,  // measure 30
0010
0000
1000
0100
1000
0001
0000
0201
0000
0310
0100
0001
1000
0001
0010
0100
,  // measure 31
1000
0000
0010
0100
0010
0100
0000
0000
0001
0010
0001
0010
0000
0000
1000
0001
,  // measure 32
1000
0001
0000
0000
0100
0010
0100
0010
0000
0000
1000
0100
0010
0001
0000
1000
,  // measure 33
0020
0000
0130
0001
0100
0000
0010
0000
1000
0000
0100
0000
1000
0000
0001
0000
,  // measure 34
0010
0000
0100
1000
0100
0000
0010
0000
0001
0000
1000
0000
0001
0000
0100
0000
,  // measure 35
0010
1000
0010
1000
0010
0000
0100
0000
0001
0010
0001
0010
0001
0000
1000
0000
,  // measure 36
0010
0000
1000
0000
0100
0000
0010
0001
0000
0001
1000
0000
1100
0000
0201
0000
,  // measure 37
1000
0000
0310
0000
1010
0000
0001
0010
0200
0000
1300
0000
0110
0000
0100
0000
,  // measure 38
1000
0000
0001
0000
0010
0000
0001
0100
0000
0100
0010
0000
1010
0000
0012
0000
,  // measure 39
1000
0000
0103
0000
1100
0000
0010
1000
0002
0000
0103
0000
1001
0000
0010
0000
,  // measure 40
1000
0000
0100
0000
0010
0000
0001
1000
0000
1000
0010
0000
0110
0000
2001
0000
,  // measure 41
0100
0000
3010
0000
0101
0000
1000
0001
0020
0000
0130
0000
1100
0000
0001
0000
,  // measure 42
0010
0000
0001
0000
0100
0000
0010
0000
1000
0000
0001
0000
0100
0010
0200
0000
,  // measure 43
1000
1000
0001
0001
0310
0101
1010
1200
,  // measure 44
0001
0001
0010
0010
1300
1001
1010
2100
,  // measure 45
0001
0000
0001
0000
0100
0000
0100
0000
0010
0000
3010
0000
1000
0001
0100
0000
,  // measure 46
0001
0010
0100
1000
0000
0001
1000
0000
2020
0000
0000
0000
3030
0000
0000
0000
;
