#TITLE:男々道;
#ARTIST:Des-ROW・組;
#TITLETRANSLIT:DanDanDO (The true MAN's Road);
#ARTISTTRANSLIT:Des-ROW・UNITED;
#BANNER:DanDanDO (The true MAN's Road)-bn.png;
#BACKGROUND:DanDanDO (The true MAN's Road)-bg.png;
#JACKET:DanDanDO (The true MAN's Road)-jacket.png;
#MUSIC:DanDanDO (The true MAN's Road).ogg;
#SAMPLESTART:2.624;
#SAMPLELENGTH:20;
#DISPLAYBPM:152:163;
#BPMS:0=159.5,4=160,176=156,241=153,243=159.5,244=152,245=159,246=154,247=159,248=163,249=156,252=153.5,253=156;
#BGCHANGES:;

//---------------dance-single - ----------------
#NOTES:
     dance-single:
     :
     Beginner:
     3:
     :
0000
0000
0000
0000
,
0000
0000
0000
0000
,
1000
1000
1000
0000
,
0001
0001
0001
0000
,
1000
0000
0001
0000
,
1000
0000
0001
0000
,
1000
1000
1000
0000
,
0001
0000
0000
0000
,
0001
0000
1000
0000
,
0001
0000
1000
0000
,
0100
0100
0100
0000
,
0100
0100
0100
0000
,
0100
0100
0100
0000
,
0100
0100
0100
0000
,
1000
0000
0001
0000
,
1000
0000
1000
0000
,
1000
0000
0001
0000
,
1000
0000
1000
0000
,
1000
0000
0001
0000
,
1000
0000
1000
0000
,
1001
0000
0000
0000
,
0110
0000
0000
0000
,
1000
0000
1000
0000
,
1000
0000
1000
0000
,
0001
0001
0000
0000
,
0001
0001
0000
0000
,
0001
0000
0001
0000
,
0001
0001
0001
0000
,
1000
0000
0001
0000
,
1000
0000
0001
0001
,
0000
0000
0001
0000
,
1000
0000
1000
0000
,
0001
0000
0001
0000
,
1000
0000
1000
0000
,
0001
0000
0001
0000
,
1000
0000
1000
0000
,
0001
0001
0000
1000
,
0000
1000
0000
0000
,
1000
0000
0001
0000
,
1000
0000
1000
0000
,
0100
0000
0000
0000
,
0000
0000
0000
0000
,
0100
0000
0000
0000
,
0000
0000
0000
0000
,
1000
0000
0000
0000
,
0001
0000
0000
0000
,
1000
0000
0001
0000
,
1000
0000
0001
0001
,
0000
0000
0000
0000
,
0001
0000
0000
0000
,
1000
0000
0001
0000
,
1000
0000
0001
0001
,
0000
0000
0000
0000
,
0001
0000
0000
0000
,
1000
0000
0001
0000
,
1000
0000
0001
0001
,
0000
0000
0000
0000
,
0001
0000
0000
0000
,
1000
0000
0001
0000
,
1000
0000
0001
0001
,
0000
0000
0010
0000
,
0100
0000
0001
0000
,
1000
0000
0010
0000
,
0100
0000
0001
0000
,
1000
0000
0100
0000
,
1000
0000
0100
0000
,
1000
0000
0100
0000
,
0010
0000
1000
0000
;

//---------------dance-single - ----------------
#NOTES:
     dance-single:
     :
     Easy:
     4:
     :
0000
0000
0000
0000
,
0000
0000
0000
0000
,
1000
1000
1000
0000
,
0001
0001
0001
0000
,
1000
0000
0001
0000
,
1000
0000
0001
0000
,
1000
1000
1000
0000
,
0001
1000
0000
0000
,
0001
0000
1000
0000
,
0001
0000
1000
0000
,
0100
0100
0100
0000
,
0100
0100
0100
0000
,
0100
0100
0100
0000
,
0100
0100
0100
0000
,
1000
0000
0001
0000
,
1000
0001
1000
0000
,
1000
0000
0001
0000
,
1000
0001
1000
0000
,
1000
0000
0001
0000
,
1000
0001
1000
0000
,
1001
0000
0000
0000
,
0110
0000
0000
0000
,
1000
0000
1000
0000
,
1000
0000
1000
0000
,
0001
0001
1000
0000
,
0001
0001
1000
0000
,
0001
1000
0001
1000
,
0001
0001
0001
0000
,
1000
0000
0001
0000
,
1000
0000
0001
0001
,
1000
0000
0001
0000
,
1000
0001
1000
0000
,
0001
0000
0001
0000
,
1000
0001
1000
0000
,
0001
0000
0001
0000
,
1000
0001
1000
0000
,
0001
0001
1000
1000
,
0001
1000
0001
0000
,
1000
0000
0001
0000
,
1000
0001
1000
0000
,
0100
0000
0000
0000
,
0000
0000
0000
0000
,
0100
0000
0000
0000
,
0000
0000
0000
0000
,
1000
0000
0000
0100
0000
0000
0000
0000
,
0001
0000
0000
0100
0000
0000
0000
0000
,
1000
0000
0001
0000
,
1000
0000
0001
0001
,
1000
0000
0000
0100
0000
0000
0000
0000
,
0001
0000
0000
0100
0000
0000
0000
0000
,
1000
0000
0001
0000
,
1000
0000
0001
0001
,
1000
0000
0000
0100
0000
0000
0000
0000
,
0001
0000
0000
0100
0000
0000
0000
0000
,
1000
0000
0001
0000
,
1000
0000
0001
0001
,
1000
0000
0000
0100
0000
0000
0000
0000
,
0001
0000
0000
0100
0000
0000
0000
0000
,
1000
0000
0001
0000
,
1000
0000
0001
0001
,
1000
0000
0010
0000
,
0100
0000
0001
0000
,
1000
0000
0010
0000
,
0100
0000
0001
0000
,
1000
0010
0100
0001
,
1000
0010
0100
0001
,
1000
0010
0100
0001
,
0010
0100
1000
0001
;

//---------------dance-single - ----------------
#NOTES:
     dance-single:
     :
     Medium:
     7:
     :
0000
0000
0000
0000
,
0000
0000
0000
0000
,
1000
0000
0001
0100
0001
0000
0000
0000
,
1000
0001
1000
0000
,
0001
0000
1000
0100
1000
0000
0001
0100
,
0001
1000
0001
0000
,
1000
0000
0001
0010
0001
0000
0000
0000
,
1000
0000
0001
0100
0000
0000
0000
0000
,
1000
0001
1000
0001
,
1000
0000
0001
0100
0000
0000
0000
0000
,
1001
0000
0000
0000
,
1001
0000
0000
0000
,
1001
0000
0000
0000
,
1001
0000
0000
0000
,
1000
0100
0010
0001
,
1000
0100
0010
0000
,
0001
0100
0010
1000
,
0001
0100
0010
0000
,
1000
0100
0010
0001
,
0100
0000
0010
0000
1000
0100
0000
0000
,
0010
0000
0000
0001
0000
0000
0100
0000
0000
0000
0000
0000
0000
0000
0000
0000
,
0010
0000
0000
1000
0000
0000
0100
0000
0000
0000
0000
0000
0000
0000
0000
0000
,
1000
1000
1000
1000
,
0001
0001
0001
0001
,
0010
1100
0010
0101
,
0010
1100
0010
0101
,
0010
1001
0100
1001
,
1100
0011
0101
0000
,
0010
1100
0010
0101
,
0010
1100
0010
0101
,
0010
1001
0100
1001
,
0010
1001
0100
0000
,
0010
0000
1001
0000
,
0100
0000
1001
0000
,
0010
0000
1001
0000
,
0100
0000
1001
0000
,
1000
0010
0100
0001
,
0010
0100
1001
0000
,
0010
0100
1001
0010
,
0100
0010
1001
0000
,
0002
0000
0000
0003
,
0002
0000
0000
0003
,
2000
0000
0000
3000
,
2000
0000
0000
3000
,
0010
0000
0000
0101
0000
0000
0000
0000
,
0010
0000
0000
1100
0000
0000
0000
0000
,
0001
0010
0100
1000
,
0010
0000
0100
0000
0001
0001
0001
0000
,
0010
0000
0000
1100
0000
0000
0000
0000
,
0010
0000
0000
0101
0000
0000
0000
0000
,
1000
0010
0100
0001
,
0010
0000
0100
0000
1000
1000
1000
0000
,
0001
0000
0000
0110
0000
0000
1000
0000
,
0001
0000
0000
0110
0000
0000
1000
0000
,
0001
0100
0010
1000
,
0100
0000
0010
0000
0001
0001
0001
0000
,
1000
0000
0000
0110
0000
0000
0001
0000
,
1000
0000
0000
0110
0000
0000
0001
0000
,
1000
0100
0010
0001
,
0100
0000
0010
0000
1000
1000
1000
0000
,
0100
0011
0100
1010
,
0100
0000
0011
0000
1000
1000
1000
0000
,
0010
0101
0010
1100
,
0010
0000
0101
0000
1000
1000
1000
0000
,
0100
0010
0001
0000
1000
0000
1000
0000
,
0010
0100
0001
0000
1000
0000
1000
0000
,
0100
0010
0001
0000
1000
0000
0001
0000
,
1000
0010
0100
0000
0001
0010
0100
0000
;

//---------------dance-single - ----------------
#NOTES:
     dance-single:
     :
     Hard:
     12:
     :
0000
0000
0000
0000
,
0000
0000
0000
0000
,
0001
0000
0000
0000
1000
0000
0000
1000
0000
0000
0001
0000
0100
0000
0000
0000
,
1000
0000
0000
0000
0001
0000
0000
0001
0000
0000
1000
0000
0100
0000
0000
0000
,
0001
0100
1000
0100
,
0001
0000
0000
0000
0010
0000
0000
0010
0000
0000
0100
0000
1000
0000
0000
0000
,
0001
0000
0000
0000
1000
0000
0000
1000
0000
0000
0001
0000
0100
0000
0000
0000
,
1000
0000
0000
0000
0001
0000
0000
0001
0000
0000
1000
0000
0100
0000
0000
0000
,
0001
0100
1000
0100
,
0001
0000
0000
0000
0010
0000
0000
0010
0000
0000
0100
0000
1000
0000
0010
0000
,
1000
0000
0000
1000
0000
0000
1000
0000
0000
0100
0000
0000
0010
0000
0000
0000
,
0001
0000
0000
0001
0000
0000
0001
0000
0000
0100
0000
0000
0010
0000
0000
0000
,
1000
0000
0000
1000
0000
0000
1000
0000
0000
0100
0000
0000
0010
0000
0000
0000
,
0001
0000
0000
0001
0000
0000
0001
0000
0000
0100
0000
0000
0010
0000
0000
0000
,
1000
0100
0001
0100
1000
0100
0001
0100
,
1000
0100
0001
0100
1000
0100
0000
0000
,
0001
0100
1000
0100
0001
0100
1000
0100
,
0001
0100
1000
0100
0001
0100
0000
0000
,
1000
0010
0001
0010
1000
0010
0001
0010
,
1000
0010
0001
0010
1000
0010
0000
0000
,
0100
0000
0000
0100
0000
0000
0100
0000
0001
0000
0010
0000
0100
0000
1000
0000
,
0010
0000
0000
0010
0000
0000
0010
0000
0000
0000
0000
0000
0000
0000
0000
0000
,
1000
0100
0010
0001
1000
0100
0010
0001
,
1000
0000
0100
0000
0010
0000
0001
0000
1000
0000
0100
0000
0010
0001
0010
0001
,
0010
0000
0000
0000
0100
0000
0000
0100
0000
0000
0000
0000
1001
0000
0000
0000
,
0010
0000
0000
0000
0100
0000
0000
0100
0000
0000
0000
0000
1001
0000
0000
0000
,
1000
0000
0000
0000
0001
0000
0000
0001
0000
0000
0000
0000
0110
0000
0000
0000
,
0001
0000
0000
0000
1000
0000
0000
1000
0000
0000
0000
0000
0110
0000
0000
0000
,
1000
0000
0000
0000
0010
0000
0000
0010
0000
0000
0000
0000
0101
0000
0000
0000
,
0010
0000
0000
0000
1000
0000
0000
1000
0000
0000
0000
0000
0101
0000
0000
0000
,
1000
0000
0000
0000
0100
0000
0000
0100
0000
0000
0000
0000
0011
0000
0000
0000
,
0100
0000
0000
0000
1000
0000
0000
1000
0000
0000
0000
0000
0011
0000
0000
0000
,
0100
0000
0000
0010
1000
0000
0000
0100
1000
0000
0000
0010
1000
0000
0000
0100
,
1000
0000
0000
0010
1000
0000
0000
0100
1000
0000
0000
0000
0001
0000
0000
0000
,
0100
0000
0000
0010
1000
0000
0000
0100
0010
0000
0000
0001
0100
0000
0000
0010
,
1000
0000
0000
0001
0010
0000
0000
0100
1000
0000
0000
0000
0001
0000
0000
0000
,
0110
0000
1001
0000
,
0010
0000
0000
0100
1000
0000
0000
0001
0100
0000
0000
0000
0010
0000
0000
0000
,
1000
0000
0000
0001
0010
0000
0000
0100
1000
0000
0000
0000
0001
0000
0000
0000
,
0100
0000
0000
0010
0100
0000
0000
0001
1000
0000
0000
0000
0000
0000
0000
0000
,
0001
0000
0000
0001
0000
0000
0001
0000
0000
0000
1000
0000
0100
0000
0000
0000
,
0001
0000
0000
0001
0000
0000
0001
0000
0000
0000
1000
0000
0100
0000
0000
0000
,
0010
0000
0000
0010
0000
0000
0010
0000
0000
0000
0100
0000
0001
0000
0000
0000
,
0010
0000
0000
0010
0000
0000
0010
0000
0000
0000
0100
0000
1000
0000
0000
0000
,
1010
0000
0000
0101
0000
0000
0000
0000
,
0011
0000
0000
1100
0000
0000
0000
0000
,
0001
0100
1000
0100
0001
0100
1000
0100
,
0001
0010
1000
0010
0011
0011
0011
0000
,
0101
0000
0000
1010
0000
0000
0000
0000
,
1100
0000
0000
0011
0000
0000
0000
0000
,
1000
0010
0001
0010
1000
0010
0001
0010
,
1000
0100
0001
0100
1100
1100
1100
0000
,
1010
0000
0000
0101
0000
0000
1000
0010
,
1100
0000
0000
0011
0000
0000
0000
0000
,
1000
0100
0001
0100
1000
0010
0001
0010
,
1000
0100
0001
0100
1100
1100
1100
0000
,
0011
0000
0000
1100
0000
0000
0001
0010
,
1100
0000
0000
0011
0000
0000
1000
0000
,
0010
0100
0001
0010
0100
1000
0001
0100
,
1000
0100
0001
0010
1100
1100
1100
0000
,
0001
0100
0001
0000
1000
0100
1000
0000
,
0001
0100
1000
0100
0001
1000
0001
0000
,
1000
0100
1000
0000
0001
0100
0001
0000
,
1000
0100
0001
0100
1000
0001
1000
0000
,
0001
0100
1000
0100
0001
0010
1000
0010
,
0001
0100
0010
1000
0100
0010
0001
0000
,
1000
0010
0001
0010
1000
0100
0001
0100
,
1000
0010
0100
0001
0010
0100
0010
0000
;

//---------------dance-single - ----------------
#NOTES:
     dance-single:
     :
     Challenge:
     17:
     :
0000
0000
0000
0000
,
0000
0000
0000
0000
,
0010
0000
0100
0000
1000
0001
1000
0000
1100
0000
0100
0000
0010
0000
0000
0000
,
0001
0100
0001
0100
0010
1000
0100
0010
0001
0000
1000
0100
1000
0000
0000
0000
,
0001
0100
0010
0100
0001
0100
0010
0000
0001
0010
0100
0010
0001
0010
0100
0000
,
1000
0000
0010
0100
0010
1000
0001
0100
0010
0000
1000
0100
1000
0010
0100
0001
,
0010
0001
0010
0100
1000
0010
1000
0001
0100
0000
0101
0000
0010
1000
0001
0000
,
1010
0000
1000
0100
0001
0000
0010
0001
0200
0000
0000
0000
0310
1000
0010
0000
,
0110
0000
0100
0000
0110
0000
0100
0000
0001
0010
0000
1000
0100
0000
1001
0000
,
0010
1000
0000
0100
0001
0000
0010
0100
1000
0000
0001
0000
1000
0010
0100
0000
,
0010
1000
0100
0010
0001
0100
0010
1000
0100
0010
0001
0100
0010
1000
0100
0000
,
1000
0100
0001
1000
0010
0001
1000
0100
0001
1000
0010
0001
1000
0100
0001
0000
,
0010
0001
0010
0001
0010
0100
0010
0100
1000
0010
1000
0010
1000
0001
1000
0001
,
1000
0100
0010
0001
0100
0010
0100
0010
1000
0001
0100
0010
1000
0001
1000
0001
,
0010
0000
0001
0000
0100
0010
1000
0000
0100
0000
1000
0010
1000
0100
0010
0001
,
0100
0000
0010
0000
0100
0001
0010
0100
1000
0000
1100
0000
0000
0000
0000
0000
,
0010
0000
0100
0000
0101
0000
0001
0010
0001
0000
1000
0100
1000
0000
0001
1000
,
0100
0010
0001
0000
0010
0100
1000
0001
1000
0000
0010
0000
0001
0100
0001
0100
,
0001
0010
0100
1000
0001
0100
0010
1000
0001
0010
0100
1000
0001
0100
0010
1000
,
0100
0010
0100
0010
0001
1000
0001
1000
0010
0100
0001
1000
0100
0010
0100
0010
,
0001
0000
0000
0011
0000
0000
1100
0000
1000
0100
1000
0100
0010
0001
0010
0001
,
0100
0000
0000
1001
0000
0000
0110
0000
0000
0000
0000
0000
2000
0000
0000
0000
,
3010
0100
0010
0100
0010
0100
0010
0100
0010
0100
0010
0100
0010
0100
0010
0100
,
0010
0100
0010
0100
0010
0100
0010
0100
0010
0100
0010
0100
0010
0100
0010
0100
,
0010
1000
0001
1000
0100
0010
0001
0100
0001
0010
0100
1000
,
0001
0010
0001
1000
0000
0010
1000
0100
0010
0001
0000
0000
,
0010
0001
1000
0010
1000
0100
1000
0001
0010
0001
0100
0010
,
1000
0000
0000
1010
0000
0000
0101
0000
0000
0010
0001
0100
,
1000
0000
1000
0000
0010
0100
0001
0000
0001
0000
0010
0100
,
1000
0000
0010
0000
0100
0001
0100
0010
1000
0001
0000
0000
,
0010
0000
0010
0001
0100
0010
1000
0000
1000
0100
0010
0001
,
0100
0000
0000
0000
0010
0000
0000
0000
0100
0000
0000
0000
0001
0000
0000
0000
1000
0000
0000
0000
0001
0000
0000
0000
0010
0000
0000
0000
0100
0000
0000
0000
1000
0000
0000
0000
0001
0000
0000
0100
0000
0000
0001
0000
0000
0100
0000
0000
,
0001
0010
0001
0010
0100
1000
0100
1000
0010
0100
0000
0001
,
0010
0001
0100
0010
1000
0100
0010
0000
0000
0110
0000
0001
,
1000
0010
1000
0010
0100
0010
0100
0001
0100
0001
1000
0001
,
1000
0100
0001
1000
0010
0001
0100
0000
0000
0100
0010
1000
,
0001
0000
0010
0001
0000
0100
1000
0000
0010
0001
0010
0100
,
1000
0010
1000
0100
0010
0001
0100
0000
0000
1001
0000
0000
,
1001
0000
1000
0001
0000
0100
0010
0000
0000
1000
0100
0010
,
0001
0000
0000
0000
0010
0000
0000
0000
0001
0000
0000
0000
0010
0000
0000
0000
0100
0000
0000
0000
1000
0000
0000
0000
0001
0000
0000
0000
0000
0000
0000
0000
0000
0000
0000
0000
1000
0000
0000
0010
0000
0000
1000
0000
0000
0010
0000
0000
,
1000
0100
0001
0100
1000
0100
0001
0100
1000
0100
0001
0100
1000
0100
0010
0001
,
0100
1000
0100
0010
0100
1000
0100
0010
0100
1000
0100
0010
1000
0001
1000
0001
,
0010
0001
0100
0010
1000
0100
0010
0001
0100
0010
1000
0100
0010
0001
0100
0010
,
1000
0100
0010
0001
1000
0001
1000
0001
0100
0010
1000
0001
0100
0010
0100
0010
,
2000
0000
0000
0000
0000
3000
1100
0000
0000
0000
0011
0000
0011
0000
0100
0000
,
0002
0000
0000
0000
0000
0003
0101
0000
0000
0000
0000
0000
0000
0000
0000
0000
,
1001
0000
1000
0100
0010
0000
0001
0100
0010
0000
1000
0001
1000
0000
0100
0010
,
0001
0000
0100
0010
1000
0000
0001
0000
0110
0000
0110
0000
0001
0100
1000
0010
,
0200
0000
0000
0000
0000
0300
0110
0000
0000
0000
0000
0000
0001
0010
0001
0010
,
0002
0000
0000
0000
0000
0003
1001
0000
0000
0000
0000
0000
1000
0100
1000
0100
,
1000
0000
0001
1000
0010
0000
0100
0000
0010
0001
0010
1000
0010
0100
0010
1000
,
0100
0000
0010
0001
1000
0001
0100
0000
0101
0000
0101
0000
1000
0010
0001
0100
,
2000
0000
0010
0000
0100
3000
1010
0000
0001
0000
0100
0000
0010
1000
0001
0000
,
0020
0000
0100
0000
0001
0030
0011
0000
1000
0000
0010
0000
0100
0001
1000
0001
,
0100
0000
0010
0000
1000
0100
1000
0000
0010
0000
0100
0000
0001
0010
0001
0000
,
1000
0000
0001
0000
0010
0100
0010
0000
0001
0100
1000
0100
0001
0000
0010
0100
,
2000
0000
0000
0000
0000
0000
0001
0000
0000
0000
0000
0000
0010
0000
0000
3000
0000
0000
1100
0000
0000
0000
0000
0000
0100
0000
0000
0000
0000
0000
0010
0000
0000
0000
0000
0000
0001
0000
0000
0000
0100
0000
0000
0000
0010
0000
0000
0000
,
2000
0000
0100
0000
0001
3000
1001
0000
0010
0000
0100
0000
0001
0000
0010
0001
,
0100
0000
0010
1000
0100
1000
0001
0000
0010
0000
0001
0100
0010
1000
0001
0000
,
1000
0000
1000
0000
0100
0010
0001
0000
0100
0000
0010
1000
0001
0100
0001
0000
,
0010
0000
0100
0000
1000
0010
0100
0001
0010
0000
0100
0000
1000
0000
0001
0100
,
0001
0000
0010
0001
0010
1000
0010
0001
0100
0000
0010
1000
0001
0100
0001
0000
,
1000
0100
0010
0000
0010
0000
0001
0100
0010
1000
0001
0000
0100
0000
0001
0010
,
1000
0010
0001
0000
0100
0010
1000
0001
0010
0000
0001
0100
1000
0000
0010
0100
,
0010
0000
1000
0000
0100
0010
0100
0010
0001
0000
0100
0010
1000
0000
0001
0100
,
0010
0100
0001
0000
1000
0100
0010
0001
1000
0000
0010
0100
0001
0000
1000
0001
,
1000
0100
0010
0000
0001
0000
0100
0010
1000
0001
0010
1000
0100
0000
0010
0001
,
0100
0010
1000
0010
0100
0000
0001
1000
0010
1000
0100
0010
0001
0100
0010
1000
;

//---------------dance-double - ----------------
#NOTES:
     dance-double:
     :
     Easy:
     4:
     :
00000000
00000000
00000000
00000000
,
00000000
00000000
00000000
00000000
,
01000000
00000000
00001000
00000000
,
00010000
00000000
00000010
00000000
,
00001000
00000000
00000100
00000000
,
00010000
00000000
00001000
00000000
,
00100000
00000000
00010000
00000000
,
10000000
00000000
00100000
00000000
,
01000000
00000000
00001000
00000000
,
00010000
00000000
00000010
00000000
,
00001000
00001000
00001000
00000000
,
00000001
00000001
00000001
00000000
,
00001000
00001000
00001000
00000000
,
00000001
00000001
00000001
00000000
,
00000010
00000000
00000100
00000000
,
00010000
00000000
00001000
00000000
,
00100000
00000000
01000000
00000000
,
00010000
00000000
00001000
00000000
,
00000010
00000000
00000100
00000000
,
00001000
00000000
00000001
00000000
,
00001001
00000000
00000000
00000000
,
00001001
00000000
00000000
00000000
,
00000010
00000000
00000100
00000000
,
00000010
00000000
00000100
00000000
,
00010000
00010000
00000000
00001000
,
00100000
00100000
00000000
00010000
,
01000000
01000000
00000000
00001000
,
00010000
00010000
00000000
00000010
,
00001000
00001000
00000000
00000100
,
00010000
00010000
00000000
00001000
,
00100000
00100000
00000000
00010000
,
10000000
10000000
10000000
00000000
,
01000000
00000000
00010000
00000000
,
00001000
00000000
00000010
00000000
,
00000001
00000000
00000100
00000000
,
00001000
00000000
00010000
00000000
,
00100000
10000000
01000000
00000000
,
00010000
00000000
00001000
00000000
,
00100000
00000000
00010000
00000000
,
01000000
00000000
00001000
00000000
,
00010000
00000000
00000000
00000000
,
00000000
00000000
00000000
00000000
,
00001000
00000000
00000000
00000000
,
00000000
00000000
00000000
00000000
,
00010000
00000000
00000000
00000010
00000000
00000000
00000000
00000000
,
00001000
00000000
00000000
00100000
00000000
00000000
00000000
00000000
,
00010000
00000000
01000000
00000000
,
00001000
00000000
00010000
00010000
,
00001000
00000000
00000000
00100000
00000000
00000000
00000000
00000000
,
00010000
00000000
00000000
00000010
00000000
00000000
00000000
00000000
,
00001000
00000000
00000100
00000000
,
00010000
00000000
00001000
00001000
,
00100000
00000000
00000000
01000000
00000000
00000000
00000000
00000000
,
10000000
00000000
00000000
00010000
00000000
00000000
00000000
00000000
,
01000000
00000000
00001000
00000000
,
00010000
00000000
00000010
00000010
,
00001000
00000000
00000000
00000001
00000000
00000000
00000000
00000000
,
00000010
00000000
00000000
00000100
00000000
00000000
00000000
00000000
,
00010000
00000000
01000000
00000000
,
10000000
00000000
00010000
00010000
,
01000000
00000000
00001000
00000000
,
00010000
00000000
00000010
00000000
,
00001000
00000000
01000000
00000000
,
00010000
00000000
10000000
00000000
,
00100000
00100000
00000000
01000000
,
00001000
00001000
00000000
00010000
,
00000010
00000010
00000000
00001000
,
00000001
00000001
00000000
00000110
;

//---------------dance-double - ----------------
#NOTES:
     dance-double:
     :
     Medium:
     8:
     :
00000000
00000000
00000000
00000000
,
00000000
00000000
00000000
00000000
,
00010000
00000000
01000000
00000000
00001000
00010000
00000000
00000000
,
00000010
00000000
00001000
00000000
00000001
00000100
00000000
00000000
,
00000010
00000000
00001000
00000000
00000100
00000010
00000100
00000000
,
00001000
00000000
00000001
00000000
00000100
00000010
00000000
00000000
,
00001000
00000000
00000100
00000000
00010000
00001000
00000000
00000000
,
00100000
00000000
00010000
10000000
00000000
00000000
00000000
00000000
,
10000000
00000000
00010000
00000000
10000000
01000000
00010000
00000000
,
00001000
00000000
00000100
00000001
00000000
00000000
00000000
00001000
,
00000100
00000000
00000000
00000000
00000000
00000000
00000000
00010000
,
00001000
00000000
00000000
00000000
00000000
00000000
00000000
00100000
,
00010000
00000000
00000000
00000000
00000000
00000000
00000000
10000000
,
01000000
00000000
00000000
00000000
,
10000000
00000000
00010000
00000000
,
01000000
00000000
00001000
00000000
,
00010000
00000010
00001000
00000100
,
00010000
00001000
00100000
00000000
,
00001000
00010000
00000010
00001000
,
00000100
00010000
00001000
00000000
,
00100000
00000000
00000000
01000000
00000000
00000000
10000000
00000000
00000000
00000000
00000000
00000000
00000000
00000000
00000000
00000000
,
00100000
00000000
00000000
01000000
00000000
00000000
00010000
00000000
00000000
00000000
00000000
00000000
00000000
00000000
00000000
00000000
,
10000000
01000000
00100000
00010000
,
10000000
01000000
00100000
00010000
,
01000000
00000000
00001000
00010000
00001000
00000000
01000000
00000000
,
00010000
00000000
00100000
10000000
00100000
00000000
00010000
00000000
,
01000000
00000000
00001000
00010000
00001000
00000000
01000000
00000000
,
00100000
00010000
00001000
00000000
,
00000010
00000000
00001000
00000100
00001000
00000000
00000010
00000000
,
00010000
00000000
00000100
00000001
00000100
00000000
00010000
00000000
,
00000010
00000000
00001000
00000001
00001000
00000000
00000010
00000000
,
00010000
00001000
00100000
00000000
,
00010000
00000000
10000000
01000000
00010000
00000000
10000000
00000000
,
00010000
00000000
10000000
01000000
00010000
00000000
10000000
00000000
,
00100000
00000000
01000000
00010000
10000000
00000000
01000000
00000000
,
00100000
00000000
00010000
01000000
10000000
00000000
00010000
00000000
,
10000000
00000000
01000000
00010000
01000000
00000000
10000000
00000000
,
00010000
00000000
01000000
10000000
01000000
00000000
00010000
00000000
,
00100000
00001000
00010000
00000100
,
00001000
00000000
00000001
00000100
00001000
00000000
00000000
00000000
,
00000001
00000001
00000001
00000001
,
00001000
00000000
00001000
00000000
00001000
00000000
00001000
00000100
,
00010000
00010000
00010000
00010000
,
00001000
00001000
00001000
00001000
,
00100000
00000000
00000000
10010000
00000000
00000000
00000000
00000000
,
01000000
00000000
00000000
00011000
00000000
00000000
00000000
00000000
,
00000010
00000000
00001000
00000100
00001000
00000000
00000010
00000000
,
00000100
00000000
00000001
00000010
00000100
00000100
00000100
00000000
,
00001000
00000000
00000000
00011000
00000000
00000000
00000000
00000000
,
00100000
00000000
00000000
10010000
00000000
00000000
00000000
00000000
,
00100000
00000000
01000000
00010000
01000000
00000000
00100000
00000000
,
00010000
00000000
10000000
01000000
00100000
00100000
00100000
00000000
,
00010000
00000000
00000000
00011000
00000000
00000000
00000000
00000000
,
00000010
00000000
00000000
00001001
00000000
00000000
00000000
00000000
,
00000010
00000000
00000100
00001000
00000100
00000000
00000010
00000000
,
00000001
00000000
00001000
00000100
00010000
00010000
00010000
00000000
,
00001000
00000000
00000000
00110000
00000000
00000000
00000000
00000000
,
10000000
00000000
00000000
01001000
00000000
00000000
00000000
00000000
,
00010000
00000000
00000010
00001000
00000010
00000000
00010000
00000000
,
00001000
00000000
00100000
00010000
10000000
10000000
10000000
00000000
,
00100000
00000000
01000000
00001000
00010000
00000000
00000010
00000000
,
00001000
00000000
00000001
00000010
00000100
00000100
00000100
00000000
,
00001000
00000000
00000010
00010000
00001000
00000000
00100000
00000000
,
00010000
00000000
10000000
00100000
01000000
01000000
01000000
00000000
,
00010000
00000000
10000000
01000000
00100000
00100000
00100000
00000000
,
00010000
00000000
01000000
00100000
10000000
10000000
10000000
00000000
,
01000000
00000000
00100000
00010000
01000000
00000000
00001000
00010000
,
00000010
00000000
00001000
00000100
00000010
00000010
00000010
00000000
;

//---------------dance-double - ----------------
#NOTES:
     dance-double:
     :
     Hard:
     10:
     :
00000000
00000000
00000000
00000000
,
00000000
00000000
00000000
00000000
,
01000000
00000000
00100000
00010000
00100000
00000000
01000000
00000000
,
00010000
00000000
00001000
00100000
00001000
00000000
00010000
00000000
,
00000010
00000000
00001000
00000100
00001000
00000000
00000010
00000100
,
00000010
00000000
00001000
00000001
00001000
00000000
00000100
00000000
,
00000010
00000000
00000001
00000100
00000001
00000000
00000010
00000000
,
00000100
00001000
00000100
00010000
00000100
00000000
00001000
00000000
,
00000001
00000100
00000001
00001000
00000001
00000000
00000100
00000000
,
00000010
00001000
00000010
00000000
00000100
00000000
00000001
00000010
,
00000001
00000000
00000000
00001000
00000000
00000000
00000100
00000000
00000000
00010000
00000000
00000000
00001000
00000000
00000000
00000000
,
00100000
00000000
00000000
00010000
00000000
00000000
01000000
00000000
00000000
00001000
00000000
00000000
00010000
00000000
00000000
00000000
,
00000010
00000000
00000000
00001000
00000000
00000000
00000100
00000000
00000000
00000010
00000000
00000000
00000001
00000000
00000000
00000000
,
00000100
00000000
00000000
00000010
00000000
00000000
00001000
00000000
00000000
00000100
00000000
00000000
00010000
00000000
00000000
00000000
,
00001000
00000000
00100000
00010000
00100000
00000000
00001000
00000000
,
00010000
00000000
00000010
00001000
00000010
00000000
00010000
00000000
,
00000100
00000010
00000100
00001000
00000100
00000010
00000001
00000000
,
00001000
00000000
00000010
00000100
00000010
00000000
00001000
00000000
,
00000001
00000010
00000001
00001000
00000001
00000010
00000100
00000000
,
00010000
00000000
00001000
00100000
00001000
01000000
00001000
00000000
,
00010000
00000000
00000000
00000010
00000000
00000000
00001000
00000000
00000000
00000000
00000000
00000000
00000000
00000000
00000000
00000000
,
00000100
00000000
00000000
00000010
00000000
00000000
00000001
00000000
00000000
00000000
00000000
00000000
00000000
00000000
00000000
00000000
,
00001000
00000010
00000100
00000001
00000010
00000100
00001000
00000000
,
00000001
00000010
00000100
00001000
00000001
00000100
00000010
00000000
,
00001000
00000100
00001000
00000000
00000010
00000000
00000100
00000000
,
00001000
00010000
00001000
00000000
00100000
00000000
01000000
00000000
,
10000000
00100000
10000000
00000000
00010000
00000000
00100000
01000000
,
10000000
00010000
10000000
00000000
,
00100000
01000000
00100000
00000000
00010000
00000000
00001000
00000000
,
00000010
00000100
00000010
00000000
00000001
00000000
00000100
00000000
,
00000010
00001000
00000010
00000000
00000100
00000000
00001000
00010000
,
00100000
10000000
00010000
00000000
,
01000000
10000000
01000000
00010000
01000000
10000000
01000000
00000000
,
00010000
00000000
00100000
01000000
10000000
00000000
00000000
00000000
,
00010000
01000000
10000000
01000000
00010000
01000000
10000000
00000000
,
01000000
00000000
00010000
00100000
01000000
00000000
00000000
00000000
,
10000000
00000000
00010000
00000000
01000000
00001000
00010000
00000000
,
00000010
00000000
00001000
00000001
00001000
00000000
00000000
00000000
,
00000100
00000000
00000010
00000001
00000010
00000000
00000100
00000000
,
00001000
00000000
00000001
00000100
00000001
00000000
00000000
00000000
,
00001000
00000100
00000010
00000001
00000100
00000010
00001000
00000001
,
00000010
00000100
00001000
00000001
00000100
00000010
00001000
00000000
,
00000001
00000010
00000100
00001000
00000001
00000100
00000010
00000000
,
00001000
00000001
00000010
00000100
00001000
00000001
00000100
00000000
,
00000010
00000000
00000000
00001001
00000000
00000000
00000100
00010000
,
00001000
00000000
00000000
00110000
00000000
00000000
00000000
00000000
,
10000000
00100000
01000000
00100000
10000000
00100000
00010000
00100000
,
10000000
00100000
01000000
00100000
10000000
10000000
10000000
00000000
,
01000000
00000000
00000000
00110000
00000000
00000000
00001000
00010000
,
00000010
00000000
00000000
00001001
00000000
00000000
00000000
00000000
,
00000100
00000010
00000100
00000001
00000100
00001000
00000100
00000001
,
00000100
00000010
00000100
00000001
00001000
00001000
00001000
00000000
,
00000100
00000000
00000000
00011000
00000000
00000000
00100000
00010000
,
01000000
00000000
00000000
11000000
00000000
00000000
00000000
00000000
,
00100000
00010000
00100000
00001000
00100000
00010000
00100000
10000000
,
00100000
00010000
00100000
01000000
10000000
10000000
10000000
00000000
,
00010000
00000000
00000000
01001000
00000000
00000000
00010000
00000010
,
00001000
00000000
00000000
00000011
00000000
00000000
00000000
00000000
,
00000100
00001000
00000100
00000001
00000100
00000010
00000100
00010000
,
00000100
00000001
00000100
00001000
00000001
00000001
00000001
00000000
,
00000100
00000010
00000100
00000000
00000001
00000010
00000001
00000000
,
00001000
00000010
00001000
00000000
00000100
00010000
00000100
00000000
,
00001000
00000001
00001000
00000000
00000100
00000010
00000100
00000000
,
00001000
00000010
00001000
00000000
00000001
00000010
00000001
00000000
,
00000100
00000010
00001000
00000100
00010000
00001000
00100000
00000000
,
00010000
01000000
00001000
00010000
00000100
00000010
00000001
00000000
,
00001000
00000010
00000100
00001000
00010000
01000000
10000000
00010000
,
01000000
00100000
00010000
00001000
00000010
00000001
00001000
00000000
;
