#TITLE:DYNAMITE;
#ARTIST:E-ROTIC;
#BANNER:DYNAMITE-bn.png;
#BACKGROUND:DYNAMITE-bg.png;
#JACKET:DYNAMITE-jacket.png;
#MUSIC:DYNAMITE.ogg;
#OFFSET:0.95;
#SAMPLESTART:54.4;
#SAMPLELENGTH:20;
#DISPLAYBPM:150;
#BPMS:0=150;
#BGCHANGES:;

//---------------dance-single - ----------------
#NOTES:
     dance-single:
     :
     Beginner:
     3:
     :
0000
0000
0000
0000
,
0000
0000
0000
0000
,
0000
0000
0000
0000
,
0000
0000
0000
0000
,
0010
0000
0010
0000
,
1000
0000
0001
0000
,
0100
0000
0100
0000
,
0001
0000
1000
0000
,
0010
0000
0100
0000
,
0001
0000
1000
0000
,
1001
0000
0000
0000
,
0001
0000
0000
0000
,
1000
0000
0000
0000
,
0010
0000
0000
0000
,
1000
0000
0000
0000
,
0100
0000
0000
0000
,
0010
0000
0000
0000
,
0110
0000
0000
0000
,
0001
0001
0000
0000
,
1000
1000
0000
0000
,
0010
0010
0000
0000
,
0100
0100
0000
0000
,
0010
0010
0000
0000
,
1000
1000
0000
0000
,
0001
0001
0000
0000
,
0100
0100
0000
0000
,
1001
0000
0001
0000
,
1000
0000
0010
0000
,
1000
0000
0100
0000
,
0010
0000
0001
0000
,
0010
0010
0010
0000
,
0001
0000
1000
0000
,
0010
0000
0100
0000
,
0110
0000
1001
0000
,
0110
0000
0000
0000
,
0001
0001
0001
0000
,
0010
0000
0001
0000
,
0100
0100
0100
0000
,
0001
0000
1000
0000
,
0100
0100
0100
0000
,
0010
0000
0001
0000
,
1000
1000
1000
0000
,
0010
0000
1000
0000
,
0100
0100
0100
0000
,
1000
0000
1001
0000
,
0010
0000
0110
0000
,
0100
0000
1001
0000
,
0001
0001
0001
0000
,
0100
0000
0110
0000
,
0010
0000
1001
0000
,
1000
0000
0110
0000
,
0100
0100
0100
0000
,
0001
0000
0010
0000
,
0001
0000
0100
0000
,
1000
0000
0010
0000
,
1000
0000
0001
0000
,
0010
0000
0001
0000
,
0100
0000
0010
0000
,
1000
0000
0100
0000
,
1000
0000
0001
0000
,
0010
0000
0000
0000
,
0001
0000
0000
0000
,
1000
0000
0000
0000
,
0001
0000
0000
0000
,
0100
0000
0000
0000
;

//---------------dance-single - ----------------
#NOTES:
     dance-single:
     :
     Easy:
     7:
     :
0000
0000
0000
0000
,
0000
0000
0000
0000
,
0000
0000
0000
0000
,
0000
0000
0000
0000
,
0010
0001
1000
0000
,
0110
0000
1001
0000
,
0010
1000
0100
0000
,
1000
0001
0100
0000
,
0001
0010
0100
0000
,
1001
0000
0110
0000
,
1001
0000
0000
1000
,
1000
0000
0001
0000
,
0010
0000
0001
0000
,
0100
0000
0010
0000
,
1000
0100
0000
1000
,
0001
0100
0000
0010
,
1000
0001
0000
0100
,
0110
0000
1000
0001
,
0010
0001
1000
0001
,
0010
0100
1000
0010
,
1000
0100
0010
0001
,
0100
0001
0010
1000
,
0100
0010
0001
0100
,
1000
0001
0010
0100
,
1000
0010
0100
0001
,
1001
0000
0100
0010
,
0110
0000
0001
0100
,
0001
1000
0100
0100
,
1000
0001
0010
0001
,
0100
0010
1000
0001
,
0110
1001
0010
0010
,
1000
0001
1000
0100
,
0010
0001
1000
0001
,
1001
0000
0100
0010
,
0110
0000
0000
0000
,
1000
1000
1000
0000
,
0001
1000
0100
0010
,
0001
0001
0001
0000
,
0100
0010
1000
0001
,
0010
0010
0010
0000
,
0001
0100
1000
0010
,
0100
0100
0100
0000
,
0010
1000
0001
0100
,
0110
1001
0110
0000
,
1001
0100
0010
1000
,
0100
0010
0001
0100
,
0001
0010
1000
0100
,
1000
1000
0001
0001
,
1000
0010
1000
0001
,
0010
0001
0100
0010
,
1000
0100
0010
0001
,
0100
0100
0010
0010
,
0110
0001
1000
0010
,
1000
0100
1000
0001
,
0010
0001
0100
0010
,
1000
0100
1000
0010
,
0100
0001
0010
0100
,
1000
0010
1000
0001
,
0010
0001
0100
1000
,
0010
1000
0100
0001
,
1001
0000
0000
0010
,
0010
0000
0001
0000
,
1000
0000
0001
0000
,
0100
0000
0010
1000
,
0100
0000
0000
0000
;

//---------------dance-single - ----------------
#NOTES:
     dance-single:
     :
     Medium:
     10:
     :
0000
0000
0000
0000
,
0000
0000
0000
0000
,
0000
0000
0000
0000
,
0000
0000
0000
0000
,
0010
0001
1000
0001
0010
0000
0000
0101
,
0000
1100
0000
0101
0000
1100
0000
0000
,
1000
0001
0100
0001
1000
0000
0000
0010
,
0000
1000
0000
0100
0000
1000
0010
0000
,
0100
0001
0010
0001
0100
0000
0000
1010
,
0000
0011
0000
1010
0000
0011
0000
0000
,
1001
0000
0100
0000
0000
0000
0100
0010
,
1000
0000
0001
0000
0000
0000
0100
0010
,
0100
0000
0001
0000
0000
0000
1000
0010
,
1000
0000
0100
0000
0000
0000
0010
0001
,
0100
0000
0010
1000
0000
0001
1000
0000
,
0100
0000
0010
0001
0000
0100
0010
0000
,
1000
0000
0100
1000
0000
0001
0100
0000
,
0110
0000
0001
0000
0000
1000
0001
0000
,
0010
0000
0001
0100
0000
0010
1000
0000
,
0100
0000
0010
0001
0000
1000
0001
0000
,
0100
0000
0010
1000
0000
0100
0010
0000
,
0001
0000
0100
0001
0000
1000
0100
0000
,
0010
0000
0001
0100
0000
0010
1000
0000
,
0100
0000
0010
0001
0000
1000
0001
0000
,
1000
0000
0010
0100
0000
0001
1000
0000
,
1001
0000
0010
0100
0000
0001
1000
0000
,
0110
0000
0000
0000
0001
1000
0100
0000
,
0010
0001
0100
0000
0001
1000
0010
0000
,
1000
0000
0100
0000
1000
0001
0010
0000
,
0001
0000
1000
0000
0010
1000
0100
0000
,
1100
0000
0011
0000
0100
0001
1000
0000
,
0010
1000
0100
0000
1000
0001
0010
0000
,
0001
0100
0001
0000
0010
0100
1000
0000
,
1001
0000
0000
0000
1000
0001
0100
0000
,
0110
0001
0000
0001
,
0010
0000
0001
0100
1000
0000
0000
0000
,
0010
1000
0001
1000
0010
0000
0100
0001
,
0000
1100
0000
0101
0000
1000
0100
0000
,
1000
0010
0100
0010
1000
0000
0001
1000
,
0000
0011
0000
1010
0000
0100
0010
0000
,
0001
0100
0010
0100
0001
0000
1000
0010
,
0000
1001
0000
0110
0000
0010
1000
0000
,
0100
1000
0001
1000
0100
0000
0010
0001
,
0000
0101
0000
1010
0000
0010
0100
0000
,
0001
0010
0000
0011
0000
1100
0000
0100
,
1000
0001
0000
1010
0000
1100
0000
0100
,
0010
0001
0000
0110
0000
1001
0000
0100
,
0010
0101
0010
1100
,
1000
0001
0000
0101
0000
0011
0000
1000
,
0010
1000
0000
1001
0000
1010
0000
0100
,
0010
0001
0000
0011
0000
0110
0000
1000
,
0100
0011
0100
1010
,
1001
0000
1000
0001
1000
0000
0010
0100
,
0001
0000
0010
0100
0000
0100
1000
0000
,
0001
0000
1000
0001
0000
0100
0010
0000
,
0100
0000
0010
1000
0000
0100
0010
0000
,
0001
0000
1000
0001
0000
0010
0100
0000
,
0010
0000
0001
0100
0000
0001
1000
0000
,
0010
0000
1000
0100
0000
0001
1000
0000
,
0010
0000
1000
0001
0000
0010
0100
0000
,
1001
0000
0000
0010
0000
0000
1000
0001
,
1000
0000
0000
0100
0000
0000
0010
0001
,
0100
0000
0000
0001
0000
0000
1000
0010
,
1000
0000
0000
0001
0000
0000
0100
0010
,
0100
0000
0000
0000
;

//---------------dance-single - ----------------
#NOTES:
     dance-single:
     :
     Hard:
     13:
     :
0000
0000
0000
0000
,
0000
0000
0000
0000
,
0000
0000
0000
0000
,
0000
0000
0000
0000
,
0010
0001
1000
0001
0100
0000
0010
1010
,
0000
0001
0000
0101
0000
1000
0100
0010
,
0001
1000
0001
0100
0010
0000
1000
0001
,
0000
0010
0001
0100
0000
0010
1000
0001
,
0100
0001
0010
0100
1000
0000
0010
0110
,
0000
0000
0001
0000
0000
0000
1001
0000
0000
0000
0100
0000
0000
0000
0001
1000
,
0001
0000
0010
0001
0000
1000
0010
0100
,
0001
0000
1000
0010
0000
0100
0010
1000
,
0100
0000
1000
0010
0000
0100
0001
1000
,
0001
0000
0010
0100
0000
0010
0001
1000
,
1001
0000
0010
1000
0000
0100
1000
0001
,
0010
0000
0001
0100
0000
0010
1000
0001
,
0010
0000
0001
0100
0000
0010
1000
0001
,
0011
0000
0100
0010
0000
1000
0001
1000
,
0010
0100
0001
0010
1000
0010
0100
0010
,
0001
0100
0010
0001
0010
1000
0010
0100
,
0010
1000
0001
0010
1000
0010
0100
1000
,
0001
1000
0010
0100
0010
0001
0010
1000
,
0100
0010
0001
0100
1000
0100
0010
0100
,
1000
0100
0001
0010
0001
0100
1000
0100
,
0010
0100
0001
0010
1000
0010
0001
0100
,
0110
0000
1000
0001
0000
0001
0010
0100
,
1100
0000
0000
0000
0000
0000
0001
0000
1000
0000
0001
0100
0000
0000
0000
0000
,
0010
0000
1000
0000
0010
0000
0100
0000
0010
0000
1000
0001
0000
0000
0100
0000
,
0001
0000
0010
0000
0001
0000
1000
0000
0010
0000
0100
0001
0000
0000
0000
0000
,
1000
0000
0100
0000
0010
0000
0100
0000
1000
0000
0001
0100
0000
0000
0000
0000
,
0101
0000
0000
0000
1100
0000
0001
0000
1000
0000
0100
0010
0000
0000
0001
0000
,
0001
0000
1000
0000
0010
0000
1000
0000
0100
0000
0010
0001
0000
0000
0000
0000
,
0100
0000
0001
0000
0010
0000
1000
0000
0010
0000
0001
0100
0000
0010
1000
0000
,
1001
0000
0000
0000
0000
0000
0001
0000
0010
0000
0001
1000
0000
0000
0100
0000
,
0110
0000
0001
0000
0000
1000
0001
0100
,
0000
0100
0010
0100
0010
0000
0000
1000
,
1000
0010
0100
0001
0010
0001
0100
0101
,
0000
1100
0000
1010
0000
0001
1000
0001
,
0100
1000
0100
0001
0010
0100
1000
1001
,
0000
0110
0000
1010
0000
0100
1000
0001
,
0010
1000
0010
0001
0010
0100
1000
0001
,
0000
0100
0010
1000
0000
0100
0010
0001
,
1000
0010
0001
0010
1000
0100
0010
0011
,
0000
0100
0010
1010
0000
0001
0100
0010
,
1000
0000
0001
0000
1000
0000
0100
0000
0000
0000
1100
0000
0000
0000
0001
0010
,
0001
0000
0100
0000
0010
0000
1000
0000
0000
0000
0101
0000
0000
0000
0010
1000
,
0010
0100
0001
1000
0000
0100
0100
0010
,
0011
0101
1010
1100
,
1001
0000
0010
0000
1000
0000
0001
0000
0000
0000
0011
0000
0000
0000
0100
1000
,
0100
0000
0010
0000
0001
0000
1000
0000
0000
0000
0110
0000
0000
0000
0001
0100
,
0001
1000
0100
0010
0000
0011
0000
0100
,
0101
1100
1010
0011
,
0110
1000
0010
0100
1000
0100
0001
0010
,
1000
0010
0100
0010
0001
0100
0010
0001
,
0010
1000
0100
0010
0001
0100
1000
0100
,
0001
0010
0100
1000
0010
0001
0010
0100
,
0010
0001
0010
1000
0100
0010
1000
0010
,
0001
0100
0010
0001
0010
1000
0100
0010
,
0001
0100
1000
0100
0010
0100
1000
0100
,
0001
0010
0100
0001
0100
0010
0100
1000
,
1001
0000
0010
1000
0000
0010
1000
0001
,
0010
0000
0001
0100
0000
0001
1000
0010
,
0100
0000
0010
1000
0000
0100
1000
0001
,
0100
0000
0010
1000
0000
0001
0010
0001
,
0100
0000
0000
0000
;

//---------------dance-single - ----------------
#NOTES:
     dance-single:
     :
     Challenge:
     14:
     :
0000
0000
0000
0000
,
0000
0000
0000
0000
,
0000
0000
0000
0000
,
0000
0000
0000
0000
,
0010
0001
1000
0010
0100
0001
1000
1100
,
0000
0110
0000
0011
0000
0100
0001
1000
,
0010
0100
0001
0010
0001
1000
0100
0110
,
0000
0001
1000
1010
0000
0010
0100
0001
,
1000
0001
0010
0100
1000
0010
1000
1010
,
0000
0000
1001
0000
0000
0000
0101
0000
0000
0000
0110
0000
0000
0000
1000
0001
,
1000
0000
0010
0100
0000
0010
1000
0001
,
0010
0000
0001
0100
0000
0010
1000
0100
,
1000
0000
0001
0010
0000
0001
0100
0010
,
1000
0000
0100
1000
0000
0001
0010
0100
,
1001
0000
0000
1000
0010
0000
0100
0000
0000
0000
0001
0000
0010
0000
0100
0000
,
1000
0000
0000
0010
0100
0000
0001
0000
0000
0000
0010
0000
0001
0000
1000
0010
,
1000
0000
0000
0001
1000
0000
0010
0000
0000
0000
0100
0000
0001
0000
1000
0000
,
0110
0000
1000
1000
0000
1001
0110
0100
,
0001
0000
0010
0001
0100
0000
0010
1000
0100
0000
1000
0000
0001
0000
0010
0000
,
0100
0000
1000
0001
0100
0000
0010
1000
0001
0000
0100
0000
0010
0000
1000
0000
,
0100
0000
0010
0001
1000
0000
0001
0100
0010
0000
1000
0000
0100
0000
0001
0000
,
0100
0000
1000
0010
1000
0000
0001
0010
0001
0000
0100
0000
1000
0000
0100
0000
,
0001
0000
0010
0100
1000
0000
0001
0100
0010
0000
1000
0000
0100
0000
0001
0000
,
0100
0000
0010
0001
1000
0000
0100
1000
0010
0000
0100
0000
0001
0000
1000
0000
,
0010
0000
0100
0001
0010
0000
0001
0100
0010
0000
1000
0000
0001
0000
0100
0010
,
1000
0000
0000
0000
1010
0000
0100
0000
0001
1000
0001
0000
0010
0000
0100
1000
,
0001
0000
0010
0000
0001
0000
0100
0000
0001
1000
0001
0000
1000
0100
1000
0000
,
0010
0000
0001
0000
0010
0000
1000
0000
0100
0010
0100
0000
1000
0001
1000
0000
,
0010
0000
1000
0000
0001
0000
0010
0000
0100
1000
0100
0000
1000
0001
1000
0000
,
0010
0000
0100
0000
0001
0000
0010
0000
0001
1000
0001
0000
1000
0100
1000
0000
,
0010
0000
0100
0000
1000
0000
0100
0000
0001
0010
0001
0000
1000
0001
1000
0000
,
0100
0000
0001
0000
0100
0000
1000
0000
0010
0100
0010
0000
1000
0001
1000
0000
,
0100
0000
0010
0000
0001
0000
1000
0000
0100
1000
0100
0000
0010
0001
0010
0000
,
0100
0000
0001
0000
0100
0000
1000
0000
0010
0100
0010
0000
1000
0001
1000
0001
,
0100
0000
0110
0000
0000
0010
1000
0001
,
0100
0010
0100
0010
0100
0000
0001
0000
0011
0000
0000
0000
0000
0000
1000
0000
,
0010
0000
0100
0001
0100
0000
0010
1000
0001
0000
0100
0000
1000
0000
0100
0000
,
0010
0100
1000
0100
0001
0010
1000
0010
,
0001
0000
1000
0010
1000
0000
0100
0010
0001
0000
0100
0000
1000
0000
0100
0000
,
0010
0100
1000
0100
0001
1000
0010
0100
,
0001
0000
1000
0100
1000
0000
0001
0010
0100
0000
1000
0000
0001
0000
0100
0000
,
0010
0001
0010
1000
0010
0100
0001
1000
,
0100
0000
0010
0001
0010
0000
0001
1000
0100
0000
0010
0000
1000
0000
0010
0000
,
0001
0000
0100
0000
0010
0000
1000
0000
0100
0000
0010
0001
1000
0001
1000
0001
,
0100
0000
0010
0000
0001
0000
0010
0000
1000
0000
0010
0000
0100
0000
0010
1000
,
0001
0000
0010
0000
1000
0000
0010
0000
0100
0000
0010
0000
1000
0000
0010
0001
,
1000
0000
0010
0000
0001
0000
0010
0000
1000
0000
0001
0000
0100
0000
0010
1000
,
0001
0100
0010
0100
1000
0100
0010
0100
,
0001
0000
0010
0000
1000
0000
0010
0000
0100
0000
0010
0000
1000
0000
0010
0001
,
0100
0000
0010
0000
0001
0000
0010
0000
1000
0000
0001
0000
0010
0000
0001
1000
,
0100
0000
0001
0000
0100
0000
1000
0000
0010
0000
0100
0000
1000
0000
0100
0001
,
0010
0100
1000
0010
1000
0001
1000
0100
,
0010
0000
0001
1000
0001
0000
0100
0000
0010
0000
1000
0000
0100
0000
0001
0000
,
0100
0000
0010
0100
1000
0000
0001
0000
0100
0000
0010
0000
1000
0000
0001
0000
,
0100
0000
1000
0100
0001
0000
0010
0000
0001
0000
1000
0000
0100
0000
0010
0000
,
1000
0000
0010
0001
1000
0000
0010
0000
0100
0000
1000
0000
0100
0000
0001
0000
,
0010
0000
0001
1000
0001
0000
1000
0010
0100
0000
1000
0000
0100
0000
0001
0000
,
0010
0000
0100
0010
0001
0000
1000
0100
1000
0000
0010
0000
0001
0000
0010
0000
,
1000
0000
0100
1000
0010
0000
0100
0001
0010
0000
1000
0000
0010
0000
0100
0000
,
1000
0000
0001
0100
0001
0000
0010
0100
1000
0000
0010
0100
0001
0000
1000
0010
,
1000
0000
0001
0010
0000
0001
0100
0010
,
1000
0000
0100
1000
0000
0001
0010
0001
,
0100
0000
0001
0010
0000
0100
1000
0010
,
0100
0000
0010
1000
0000
1000
0001
0010
,
0100
0000
0000
0000
;
