#TITLE:DREAM A DREAM;
#SUBTITLE:(Cheeky Radiomix 2019);
#ARTIST:CAPTAIN JACK;
#TITLETRANSLIT:;
#SUBTITLETRANSLIT:;
#ARTISTTRANSLIT:;
#GENRE:;
#CREDIT:;
#BANNER:DREAM A DREAM (Cheeky Radiomix 2019)-bn.png;
#BACKGROUND:DREAM A DREAM (Cheeky Radiomix 2019)-bg.png;
#LYRICSPATH:;
#CDTITLE:;
#MUSIC:DREAM A DREAM (Cheeky Radiomix 2019).ogg;
#OFFSET:0.000000;
#SAMPLESTART:25.945999;
#SAMPLELENGTH:20.000000;
#SELECTABLE:YES;
#DISPLAYBPM:148.000000;
#BPMS:0.000000=148.000000
;
#STOPS:
;
#BGCHANGES:;
#KEYSOUNDS:;
#ATTACKS:;

//---------------dance-single - ----------------
#NOTES:
     dance-single:
     :
     Challenge:
     14:
     0.697697,0.764799,0.448234,0.317499,0.224117,523.000000,475.000000,48.000000,34.000000,0.000000,0.000000,0.697697,0.764799,0.448234,0.317499,0.224117,523.000000,475.000000,48.000000,34.000000,0.000000,0.000000:
0000
0000
0000
0000
,
0000
0000
0000
0000
,
0000
0000
0000
0000
,
0000
0000
0000
0000
,
1001
0000
0101
0000
0011
0000
0100
0010
,
1000
1000
1000
0001
0001
0100
0010
0100
,
0001
0001
0001
0010
0010
0100
1000
0100
,
2000
3002
0203
0320
0000
1030
0000
1010
,
0110
0100
0001
1000
0001
0010
0100
1000
,
0010
0000
1000
0000
0100
0000
1000
0000
0001
0000
1000
0000
0010
0000
0100
0001
,
0100
0000
0100
0000
0010
0000
0010
0000
1000
0000
0000
0000
0001
0000
1000
0001
,
2000
0000
3200
0000
0320
0000
0032
0000
0000
0000
0103
0000
0001
1000
0001
1000
,
0001
0000
0010
0000
0100
0000
1000
0001
1000
0000
0100
0000
0010
0000
0001
1000
,
0001
0001
1000
1000
0010
0010
0100
0100
,
0000
0001
0001
0001
0100
0100
1000
1000
,
2200
0000
0000
0000
0000
0000
3300
0000
0000
0000
1000
0001
1000
0000
0000
0000
0100
0000
0100
0000
0000
0000
0000
0000
,
0010
1000
0010
0001
0010
1000
0010
0001
,
0010
0000
1000
0000
0100
0000
0010
0000
0100
0000
1000
0000
0001
0000
0100
0001
,
1000
0000
0001
0000
0101
0000
0100
0000
0110
0000
0000
0000
1010
0000
0001
1000
,
0200
0000
0320
0000
0032
0000
2003
0000
0000
0000
3010
0000
1000
0000
0001
0100
,
0010
0001
0010
1000
0010
0001
0010
1000
,
0010
0000
0100
0000
0001
0000
1000
0000
0100
0000
0010
0000
0001
0000
1000
0001
,
0100
0001
0001
0001
0011
1000
1001
0100
,
1100
0000
1000
0001
0000
0001
0010
0100
1000
0010
1000
0010
1000
0000
1010
0000
,
0101
0010
1000
0001
0100
0010
1000
0001
,
0010
0000
0100
0000
0010
0000
0001
0000
0100
0000
0001
0000
1000
0000
0100
1000
,
0010
0100
0001
0100
0010
1000
0001
1000
,
0002
0000
2003
0000
3020
0000
0230
0000
0000
0000
0301
0000
0010
0000
0100
1000
,
0010
0000
0100
0000
0010
0000
1000
0000
0100
0000
0010
0000
0001
0000
1000
0001
,
0100
0000
0001
0000
1000
0000
0001
0100
0010
0000
1000
0000
0100
0000
1000
0010
,
0000
0100
0100
0100
0010
0010
1000
1000
,
2002
0000
0000
0000
0000
0000
3003
0000
0000
0000
1000
0001
1000
0000
0000
0000
0100
0000
0100
0000
0000
0000
0000
0000
,
0110
0010
0100
0001
1000
1100
0011
0000
,
0100
0000
0001
0000
0010
0000
0100
0000
1000
0000
0001
0010
0001
0000
1000
0000
,
0100
0000
1020
0000
0100
0000
0000
0000
1030
0001
1000
0001
1000
0000
0000
0000
,
0010
0000
0100
0000
0001
0000
1000
0001
0010
0000
0011
0000
0101
0000
0000
0000
,
1100
1000
0001
0100
0010
0110
1001
0000
,
1000
0001
0010
0100
1100
1010
1001
0000
,
0101
0001
1000
0100
0010
0011
0110
0000
,
1000
0000
0010
0000
0010
0100
0001
0000
2000
0000
0100
0000
3001
0000
0000
0000
,
1000
0000
0001
0000
0010
0000
0100
0000
1000
0001
0100
0000
0010
0000
0100
0000
,
0001
0000
0010
0000
0100
0000
1000
0000
0100
0010
0001
0000
0100
0000
1000
0000
,
0001
0000
1000
0000
0010
0000
0100
0000
0001
0010
0100
0000
1000
0000
0001
0000
,
0100
0000
0010
0000
0100
0000
0001
0000
0100
0010
1000
0000
0001
0000
1000
0000
,
0100
0000
0010
0000
0001
0000
0010
0000
0100
1000
0010
0000
1000
0000
0001
0000
,
0100
0000
0010
0000
1000
0000
0001
0000
0010
0001
0100
0000
0010
0000
1000
0000
,
0001
0000
1000
0000
0100
0000
1000
0000
0100
0010
0001
0000
1000
0000
0010
0000
,
0000
1010
1001
1100
0011
0101
0110
0000
,
0101
0000
1100
0000
0011
0000
0100
0010
,
0100
0100
0100
0001
0001
1000
0010
1000
,
0001
0001
0001
1000
1000
0010
0100
0010
,
2000
3020
0230
0302
0000
0010
0000
0103
,
1010
0000
1001
0000
0110
0000
0001
1000
,
0100
0100
0100
1000
1000
0010
0100
0001
,
0010
0010
0010
0100
0100
1000
0001
0100
,
0002
0023
0230
2300
0000
3100
0000
1100
,
0101
1000
0100
0010
0001
0100
0010
1000
,
0100
0000
0010
0000
0100
0000
1000
0000
0010
0000
1000
0000
0001
0000
1000
0001
,
0010
0000
0001
0000
0011
0000
1000
0000
1010
0000
0000
0000
0100
0000
1000
0100
,
0020
0000
0230
0000
2300
0000
3002
0000
0000
0000
0103
0000
0001
1000
0100
1000
,
0001
0000
0100
0000
0010
0000
1000
0010
0001
0000
0010
0000
1000
0000
0100
0010
,
0001
0000
0100
0000
0001
0000
0100
0000
0010
1000
0010
1000
0001
1000
0010
0100
,
0000
0110
0100
0001
1000
0100
1000
0001
,
1001
0000
0000
0000
;

//---------------dance-single - ----------------
#NOTES:
     dance-single:
     :
     Hard:
     12:
     0.525607,0.558891,0.028015,0.382866,0.032684,394.000000,391.000000,3.000000,41.000000,0.000000,0.000000,0.525607,0.558891,0.028015,0.382866,0.032684,394.000000,391.000000,3.000000,41.000000,0.000000,0.000000:
0000
0000
0000
0000
,
0000
0000
0000
0000
,
0000
0000
0000
0000
,
0000
0000
0000
0000
,
2000
0000
3020
0000
0230
0000
0310
1000
,
0001
1000
0100
1000
0002
0000
0103
0010
,
1000
0001
0100
0001
2000
0000
3100
0010
,
0001
1000
0010
0100
0000
0000
0000
0020
,
1030
0100
0010
0001
0000
0100
0100
0100
,
0001
0010
0100
0000
1000
0010
0100
0000
,
0001
0010
0100
0010
0002
0000
1003
0100
,
0010
0100
1000
0001
0000
1000
0000
0200
,
0310
0100
0001
1000
0000
0010
0010
0010
,
1000
0001
0100
0000
0001
0010
0100
0000
,
0000
1000
0001
0010
0100
0010
0001
1000
,
2002
0000
0000
3003
0000
1000
0010
0000
0100
0001
0000
0000
,
1000
0010
0100
0001
1000
0100
0010
0001
,
0000
0010
0100
1000
0000
0010
0100
0001
,
2000
0100
3200
0000
2300
0000
3010
0100
,
0001
0010
0100
1000
0000
0010
1000
0001
,
0100
0001
1000
0010
0100
0010
1000
0001
,
0000
1000
0100
0010
0000
1000
0001
0100
,
0000
0001
0001
0100
0010
1000
0100
0010
,
0001
0000
0100
0010
0000
0100
0001
0100
0002
0000
1000
0000
1003
0000
0020
0000
,
0130
0010
1000
0001
1000
0100
0010
0001
,
0100
0001
0010
0100
0000
1000
0001
1000
,
0010
0100
0001
1000
0200
0000
1300
0010
,
1000
0100
0010
0001
0000
0100
0000
0002
,
1003
0100
0010
0001
0100
0010
1000
0001
,
0010
0100
1000
0100
1000
0001
0010
0001
,
0000
0100
0010
1000
0001
1000
0010
0100
,
0220
0000
0000
0330
0000
1000
0010
0000
0100
0001
0000
0000
,
0010
0001
1000
0001
0100
0100
0100
0000
,
0010
1000
0100
0000
0010
0001
0100
0000
,
0001
1000
0100
1000
0010
0010
0010
0000
,
1000
0100
0001
0000
1000
0010
0001
0000
,
0100
0010
1000
0010
0001
0001
0001
0000
,
0010
1000
0100
0000
1000
0001
0100
0000
,
0001
0010
0100
0010
1000
1000
1000
0000
,
0010
0001
0100
0000
0001
0100
1000
0000
,
0001
0100
1000
0100
0001
0010
0100
2000
,
0000
0010
3010
0100
0002
0000
1003
0100
,
1000
0100
0001
0100
1000
0010
0100
0002
,
0000
1000
1003
0001
0200
0000
0301
0010
,
0001
0010
1000
0010
0001
1000
0010
0200
,
0000
0001
0301
1000
0020
0000
1030
0100
,
1000
0010
0001
0010
1000
0100
0010
0002
,
0000
0100
0103
0002
2000
0000
3003
0000
,
0020
0000
2030
0000
3002
0000
1003
0010
,
0100
0001
0010
0001
0200
0000
0301
1000
,
0100
1000
0001
1000
0200
0000
1300
0010
,
1000
0100
0010
0001
0000
0000
0000
0000
,
0020
0000
0032
0000
0203
0000
0301
0010
,
1000
0001
0100
0001
2000
0000
3100
0010
,
0001
0100
0010
0100
0002
0000
0013
0100
,
1000
0010
0100
0001
0000
0000
0000
2000
,
3100
0010
0001
1000
0000
1000
1000
1000
,
0001
0100
1000
0000
0001
0010
1000
0000
,
0100
0010
0100
1000
0002
0000
0013
0001
,
0100
0010
1000
0001
0000
0010
0000
0002
,
0103
0001
1000
0010
0000
0100
0100
0100
,
0001
0010
0100
1000
0001
0010
0100
1000
,
0000
0100
1000
0001
1000
0100
1000
0001
,
1001
0000
0000
0000
;

//---------------dance-single - ----------------
#NOTES:
     dance-single:
     :
     Medium:
     9:
     0.436227,0.470645,0.224117,0.205440,0.004669,327.000000,303.000000,24.000000,22.000000,0.000000,0.000000,0.436227,0.470645,0.224117,0.205440,0.004669,327.000000,303.000000,24.000000,22.000000,0.000000,0.000000:
0000
0000
0000
0000
,
0000
0000
0000
0000
,
0000
0000
0000
0000
,
0000
0000
0000
0000
,
0020
0230
0320
0230
,
0301
0000
1000
0100
1000
0000
0001
0000
,
0100
0000
0010
1000
0010
0000
0100
0000
,
0001
0010
0100
1000
0000
0000
0000
0000
,
1000
0100
1000
0000
0001
0100
0001
0000
,
0010
0011
0100
1100
,
0001
1000
0100
1000
0001
0000
0100
0000
,
0010
0100
0001
1000
0000
0000
0000
0000
,
1000
0100
1000
0000
0001
0100
0001
0000
,
1000
0010
1000
0000
0001
0010
0001
0000
,
0000
1000
0100
1000
0001
0000
0100
0000
,
0220
0300
0001
1030
,
0010
0100
0001
1000
0000
1000
0100
1000
,
0000
0001
0000
0010
0000
0100
0000
1000
,
0010
1010
0101
0100
,
0001
0010
0100
1000
0000
0010
0000
0100
,
0001
1000
0001
0100
0000
0010
0100
0010
,
0000
1000
0000
0100
0000
0010
0000
0001
,
0000
0100
0010
1000
0010
0000
0100
0000
,
0001
0000
0000
0001
0000
0000
1000
0000
0200
0000
0010
0000
0310
0000
0000
0000
,
1000
0100
0010
0000
0100
0010
0001
0000
,
0100
0001
1000
0000
0100
1000
0001
0000
,
1001
0000
0001
0100
1000
0000
0010
0000
,
1000
0001
0100
0010
0000
0100
0000
0010
,
0000
1000
0100
1000
0000
0001
0100
0001
,
0000
0010
0000
0100
0000
0001
0000
1000
,
0000
0100
0010
0100
1000
0000
0001
0000
,
0220
0030
1000
0301
,
1002
0000
0103
0000
0001
1000
0001
0000
,
0010
0000
0100
0000
1000
0001
0100
0001
,
0000
1020
0100
0000
1030
0100
1000
0000
,
0001
0000
1000
0000
0010
1000
0001
0000
,
2100
0000
3001
0000
0100
0010
1000
0000
,
0100
0000
0011
0000
1000
0001
0010
0000
,
0201
0000
0310
0000
0100
0001
1000
0000
,
0001
0100
0100
0010
1000
0001
0100
0000
,
0001
0010
0001
0010
0001
0000
1010
0000
,
0100
1000
0100
1000
0100
0000
0011
0000
,
1000
0001
1000
0001
1000
0000
1100
0000
,
0010
0100
0010
0100
0010
0000
0011
0000
,
1000
0100
0010
0100
1000
0000
0110
0000
,
0100
0001
1000
0001
0100
0000
1001
0000
,
0010
1000
0001
1000
0010
0000
0000
0020
,
0000
0000
0130
0010
0100
0000
0000
0000
,
0002
2003
3002
2003
,
3010
0000
0100
0001
0100
0000
0010
0000
,
1000
0000
0100
0010
0100
0000
1000
0000
,
0001
1000
0010
0100
0000
0000
0000
0000
,
0020
2030
3002
0203
,
0310
0000
1000
0001
1000
0000
0010
0000
,
1000
0000
0001
0100
0001
0000
1000
0000
,
0001
0010
0100
1000
0000
0000
0000
0000
,
0010
1000
0010
0000
1000
0001
1000
0000
,
0101
1100
1010
0011
,
0010
0000
1000
0100
1000
0000
0001
0000
,
1000
0100
0010
0001
0000
0000
0000
0000
,
0100
0001
0100
0000
0100
1000
0100
0000
,
0010
0001
0010
0000
0010
1000
0010
0000
,
0000
1000
0100
0010
0001
0000
0110
0000
,
1001
0000
0000
0000
;

//---------------dance-single - ----------------
#NOTES:
     dance-single:
     :
     Easy:
     5:
     0.265472,0.294153,0.037353,0.000000,0.000000,199.000000,195.000000,4.000000,0.000000,0.000000,0.000000,0.265472,0.294153,0.037353,0.000000,0.000000,199.000000,195.000000,4.000000,0.000000,0.000000,0.000000:
0000
0000
0000
0000
,
0000
0000
0000
0000
,
0000
0000
0000
0000
,
0000
0000
0000
0000
,
0100
0000
0100
0000
,
0001
0100
1000
0000
,
1000
0100
0001
0000
,
1000
0001
1000
0000
,
0001
0001
0001
0001
,
1000
1000
1000
1000
,
0010
0010
0100
0100
,
0010
1000
0100
0000
,
1000
1000
0100
0100
,
0010
0010
0001
0001
,
0000
0010
0100
0001
,
1000
0000
0110
1001
,
0010
1000
0010
1000
,
0000
0100
0000
0100
,
1000
0001
0010
0000
,
0010
0001
1000
0000
,
0001
0100
0001
0100
,
0000
1000
0000
1000
,
0000
1000
0100
0010
,
0001
0001
1000
1000
,
0010
0010
0010
0010
,
0100
0100
0100
0100
,
0001
0001
1000
1000
,
0001
0100
1000
0000
,
0001
0001
0010
0010
,
0100
0100
1000
1000
,
0000
0001
1000
0010
,
0100
0000
1001
0110
,
1000
0100
1000
1000
,
0000
0001
0000
0001
,
0100
0010
0100
0100
,
0000
0001
0000
0001
,
1000
0001
0100
0100
,
0000
0010
0000
0010
,
0100
0001
0010
0010
,
0000
1000
0000
1000
,
0001
0001
0001
1000
,
0100
0010
0100
1000
,
0010
0010
0010
1000
,
0100
1000
0001
0100
,
1000
1000
1000
0001
,
0010
0001
0100
0010
,
0100
0100
0100
0010
,
0000
0000
0000
0000
,
1000
0000
1000
0000
,
0100
0010
0001
0000
,
0001
0010
0100
0000
,
1000
0010
1000
0000
,
0001
0000
0001
0000
,
0100
0010
1000
0000
,
1000
0010
0100
0000
,
0001
0010
0001
0000
,
0100
0100
0100
0100
,
0010
0010
0010
0010
,
1000
1000
0001
0001
,
0010
0100
1000
0000
,
0010
0010
0100
0100
,
0001
0001
1000
1000
,
0000
0001
0010
0100
,
1000
0000
0000
0000
;

//---------------dance-single - ----------------
#NOTES:
     dance-single:
     :
     Beginner:
     2:
     0.122731,0.176492,0.028015,0.000000,0.000000,92.000000,89.000000,3.000000,0.000000,0.000000,0.000000,0.122731,0.176492,0.028015,0.000000,0.000000,92.000000,89.000000,3.000000,0.000000,0.000000,0.000000:
// measure 0
0000
0000
0000
0000
,  // measure 1
0000
0000
0000
0000
,  // measure 2
0000
0000
0000
0000
,  // measure 3
0000
0000
0000
0000
,  // measure 4
0001
0000
0000
0000
,  // measure 5
1000
0000
0000
0000
,  // measure 6
0010
0000
0000
0000
,  // measure 7
0100
0000
0000
0000
,  // measure 8
0001
0000
0001
0000
,  // measure 9
0100
0000
0000
0000
,  // measure 10
1000
0000
1000
0000
,  // measure 11
0100
0000
0000
0000
,  // measure 12
0001
0000
0010
0000
,  // measure 13
0100
0000
1000
0000
,  // measure 14
0000
0000
0000
0000
,  // measure 15
1001
0000
0000
0000
,  // measure 16
0100
0100
0000
0000
,  // measure 17
0001
0000
1000
0000
,  // measure 18
0010
0000
0010
0000
,  // measure 19
0010
0000
0000
0000
,  // measure 20
1000
1000
0000
0000
,  // measure 21
0100
0000
0010
0000
,  // measure 22
0001
0000
0001
0000
,  // measure 23
0001
0001
0001
0000
,  // measure 24
0010
0010
0000
0000
,  // measure 25
0001
0000
1000
0000
,  // measure 26
0100
0000
0100
0000
,  // measure 27
1000
0000
0000
0000
,  // measure 28
1000
1000
0000
0000
,  // measure 29
0001
0000
0010
0000
,  // measure 30
0000
0000
0000
0000
,  // measure 31
1001
0000
0000
0000
,  // measure 32
0010
0000
0010
0000
,  // measure 33
0000
0000
1000
0000
,  // measure 34
0000
0000
0001
0000
,  // measure 35
0000
0000
0010
0000
,  // measure 36
0100
0000
0100
0000
,  // measure 37
0000
0000
0001
0000
,  // measure 38
1000
0000
1000
0000
,  // measure 39
0000
0000
0001
0000
,  // measure 40
1000
0000
0100
0000
,  // measure 41
1000
0000
0100
0000
,  // measure 42
0010
0000
0001
0000
,  // measure 43
0010
0000
0001
0000
,  // measure 44
0100
0000
0001
0000
,  // measure 45
1000
0000
0100
0000
,  // measure 46
0010
0000
0001
0000
,  // measure 47
1000
0000
0000
0000
,  // measure 48
0010
0000
0000
0000
,  // measure 49
0100
0000
0000
0000
,  // measure 50
0001
0000
0000
0000
,  // measure 51
1000
0000
0000
0000
,  // measure 52
1000
0000
0000
0000
,  // measure 53
0010
0000
0000
0000
,  // measure 54
0001
0000
0000
0000
,  // measure 55
0100
0000
0000
0000
,  // measure 56
0010
0000
0010
0000
,  // measure 57
0100
0000
0100
0000
,  // measure 58
0001
0000
0001
0000
,  // measure 59
0001
0000
0000
0000
,  // measure 60
1000
0000
0100
0000
,  // measure 61
0010
0000
0001
0000
,  // measure 62
0000
0000
0000
0000
,  // measure 63
1001
0000
0000
0000
;
