#TITLE:DO ME (H.I.G.E.O. MIX);
#ARTIST:MUSTACHE MEN;
#BANNER:DO ME (H.I.G.E.O. MIX).png;
#BACKGROUND:DO ME (H.I.G.E.O. MIX)-bg.png;
#JACKET:DO ME (H.I.G.E.O. MIX)-jacket.png;
#MUSIC:DO ME (H.I.G.E.O. MIX).ogg;
#SAMPLESTART:38.769;
#SAMPLELENGTH:20;
#DISPLAYBPM:130;
#BPMS:0=130.002;
#BGCHANGES:;

//---------------dance-single - ----------------
#NOTES:
     dance-single:
     :
     Beginner:
     3:
     :
0000
0000
0000
0000
,
0000
0000
0000
0000
,
0000
0000
0000
0000
,
0001
0000
0001
0000
,
1000
0000
1000
0000
,
0001
0001
0000
1000
,
0000
0010
0000
0100
,
0000
0001
0000
0010
,
0000
0100
0000
1000
,
0000
1000
0000
0001
,
0000
1000
0000
0001
,
0000
1000
0000
0001
,
0000
1000
0000
0001
,
0000
1000
0000
0001
,
0000
1000
0000
0001
,
0000
1000
0000
0001
,
0000
1000
0000
0001
,
0000
0000
0010
0000
,
1000
1000
0000
0010
,
0000
0000
0001
0000
,
0010
0010
0000
0100
,
0000
1000
0000
0001
,
0000
1000
0000
0001
,
0000
1000
0000
0001
,
0000
1000
0000
0001
,
0000
1000
0000
0001
,
0000
1000
0000
0001
,
0000
1000
0000
0001
,
0000
1000
0000
0001
,
0000
0000
0010
0000
,
1000
1000
0000
0010
,
0000
0000
0001
0000
,
1000
1000
0000
0100
,
0000
0100
0000
0100
,
0000
1000
0000
0010
,
0000
1000
0000
1000
,
0000
0010
0000
1000
,
0000
1000
0000
0001
,
0000
1000
0000
0001
,
0000
1000
0000
0001
,
0000
1000
0000
0001
,
0000
1000
0000
0001
,
0000
1000
0000
0001
,
0000
1000
0000
0001
,
0000
1000
0000
0001
,
0000
0000
1000
1000
,
0000
0001
0001
0000
,
0010
0000
0000
0000
;

//---------------dance-single - ----------------
#NOTES:
     dance-single:
     :
     Easy:
     6:
     :
0000
0000
0000
0000
,
0000
0000
0000
0000
,
0000
0000
0000
0000
,
0001
0000
0001
0000
,
1000
0000
1000
0000
,
0001
0001
1000
1000
,
0010
0010
0100
0100
,
0001
0001
0010
0010
,
0100
0100
1000
1000
,
0010
1000
0100
0001
,
0010
1000
0100
0001
,
0010
1000
0100
0001
,
0010
1000
0100
0001
,
0010
1000
0100
0001
,
0010
1000
0100
0001
,
0010
1000
0100
0001
,
0010
1000
0100
0001
,
0010
0000
0010
0000
,
1000
1000
0100
0010
,
0001
0000
0001
0000
,
0010
0010
0001
0100
,
0010
1000
0100
0001
,
0010
1000
0100
0001
,
0010
1000
0100
0001
,
0010
1000
0100
0001
,
0010
1000
0100
0001
,
0010
1000
0100
0001
,
0010
1000
0100
0001
,
0010
1000
0100
0001
,
0010
0000
0010
0000
,
1000
1000
0100
0010
,
0001
0000
0001
0000
,
1000
1000
0010
0100
,
0001
0100
0001
0100
,
0010
1000
0001
0010
,
0100
1000
0100
1000
,
0001
0010
0100
1000
,
0010
1000
0100
0001
,
0010
1000
0100
0001
,
0010
1000
0100
0001
,
0010
1000
0100
0001
,
0010
1000
0100
0001
,
0010
1000
0100
0001
,
0010
1000
0100
0001
,
0010
1000
0100
0001
,
0010
0000
1000
1000
,
0001
0001
0001
1001
,
0010
0000
0000
0000
;

//---------------dance-single - ----------------
#NOTES:
     dance-single:
     :
     Medium:
     9:
     :
0000
0000
0000
0000
,
0000
0000
0000
0000
,
0000
0000
0000
0000
,
1000
1000
1000
1000
,
0001
0001
0010
0010
,
0000
0000
0001
0000
1000
0000
0100
0000
1000
0000
0000
0001
0000
0000
0100
0000
,
0000
0000
0001
0000
1000
0000
0010
0000
1000
0000
0000
0001
0000
0000
0010
0000
,
0000
0000
0001
0000
1000
0000
0100
0000
1000
0000
0000
0001
0000
0000
0100
0000
,
0000
0001
1000
0010
1000
0000
0100
0000
,
1000
0000
0010
0000
1000
0000
0001
0000
1000
0000
0000
1000
0000
0000
0100
0000
,
1000
0000
0000
1000
0000
0000
0100
0000
0010
0000
0000
0001
0000
0000
1000
0000
,
0001
0000
0010
0000
0001
0000
1000
0000
0001
0000
0000
0001
0000
0000
0100
0000
,
0001
0000
0000
0001
0000
0000
0100
0000
0010
0000
0000
1000
0000
0000
0001
0000
,
1000
0000
0000
0001
0000
0000
0100
0000
0001
0000
0000
1000
0000
0000
0100
0000
,
1000
0000
0000
0001
0000
0000
0010
0000
0100
0000
0000
1000
0000
0000
0001
0000
,
1000
0000
0000
0001
0000
0000
0100
0000
0001
0000
0000
1000
0000
0000
0100
0000
,
1000
0000
0000
0001
0000
0000
0100
0000
0010
0000
0000
1000
0000
0000
0001
0000
,
0000
1000
0000
1000
0000
1000
0000
1000
,
0000
1000
0000
1000
0000
0000
0000
0000
,
0000
0001
0000
0001
0000
0010
0000
0010
,
0000
0100
0000
0100
0000
0000
0000
0000
,
1000
0000
0010
0000
1000
0000
0001
0000
1000
0000
0000
1000
0000
0000
0100
0000
,
1000
0000
0000
1000
0000
0000
0100
0000
0010
0000
0000
0001
0000
0000
1000
0000
,
0001
0000
0010
0000
0001
0000
1000
0000
0001
0000
0000
0001
0000
0000
0100
0000
,
0001
0000
0000
0001
0000
0000
0100
0000
0010
0000
0000
1000
0000
0000
0001
0000
,
1000
0000
0000
0001
0000
0000
0100
0000
0001
0000
0000
1000
0000
0000
0100
0000
,
0001
0000
0000
0001
0000
0000
0100
0000
0010
0000
0000
0001
0000
0000
1000
0000
,
0001
0000
0000
1000
0000
0000
0100
0000
1000
0000
0000
0001
0000
0000
0100
0000
,
1000
0000
0000
1000
0000
0000
0100
0000
0010
0000
0000
1000
0000
0000
0001
0000
,
0100
0000
0010
1010
,
0001
1000
0100
0000
1000
0001
0100
0000
,
0001
0000
0010
0011
,
1000
0001
0100
0000
0001
1000
0100
0000
,
0010
0000
0010
0000
0001
0100
1000
0000
,
0100
0001
1000
0000
0100
0010
0001
0000
,
1000
0000
1000
0000
0001
0010
1000
0000
,
0010
0001
1000
0000
0010
0100
0001
0000
,
1000
0000
0100
0000
1000
0000
0001
0000
0100
0000
0000
0010
0000
0000
1000
0000
,
0100
0000
0000
0010
0000
0000
0001
0000
0100
0000
0000
0001
0000
0000
1000
0000
,
0001
0000
0100
0000
0001
0000
1000
0000
0100
0000
0000
0010
0000
0000
0001
0000
,
0100
0000
0000
0010
0000
0000
1000
0000
0100
0000
0000
0010
0000
0000
0001
0000
,
1000
0000
0010
0000
1000
0000
0001
0000
0010
0000
0000
0100
0000
0000
1000
0000
,
0010
0000
0000
0100
0000
0000
0001
0000
0010
0000
0000
0001
0000
0000
1000
0000
,
0001
0000
0010
0000
0001
0000
1000
0000
0010
0000
0000
0100
0000
0000
0001
0000
,
0010
0000
0000
0100
0000
0000
1000
0000
0010
0000
0000
0100
0000
0000
0000
0000
,
0010
0000
0001
0001
,
1000
0000
0000
0010
0000
0000
0100
0000
0001
0000
0000
1000
0000
0000
0100
0000
,
1001
0000
0000
0000
;

//---------------dance-single - ----------------
#NOTES:
     dance-single:
     :
     Hard:
     12:
     :
0000
0000
0000
0000
,
0000
0000
0000
0000
,
0000
0000
0000
0000
,
1000
0100
1000
0100
0010
0001
0010
0001
,
1000
0100
0000
1000
0100
0010
0000
0100
1000
0000
1000
0000
0000
0000
0001
0000
,
1000
1000
0001
0100
0001
1000
1000
1000
,
0100
0001
0100
1000
0100
0001
0100
1000
,
1100
1000
0001
0100
0001
1000
1000
0001
,
1000
0100
0001
0100
0010
0001
1000
0100
,
1001
0000
0010
0000
0100
0000
0001
0000
1000
0000
0100
1000
0000
0000
0100
0000
,
1000
0000
0001
1000
0000
0000
0010
0000
1000
0000
0100
0000
1000
0000
0001
0000
,
0011
0000
0100
0000
0010
0000
0001
0000
1000
0000
0010
1000
0000
0000
0100
0000
,
1000
0000
0001
1000
0000
0000
0010
0000
1000
0000
0100
0000
1000
0000
0000
0000
,
1001
0000
0010
0000
0100
0000
1000
0000
0001
0000
0100
0001
0000
0000
0010
0000
,
0001
0000
1000
0100
0000
0000
0010
0000
0001
0000
0100
0000
0001
0000
1000
0000
,
1010
0000
0100
0000
0010
0000
1000
0000
0001
0000
0010
0001
0000
0000
0100
0000
,
0010
0000
1000
0010
0000
0000
0100
0000
0001
0000
0010
0000
0001
0000
0000
0000
,
1000
0000
0010
0100
0001
0000
0010
0100
1000
0000
0001
0000
0000
0000
0000
0000
,
1000
0000
0010
0100
0001
0000
0010
0100
1000
0000
0001
0000
0100
0000
0001
0000
,
0100
0000
0010
1000
0001
0000
0010
0001
1000
0000
0100
0000
0000
0000
0000
0000
,
0010
0000
0100
1000
0001
0000
0100
0010
1000
0000
0001
0000
0100
0000
0010
0000
,
1001
0000
0001
0000
1000
0000
0010
0000
1000
0000
0100
0010
0000
0000
0001
0000
,
0100
0000
0001
0010
0000
0000
0001
0000
1000
0000
0100
0000
1000
0000
0001
0000
,
0101
0000
0010
0000
0100
0000
0001
0000
1000
0000
0100
1000
0000
0000
0010
0000
,
0100
0000
0001
0010
0000
0000
0001
0000
1000
0000
0100
0000
1000
0000
0000
0000
,
1001
0000
1000
0000
0001
0000
0010
0000
0001
0000
0100
0010
0000
0000
1000
0000
,
0100
0000
1000
0010
0000
0000
1000
0000
0001
0000
0100
0000
0001
0000
1000
0000
,
1100
0000
0010
0000
0100
0000
1000
0000
0001
0000
0100
0001
0000
0000
0010
0000
,
0001
0000
0010
0001
0000
0000
0100
0000
1000
0000
0100
0000
0001
0000
0000
0000
,
1000
0000
0010
0100
0001
0000
0010
0100
1000
0000
0001
0000
0000
0000
0000
0000
,
0010
0000
0001
0010
0100
0000
1000
0100
0010
0000
0001
0000
1000
0000
0010
0000
,
1000
0000
0100
0010
0001
0000
0100
0010
1000
0000
0001
0000
0000
0000
0000
0000
,
0100
0000
0001
0100
0010
0000
1000
0010
0100
0000
0001
0000
1000
0000
0000
0000
,
0001
0010
0000
0001
0000
0010
0000
0001
0100
0000
0010
0000
0010
0000
0000
0000
,
1000
0010
0000
1000
0000
0010
0000
1000
0100
0000
0010
0000
0010
0000
0000
0000
,
0001
0100
0000
0001
0000
0100
0000
0001
0010
0000
0100
0000
0100
0000
0000
0000
,
0010
0001
1000
0000
0010
0100
0001
0000
,
1001
0000
0010
0000
0100
0000
0001
0000
1000
0000
0100
1000
0000
0000
0010
0000
,
1000
0000
0001
1000
0000
0000
0010
0000
1000
0000
0100
0000
1000
0000
0001
0000
,
0101
0000
0010
0000
0100
0000
0001
0000
1000
0000
0100
1000
0000
0000
0010
0000
,
1000
0000
0001
1000
0000
0000
0010
0000
1000
0000
0100
0000
1000
0000
0000
0000
,
1001
0000
0100
0000
0010
0000
0001
0000
1000
0000
0010
1000
0000
0000
0100
0000
,
1000
0000
0001
0010
0000
0000
0100
0000
1000
0000
0010
0000
1000
0000
0001
0000
,
0101
0000
0010
0000
0100
0000
0001
0000
1000
0000
0100
1000
0000
0000
0010
0000
,
1000
0000
0001
0010
0000
0000
0100
0000
1000
0000
0010
0000
1000
0000
0000
0000
,
0001
0000
0100
1001
,
1000
0000
0000
0010
0000
0000
0100
0000
0001
0000
0000
1000
0000
0000
0100
0000
,
1001
0000
0000
0000
;

//---------------dance-single - ----------------
#NOTES:
     dance-single:
     :
     Challenge:
     14:
     :
0000
0000
0000
0000
,
0000
0000
0000
0000
,
0000
0000
0000
0000
0000
0000
0000
1001
,
1002
0000
0000
0023
0000
0000
2030
0000
0000
3020
0000
0000
0031
0000
1000
0000
,
0010
0100
0000
0010
0100
0010
0000
0100
0010
0000
1010
0000
0000
0011
0000
0000
,
1001
0000
0100
0000
1000
0000
0001
0000
0010
0000
0100
0010
0000
0100
1000
0000
,
0001
0100
0001
0000
1000
0000
1000
0000
0010
0000
1000
0100
0000
0100
0010
0000
,
1001
0000
0001
0000
1000
0000
0010
0000
1000
0000
0100
0010
0000
0010
0001
0000
,
0100
0000
0001
1000
0001
1000
0001
1000
0001
1000
0001
0000
0010
0100
0000
1000
,
0002
0000
0203
0000
0320
0000
0230
0000
2300
0000
3100
0001
0000
0001
0010
0000
,
0200
0000
1300
0010
0000
0010
0100
0000
0002
0000
1003
0010
0000
0100
0001
0000
,
0020
0000
0032
0000
2003
0000
3002
0000
0203
0000
0301
1000
0000
1000
0100
0000
,
0020
0000
0031
0100
0000
0100
0010
0000
2000
0000
3100
1000
0000
1000
0001
0000
,
0110
0000
0010
1000
0000
1000
0001
0000
0020
0000
0031
0100
0000
0100
0010
0000
,
2000
0000
3100
0010
0000
0010
0001
0000
0200
0000
1300
0100
0000
0100
0010
0000
,
2000
0000
3001
1000
0000
1000
0100
0000
0020
0000
0031
1000
0000
1000
0010
0000
,
0200
0000
0301
0010
0000
0001
1000
0000
0200
0000
1300
0010
0000
1000
0001
0000
,
0011
0020
1030
0020
0130
0020
0031
0020
,
1030
0000
0020
0000
0031
0000
0020
0000
0130
1000
0001
0000
0100
0000
0010
0000
,
0001
0200
0310
0200
1300
0200
0301
0200
,
0310
0000
0200
0000
1300
0000
0200
0000
0301
0010
0100
0000
1000
0001
1000
0001
,
0200
0000
2300
0000
3200
0000
0320
0000
2030
0000
3100
0010
0000
0010
0001
0000
,
2000
0000
3001
0010
0000
0010
0100
0000
0020
0000
0031
1000
0000
1000
0010
0000
,
2000
0000
3002
0000
0023
0000
2030
0000
3020
0000
0031
0100
0000
0100
0010
0000
,
2000
0000
3100
1000
0000
1000
0010
0000
0200
0000
0301
0010
0000
0010
0001
0000
,
2000
0000
3100
1000
0000
0001
0010
0000
0200
0000
0310
0100
0000
1000
0001
0000
,
2000
0000
3010
0100
0000
0100
0001
0000
0020
0000
1030
0010
0000
0010
0001
0000
,
0200
0000
0301
1000
0000
0100
0010
0000
0002
0000
1003
0001
0000
0100
0010
0000
,
2000
0000
3100
0010
0000
0100
1000
0000
0002
0000
1003
0001
0000
0010
0100
0000
,
1001
0000
1000
0000
1000
0010
0000
0100
0000
0001
0010
0000
0100
0000
0110
0000
,
1000
0001
0000
0010
0001
1000
0100
0000
0110
0000
0010
0000
0001
1000
0001
0000
,
0010
0100
0000
0000
1000
0010
1000
0001
0100
0000
0010
0000
1000
0000
1100
0000
,
0001
0100
0001
0000
0011
0000
0101
0000
2002
0000
0000
0000
3003
0000
0000
0000
,
1001
0000
0010
0000
1000
0100
1000
0000
0002
0000
0000
0203
0000
0000
0320
0000
,
0000
1030
0001
0000
0001
0000
0100
0000
0002
0000
0000
2003
0000
0000
3020
0000
,
0000
1030
0100
0000
0100
0000
0010
0000
0002
0000
0000
2003
0000
0000
3200
0000
,
0000
1300
0010
1000
0001
0010
0001
1000
0100
0010
0002
0000
1003
0020
0000
1030
,
0002
0000
0203
0000
2300
0000
3200
0000
0320
0000
0031
0010
0000
1000
0100
0000
,
0020
0000
0031
0100
0000
0001
1000
0000
0200
0000
0310
1000
0000
0010
0001
0000
,
2000
0000
3002
0000
0203
0000
0320
0000
2030
0000
3100
1000
0000
0001
0100
0000
,
0020
0000
1030
0001
0000
0010
0100
0000
2000
0000
3001
1000
0000
0001
0100
0000
,
0011
0000
0110
0000
1100
0000
0110
0000
0011
0000
0100
0010
0000
1000
0001
0000
,
1010
0000
1000
0100
0000
1000
0001
0000
1001
0000
0010
1000
0000
0010
0100
0000
,
0101
0000
1001
0000
1100
0000
1001
0000
0101
0000
0010
1000
0000
0001
0100
0000
,
0011
0000
1000
0001
0000
1000
0010
0000
0110
0000
0010
1000
0000
0100
0010
0000
,
0220
0000
0000
0330
,
0011
0000
0000
1001
0000
0000
1100
0000
0101
0000
0000
0110
0000
0000
1010
0000
,
1001
0000
0000
0000
;

//---------------dance-double - ----------------
#NOTES:
     dance-double:
     :
     Easy:
     6:
     :
00000000
00000000
00000000
00000000
,
00000000
00000000
00000000
00000000
,
00000000
00000000
00000000
00000000
,
00001000
00000000
00000000
00000000
,
00010000
00010000
00100000
00100000
,
10000000
00000000
00010000
00010000
,
01000000
00000000
00001000
00001000
,
00010000
00000000
00000100
00001000
,
00000010
00010000
00100000
10000000
,
00100000
10000000
01000000
00010000
,
00001000
00000010
00000001
00000100
,
00000001
00000010
00000100
00001000
,
00010000
00100000
01000000
10000000
,
00100000
10000000
01000000
00010000
,
00001000
00000010
00000001
00000100
,
00000001
00000010
00000100
00001000
,
00010000
00100000
01000000
10000000
,
00010000
01000000
01000000
00001000
,
00010000
00001000
00001000
00010000
,
00001000
01000000
01000000
00010000
,
00100000
00010000
00010000
01000000
,
00100000
10000000
01000000
00010000
,
00001000
00000010
00000001
00000100
,
00000001
00000010
00000100
00001000
,
00010000
00100000
01000000
10000000
,
00100000
10000000
01000000
00010000
,
00001000
00000010
00000001
00000100
,
00000001
00000010
00000100
00001000
,
00010000
00100000
01000000
10000000
,
00010000
00000000
01000000
00001000
,
00010000
00000000
00000100
00001000
,
00000010
00000000
00001000
00010000
,
01000000
00100000
10000000
00010000
,
01000000
01000000
01000000
01000000
,
00010000
00010000
00001000
00000100
,
00000010
00000010
00000010
00000010
,
00000100
00000100
00000010
00000001
,
00000010
00000001
00001000
00000100
,
00010000
00001000
00100000
00010000
,
10000000
01000000
00100000
00010000
,
00001000
00000100
00000010
00000001
,
00000010
00000001
00001000
00000100
,
00010000
00001000
00100000
00010000
,
10000000
01000000
00100000
00010000
,
00001000
00000100
00000010
00000001
,
00000100
00000000
00000000
00000000
,
00001000
00000010
00000010
00001000
,
00000100
00000000
00000000
00000000
;

//---------------dance-double - ----------------
#NOTES:
     dance-double:
     :
     Medium:
     9:
     :
00000000
00000000
00000000
00000000
,
00000000
00000000
00000000
00000000
,
00000000
00000000
00000000
00000000
00000000
00000000
00000000
00011000
,
00011000
00000000
00000100
00000100
,
00010000
00000000
00010000
00000000
00000010
00000010
00000100
00001000
,
01000000
00000000
01000000
00000000
00100000
01000000
10000000
00000000
,
01100000
00000000
00011000
00000000
00000100
00000100
00000100
00000000
,
00000010
00000000
00000010
00000000
00000001
00000100
00001000
00000000
,
01010000
00000000
10010000
00000000
01000000
01000000
01000000
00000000
,
00010000
00100000
10000000
01000000
,
00010000
00100000
10000000
01000000
,
00001000
00000010
00000001
00000100
,
00001000
00000010
00000001
00000100
,
00010000
00010000
00100000
00100000
,
10000000
10000000
01000000
01000000
,
00001000
00001000
00000010
00000010
,
00000001
00000001
00000100
00000100
,
00010000
00010000
00000100
00000000
00100000
00100000
00001000
00000000
,
01000000
01000000
00010000
00010000
10000000
00010000
01000000
00100000
,
00001000
00001000
00000100
00000000
00000001
00000001
00000100
00000000
,
00010000
00010000
00000010
00000010
00010000
00001000
00010000
00000100
,
00010000
00100000
10000000
01000000
,
00010000
00100000
10000000
01000000
,
00001000
00000010
00000001
00000100
,
00001000
00000010
00000001
00000100
,
00010000
00010000
00100000
00100000
,
10000000
10000000
01000000
01000000
,
00001000
00001000
00000010
00000010
,
00000001
00000001
00000100
00000100
,
00010000
00001000
00010000
00000100
00000010
00000010
00000010
00000000
,
00001000
00010000
00001000
01000000
00100000
00100000
00100000
00000000
,
10000000
01000000
00100000
00010000
01000000
01000000
01000000
00000000
,
00001000
00010000
00001000
00010000
00000010
00000100
00000010
00000100
,
00000001
00001000
00000100
00000000
00010000
00010000
00001000
00000000
,
00100000
00010000
01000000
00000000
00100000
00100000
10000000
00000000
,
01000000
00001000
00010000
00000000
00100000
00100000
00001000
00000000
,
01000000
01000000
01000000
01000000
00010000
00010000
00010000
00010000
,
00001000
00000100
00000001
00000010
,
00001000
00000100
00000001
00000010
,
00010000
01000000
10000000
00100000
,
00010000
01000000
10000000
00100000
,
00001000
00010000
00001000
00000000
00000100
00001000
00000100
00000000
,
00000001
00000100
00000001
00000000
00000100
00010000
00000100
00000000
,
00010000
00001000
00010000
00000000
01000000
00010000
01000000
00000000
,
10000000
01000000
10000000
00000000
00100000
10000000
00100000
00000000
,
00011000
00000000
00000000
00000000
,
00000001
00000000
00000000
00000100
00000000
00000000
00000010
00000000
00010000
00000000
00000000
00001000
00000000
00000000
01000000
00000000
,
00110000
00000000
00000000
00000000
;

//---------------dance-double - ----------------
#NOTES:
     dance-double:
     :
     Hard:
     12:
     :
00000000
00000000
00000000
00000000
,
00000000
00000000
00000000
00000000
,
00000000
00000000
00000000
00000000
,
00000001
00000100
00010000
00000000
00001000
00000100
00000010
00000000
,
00010000
00100000
00000000
10000000
00100000
01000000
00000000
00100000
00001000
00000000
00000000
00000000
00010000
00000000
00000000
00000000
,
00000010
00000000
00001000
00000000
00000100
00000001
00000100
00000000
,
00010000
00000010
00010000
01000000
01000000
01000000
00001000
00000000
,
01000000
00000000
00100000
00000000
01000000
10000000
01000000
00000000
,
00001000
00000001
00010000
00000100
00000100
00000100
00001000
00000000
,
00010000
00000000
00000000
00010000
00100000
00000000
00000000
00100000
10000000
00000000
00000000
10000000
01000000
00000000
00000000
01000000
,
00010000
00000000
00000000
00010000
00100000
00000000
00000000
00100000
10000000
00000000
00000000
10000000
01000000
00000000
00000000
01000000
,
00001000
00000000
00000000
00001000
00000010
00000000
00000000
00000010
00000001
00000000
00000000
00000001
00000100
00000000
00000000
00000100
,
00001000
00000000
00000000
00001000
00000010
00000000
00000000
00000010
00000001
00000000
00000000
00000001
00000100
00000000
00000000
00000100
,
00000010
00000000
00000100
00000000
00001000
00000000
00000100
00000000
00000001
00000010
00000000
00000000
00000100
00000000
00000000
00000000
,
00001000
00000100
00000000
00000000
00010000
00000000
00001000
00000000
00100000
00000000
00100000
00000000
00010000
00000000
01000000
00000000
,
00100000
00000000
01000000
00000000
00010000
00000000
01000000
00000000
10000000
01000000
00000000
00000000
00001000
00000000
00000000
00000000
,
00100000
01000000
00000000
00000000
00001000
00000000
00010000
00000000
00000010
00000000
00000010
00000000
00000001
00000000
00000100
00000000
,
00000100
00000000
00000010
00000000
00001000
00000000
00000010
00000000
00001000
00000100
00000000
00000000
00000010
00000000
00000000
00000000
,
00000001
00000010
00000000
00000000
00010000
00000000
00001000
00000000
01000000
00000000
01000000
00000000
10000000
00000000
00100000
00000000
,
01000000
00000000
00100000
00000000
00010000
00000000
00100000
00000000
10000000
01000000
00000000
00000000
00100000
00000000
00000000
00000000
,
00010000
00100000
00000000
00000000
00001000
00000000
00010000
00000000
00000100
00000000
00000100
00000000
00001000
00000000
00000010
00000000
,
00010000
00000000
00000000
00010000
00100000
00000000
00000000
00100000
10000000
00000000
00000000
10000000
01000000
00000000
00000000
01000000
,
00010000
00000000
00000000
00010000
00100000
00000000
00000000
00100000
10000000
00000000
00000000
10000000
01000000
00000000
00000000
01000000
,
00001000
00000000
00000000
00001000
00000010
00000000
00000000
00000010
00000001
00000000
00000000
00000001
00000100
00000000
00000000
00000100
,
00001000
00000000
00000000
00001000
00000010
00000000
00000000
00000010
00000001
00000000
00000000
00000001
00000100
00000000
00000000
00000100
,
00000010
00000000
00000100
00000000
00001000
00000000
00000100
00000000
00000001
00000100
00000000
00000000
00010000
00000000
00000000
00000000
,
00001000
00000100
00000000
00000000
00010000
00000000
00001000
00000000
00100000
00000000
00100000
00000000
00010000
00000000
01000000
00000000
,
00100000
00000000
01000000
00000000
00010000
00000000
01000000
00000000
10000000
01000000
00000000
00000000
00001000
00000000
00000000
00000000
,
00010000
01000000
00000000
00000000
00001000
00000000
00010000
00000000
00000010
00000000
00000010
00000000
00001000
00000000
00000100
00000000
,
00000010
00000100
00001000
00000100
00001000
00011000
00011000
00000000
,
01000000
00010000
01000000
00100000
01000000
10100000
10100000
00000000
,
01000000
00100000
00010000
00100000
00010000
00011000
00011000
00000000
,
00000010
00001000
00000010
00000100
00000001
00000000
00000000
00000000
,
00000010
00000001
00000100
00000001
00000101
00000000
00001100
00000000
,
00010000
00001000
00010000
01000000
00010000
11000000
11000000
00000000
,
00100000
10000000
01000000
10000000
01000000
01010000
01010000
00000000
,
00001000
00010000
00001000
00000100
00001000
00000101
00000101
00000000
,
00000010
00000000
00000100
00000000
00001000
00000000
00000000
00000000
00000001
00000010
00000000
00000000
00000100
00000000
00000000
00000000
,
00001000
00000100
00000000
00000000
00010000
00000000
00000000
00000000
00001000
00000000
00100000
00000000
00010000
00000000
01000000
00000000
,
00100000
00000000
00100000
00000000
10000000
00000000
00000000
00000000
00010000
00100000
00000000
00000000
00001000
00000000
00000000
00000000
,
00010000
00000100
00000000
00000000
00000010
00000000
00000000
00000000
00000001
00000000
00000100
00000000
00001000
00000000
00000100
00000000
,
00000010
00000000
00000100
00000000
00001000
00000000
00000000
00000000
00000001
00000010
00000000
00000000
00000100
00000000
00000000
00000000
,
00001000
00000100
00000000
00000000
00010000
00000000
00000000
00000000
00001000
00000000
00100000
00000000
00010000
00000000
01000000
00000000
,
00100000
00000000
00100000
00000000
10000000
00000000
00000000
00000000
00010000
00100000
00000000
00000000
00001000
00000000
00000000
00000000
,
00010000
00000100
00000000
00000000
00000010
00000000
00000000
00000000
00000001
00000000
00000100
00000000
00001000
00000000
00000100
00000000
,
00000001
00000000
00000100
00000000
00001000
00000000
00000100
00000000
00000001
00000000
00000100
00000000
00001000
00000000
00001000
00000010
,
00000100
00000000
00000100
00000000
00000100
00000000
00000000
00000000
00001000
00000100
00000000
00000000
00000001
00000000
00001000
00000000
,
00001001
00000000
00000000
00000000
;

//---------------dance-couple - ----------------
#NOTES:
     dance-couple:
     :
     Medium:
     9:
     :
00000000
00000000
00000000
00000000
,
00000000
00000000
00000000
00000000
,
00000000
00000000
00000000
00000000
00000000
00000000
00000000
10000001
,
10000001
00000000
00100100
00000000
,
00000001
00000010
00000000
00000001
10000000
01000000
00000000
10000000
00100010
00000000
00100010
00000000
00000000
00000000
10000100
00000000
,
00100010
00000000
00100000
00000000
10000001
01000000
10000000
00000000
,
01100001
00000000
10010000
00000000
01000001
01000000
01000000
00000000
,
10000010
00000000
00000010
00000000
10000001
00000100
00000001
00000000
,
10000110
00000000
00001001
00000000
10000100
00000100
00000100
00000000
,
00100001
10000000
01000001
00010000
,
00100001
10000000
01000001
00010000
,
00100001
10000000
01000001
00010000
,
00100001
10000000
01000100
00010000
,
10000010
00001000
10000100
00000001
,
10000010
00001000
10000100
00000001
,
10000010
00001000
10000100
00000001
,
10000010
00001000
10000100
00000001
,
10000000
00000000
00100100
01000000
00010000
00000000
00100100
01000000
10000000
00000000
00010100
00000000
00000000
00000000
00000100
00000000
,
10000000
00000000
00100100
01000000
00010000
00000000
00100100
01000000
10000000
00000000
00010000
00000000
01000000
00000000
00100000
00000000
,
00001000
00000000
10000010
00000100
00000001
00000000
10000010
00000100
00001000
00000000
10000001
00000000
00000000
00000000
10000000
00000000
,
00001000
00000000
10000010
00000100
00000001
00000000
10000010
00000100
00001000
00000000
00000001
00000000
00000100
00000000
00000010
00000000
,
00100100
10000000
01000001
00010000
,
00100001
10000000
01000001
00010000
,
00100010
00001000
10000100
00000001
,
10000010
00001000
10000100
00000001
,
00100010
10001000
01000100
00010001
,
00100010
10001000
01000100
00010001
,
00100010
10001000
01000100
00010001
,
00100010
10001000
01000100
00010001
,
01000100
10000000
00000000
01000000
00000000
10000000
00000000
01000000
00100010
00000000
00010000
00000000
00010000
00000000
00000000
00000000
,
10000001
00100000
00000000
10000000
00000000
00100000
00000000
10000000
01000001
00000000
00100000
00000000
00100000
00000000
00000000
00000000
,
00010001
01000000
00000000
00010000
00000000
01000000
00000000
00010000
00100001
00000000
01000000
00000000
01000000
00000000
00000000
00000000
,
10000001
00000000
10000000
00000000
00010001
01000000
00100000
00000000
,
10001000
00000010
00000000
00001000
00000000
00000010
00000000
00001000
10000100
00000000
00000010
00000000
00000010
00000000
00000000
00000000
,
10000001
00000100
00000000
00000001
00000000
00000100
00000000
00000001
10000010
00000000
00000100
00000000
00000100
00000000
00000000
00000000
,
10001000
00000100
00000000
00001000
00000000
00000100
00000000
00001000
10000010
00000000
00000100
00000000
00000100
00000000
00000000
00000000
,
10000001
00000000
00000001
00000000
10001000
00000100
00000010
00000000
,
10000001
00000000
01000000
00000000
10000000
00000000
00010000
00000000
10000001
00000000
00000000
10000000
00000000
00000000
00100000
00000000
,
10000001
00000000
00000000
10000000
00000000
00000000
00100000
00000000
01000001
00000000
00000000
00010000
00000000
00000000
10000000
00000000
,
00010001
00000000
01000000
00000000
00010000
00000000
10000000
00000000
00010001
00000000
00000000
00010000
00000000
00000000
00100000
00000000
,
00010001
00000000
00000000
00010000
00000000
00000000
00100000
00000000
01000001
00000000
00000000
10000000
00000000
00000000
10000000
00000000
,
01001000
00000000
00000100
00000000
00001000
00000000
00000001
00000000
10001000
00000000
00000000
00001000
00000000
00000000
00000010
00000000
,
10001000
00000000
00000000
00001000
00000000
00000000
00000010
00000000
10000100
00000000
00000000
00000001
00000000
00000000
00001000
00000000
,
10000001
00000000
00000100
00000000
00000001
00000000
00001000
00000000
10000001
00000000
00000000
00000001
00000000
00000000
00000010
00000000
,
10000001
00000000
00000000
00000001
00000000
00000000
00000010
00000000
10000100
00000000
00000000
00001000
00000000
00000000
00001000
00000000
,
00100010
00000000
00010001
00010001
,
10001000
00000000
00000000
00100010
00000000
00000000
01000100
00000000
00010001
00000000
00000000
10001000
00000000
00000000
01000100
00000000
,
10011001
00000000
00000000
00000000
;

//---------------dance-solo - ----------------
#NOTES:
     dance-solo:
     :
     Easy:
     3:
     :
000000
000000
000000
000000
,
000000
000000
000000
000000
,
000000
000000
000000
000000
,
001000
000000
000000
000000
,
000010
000010
000010
000010
,
100000
000000
000001
100001
,
001000
000000
100000
100001
,
000100
000000
001000
100001
,
000010
010000
000001
100000
,
000100
100000
001000
000001
,
000010
000000
010000
001000
,
000100
000001
001000
100000
,
010000
000000
000010
001000
,
000001
010000
001000
000010
,
001000
001000
100000
000001
,
100000
000010
001000
010000
,
001000
001000
000001
100000
,
100001
001000
001000
001000
,
100001
000100
000100
000100
,
100001
000011
000011
000011
,
100001
110000
110000
110000
,
000100
000001
001000
100000
,
010000
000000
000010
001000
,
000100
100000
001000
000001
,
000010
000000
010000
001000
,
100000
000010
001000
010000
,
001000
001000
000001
100000
,
000001
010000
001000
000010
,
001000
001000
100000
000001
,
010000
000000
001000
100000
,
000010
000000
001000
000001
,
100000
000000
000100
001000
,
000001
000000
010000
000010
,
100000
100000
100000
100000
,
000010
000010
001000
100001
,
000100
000100
000100
000100
,
000001
000001
010000
100001
,
000100
100000
001000
000001
,
000100
100000
001000
000001
,
000100
000010
001000
010000
,
000100
000010
001000
010000
,
000100
000001
001000
100000
,
000100
000001
001000
100000
,
000100
010000
001000
000010
,
000100
010000
001000
000010
,
100000
000000
000000
000000
,
000010
000010
010000
010000
,
000001
000000
000000
000000
;

//---------------dance-solo - ----------------
#NOTES:
     dance-solo:
     :
     Medium:
     5:
     :
000000
000000
000000
000000
,
000000
000000
000000
000000
,
000000
000000
000000
000000
000000
000000
000000
100000
,
000010
000000
010000
010000
,
000001
000000
000001
000000
000100
000100
001000
100000
,
000010
000000
000010
000000
001000
000100
100000
000000
,
010010
000000
100001
000000
001000
001000
001000
000000
,
000100
000000
000100
000000
010000
001000
100000
000000
,
000011
000000
110000
000000
001000
001000
001000
000000
,
000010
000001
001000
100000
,
000100
000001
001000
100000
,
010000
000001
001000
100000
,
000100
000001
001000
100000
,
000100
000100
000001
000001
,
001000
001000
100000
100000
,
000010
000010
001000
001000
,
010000
010000
001000
001000
,
000001
000001
100000
000000
000100
000100
001000
000000
,
000010
000010
010000
010000
000001
100000
001000
000100
,
000001
000001
001000
000000
000010
000010
100000
000000
,
000100
000100
001000
001000
010000
001000
000010
001000
,
010000
100000
001000
000001
,
000100
100000
001000
000001
,
000010
100000
001000
000001
,
000100
100000
001000
000001
,
000100
000100
100000
100000
,
001000
001000
000001
000001
,
010000
010000
001000
001000
,
000010
000010
001000
001000
,
000001
100000
000001
000100
001000
001000
001000
000000
,
010000
000010
010000
000001
100000
100000
100000
000000
,
000001
001000
000100
100000
001000
001000
001000
000000
,
010000
001000
000010
001000
100000
000001
001000
000001
,
010000
001000
100000
000000
000010
000010
001000
000000
,
000100
100000
001000
000000
000100
000100
000001
000000
,
001000
000010
010000
000000
001000
001000
100000
000000
,
000010
000010
000010
000010
001000
001000
001000
001000
,
000010
000001
001000
100000
,
000100
000001
001000
100000
,
010000
000001
001000
100000
,
000100
000001
001000
100000
,
010000
100000
010000
000000
001000
000001
001000
000000
,
000100
100000
000100
000000
001000
000001
001000
000000
,
000010
100000
000010
000000
001000
000001
001000
000000
,
000100
100000
000100
000000
001000
000001
001000
000000
,
010010
000000
000000
000000
,
000001
000000
000000
001000
000000
000000
000100
000000
010000
000000
000000
000001
000000
000000
001000
000000
,
000010
000000
000000
000000
;

//---------------dance-solo - ----------------
#NOTES:
     dance-solo:
     :
     Hard:
     8:
     :
000000
000000
000000
000000
,
000000
000000
000000
000000
,
000000
000000
000000
000000
,
000001
001000
010000
000000
001000
000010
100000
000000
,
000001
000100
000001
000100
001000
001000
100000
000000
,
000100
000000
100000
000000
001000
000001
001000
000000
,
010000
000010
001000
000000
000100
000100
000100
100000
,
000001
000000
010000
000000
001000
100000
000001
000000
,
001000
010000
001000
000000
000010
000010
000010
000000
,
100000
000000
000000
000000
000100
000000
000000
000000
001000
000000
000001
001000
000100
000000
000000
000000
,
100000
000000
001000
000100
001000
000000
000000
000000
100000
000000
000001
000000
001000
000000
000010
000000
,
100000
000000
000000
000000
000100
000000
000000
000000
001000
000000
000001
001000
000010
000000
000000
000000
,
010000
000000
001000
000100
000001
000000
000000
000000
001000
000000
100000
000000
001000
000000
000001
000000
,
010000
000000
000000
000000
000001
000000
000000
000000
001000
000000
000010
100000
000100
000000
000000
000000
,
001000
000000
000100
100000
000001
000000
000000
000000
100000
000000
001000
000000
000010
000000
001000
000000
,
100000
000000
000000
000000
000100
000000
000000
000000
001000
000000
000001
100000
000010
000000
000000
000000
,
010000
000000
001000
000100
000001
000000
000000
000000
001000
000000
000100
000000
100000
000000
001000
000000
,
000100
000000
000100
000000
000001
000001
000001
000001
,
010000
000000
010000
000000
001000
001000
001000
001000
,
000010
000000
000010
000000
001000
100000
000001
001000
,
010000
000000
010000
000000
001000
000010
100000
000001
,
010000
000000
000000
000000
001000
000000
000000
000000
000100
000000
000001
000100
001000
000000
000000
000000
,
100000
000000
000100
001000
000100
000000
000000
000000
100000
000000
000001
000000
000100
000000
001000
000000
,
010000
000000
000000
000000
001000
000000
000000
000000
000100
000000
000001
000100
001000
000000
000000
000000
,
010000
000000
000010
001000
000001
000000
000000
000000
000100
000000
000001
000000
000100
000000
001000
000000
,
010000
000000
000000
000000
000001
000000
000000
000000
001000
000000
000010
100000
000100
000000
000000
000000
,
001000
000000
000100
010000
000001
000000
000000
000000
100000
000000
001000
000000
000010
000000
000001
000000
,
100000
000000
000000
000000
000100
000000
000000
000000
001000
000000
000001
010000
000010
000000
000000
000000
,
100000
000000
001000
000100
000001
000000
000000
000000
001000
000000
000100
000000
010000
000000
001000
000000
,
000100
001000
100000
001000
100000
101000
101000
000000
,
000100
000001
001000
000001
001000
001001
001001
000000
,
010000
000001
100000
000010
001000
001010
001010
000000
,
000001
000100
001000
000010
001000
000000
000000
000000
,
100000
000010
010000
000001
001000
001100
001100
000000
,
000010
001000
000001
100000
000010
010010
010010
000000
,
000001
100000
000100
001000
000010
001010
001010
000000
,
100000
100000
000001
000001
010000
010000
001000
001000
,
010000
000000
000000
000000
000001
000000
000000
000000
001000
000000
000010
100000
000100
000000
000000
000000
,
001000
000000
000100
100000
000001
000000
000000
000000
100000
000000
001000
000000
000010
000000
001000
000000
,
100000
000000
000000
000000
000100
000000
000000
000000
001000
000000
000001
100000
000010
000000
000000
000000
,
010000
000000
001000
000100
000001
000000
000000
000000
001000
000000
000100
000000
100000
000000
001000
000000
,
010000
000000
000000
000000
000001
000000
000000
000000
000100
000000
001000
100000
001000
000000
000000
000000
,
000010
000000
001000
100000
000001
000000
000000
000000
001000
000000
000010
000000
001000
000000
000100
000000
,
100000
000000
000000
000000
001000
000000
000000
000000
000100
000000
000010
100000
000001
000000
000000
000000
,
010000
000000
000010
001000
000001
000000
000000
000000
000100
000000
001000
000000
100000
000000
000010
000000
,
010000
000000
000000
000000
,
010000
000000
000000
000000
000001
000000
000100
000000
001000
000000
010000
000001
001000
000000
000100
000000
,
100100
000000
000000
000000
;
