#TITLE:DM STAR;
#ARTIST:NAOKI;
#BANNER:DM STAR-bn.png;
#BACKGROUND:DM STAR-bg.png;
#JACKET:DM STAR-jacket.png;
#MUSIC:DM STAR.ogg;
#SAMPLESTART:39.48;
#SAMPLELENGTH:20;
#DISPLAYBPM:155;
#BPMS:0=155.09;
#BGCHANGES:;

//---------------dance-single - ----------------
#NOTES:
     dance-single:
     :
     Beginner:
     3:
     :
0000
0000
0000
0000
,
0000
0000
0000
0000
,
0000
0000
0000
0000
,
0000
0000
0000
0000
,
0000
0000
0000
0000
,
2000
0000
3000
0000
,
0002
0000
0003
0000
,
1000
0000
0010
0000
,
0100
0000
0001
0000
,
1001
0000
0110
0000
,
0001
0000
0010
0000
,
0001
0000
0100
0000
,
0010
0000
1000
0000
,
0100
0000
0010
0000
,
0001
0000
0100
0000
,
0001
0000
1000
0000
,
0010
0000
0100
0000
,
0001
0000
1000
0000
,
0010
0000
0010
0000
,
0020
0000
0030
0000
,
0100
0000
0100
0000
,
0200
0000
0300
0000
,
0001
0000
0001
0000
,
0002
0000
0003
0000
,
1000
0000
1000
0000
,
2000
0000
3000
0000
,
0010
0000
1000
0000
,
0001
0001
0000
0000
,
0100
0000
0010
0000
,
1000
1000
0000
0000
,
0100
0000
1000
0000
,
0010
0010
0000
0000
,
1000
0000
0001
0000
,
0100
0100
0000
0000
,
0020
0000
0030
0000
,
1000
0000
0001
0000
,
0200
0000
0300
0000
,
0001
0000
1000
0000
,
0010
0000
1001
0000
,
0100
0000
0110
0000
,
0010
0000
1001
0000
,
0110
0000
0000
0000
,
0001
0000
0010
0000
,
0001
0000
0100
0000
,
1000
0000
0010
0000
,
1000
0000
0001
0000
,
1000
0000
0100
0000
,
0010
0000
0100
0000
,
0010
0000
0001
0000
,
1000
0000
0010
0000
,
0100
0000
0100
0000
,
0200
0000
0300
0000
,
0010
0000
0010
0000
,
0020
0000
0030
0000
,
1000
0000
1000
0000
,
2000
0000
3000
0000
,
0001
0000
0001
0000
,
0002
0000
0003
0000
,
0020
0000
0030
0000
,
0002
0000
0003
0000
,
2000
0000
3000
0000
,
0200
0000
0300
0000
,
2000
0000
3000
0000
,
0020
0000
0030
0000
,
0200
0000
0300
0000
,
0002
0000
0003
0000
,
1001
0000
0001
0000
,
0100
0100
0000
0000
,
0110
0000
0010
0000
,
1000
1000
0000
0000
,
1001
0000
0100
0000
,
0010
0010
0000
0000
,
0110
0000
1000
0000
,
0001
0001
0000
0000
,
1000
1000
0000
0000
,
0010
0010
0000
0000
,
0100
0100
0000
0000
;

//---------------dance-single - ----------------
#NOTES:
     dance-single:
     :
     Easy:
     7:
     :
0000
0000
0000
0000
,
0000
0000
0000
0000
,
0000
0000
0000
0000
,
0000
0000
0000
0000
,
0000
0000
0000
0000
,
1000
0010
1000
0010
,
1000
0001
0010
0100
,
1000
0010
0100
0001
,
0010
0100
0010
0001
,
1001
0110
1001
0000
,
1000
1000
0001
0010
,
0001
0100
0010
1000
,
0100
0001
0010
0010
,
0001
1000
0001
0100
,
0010
1000
0100
0001
,
1000
0001
0010
0100
,
1000
0010
1000
0001
,
0100
0010
0100
0110
,
0001
0010
0100
1000
,
0020
0030
1000
1000
,
0100
0010
1000
0001
,
0020
0030
0001
0001
,
1000
0001
0010
0100
,
2000
3000
0100
0100
,
0010
0001
1000
0100
,
0020
0030
0001
1000
,
0010
0000
1000
0100
,
1000
0001
0010
0100
,
1000
0000
0010
1000
,
0001
0010
0001
0100
,
0010
0000
1000
0001
,
0010
0100
0010
0001
,
1000
0000
0010
1000
,
0100
0010
0001
0000
,
1000
0001
0001
0001
,
0010
0010
0001
1000
,
0010
0100
0100
0100
,
0010
0010
1000
0001
,
0000
0010
0001
0100
,
0000
0010
1000
0100
,
0000
0010
0001
1000
,
2002
0000
0000
0003
,
3010
0010
0100
0001
,
0010
0001
0100
0010
,
1000
0100
1000
0001
,
0010
0001
1000
0001
,
0010
0010
0100
0100
,
1000
0001
1000
0001
,
1000
0010
0100
0001
,
0010
0100
0010
0110
,
0100
1000
0001
0010
,
0200
0300
1000
1000
,
0010
0100
0001
1000
,
0200
0300
0010
0010
,
0001
0100
0010
1000
,
0200
0300
0100
0100
,
1000
0001
0100
0010
,
2000
3000
0001
1000
,
0010
0000
1000
0000
,
0200
0000
0300
1000
,
0001
0000
0100
0000
,
0020
0000
0030
1000
,
0001
0000
0010
0000
,
2000
0000
3000
0100
,
1000
0000
0100
0000
,
0002
0000
0003
1001
,
0110
0000
1000
0100
,
0010
0001
0100
0110
,
1001
0000
0010
1000
,
0001
0010
0001
1001
,
0110
0000
1000
0100
,
1000
0010
0100
0110
,
1001
0000
0001
0010
,
0001
1000
1000
0010
,
1000
0001
0001
0100
,
0010
1000
1000
0001
,
1001
0110
0000
0000
;

//---------------dance-single - ----------------
#NOTES:
     dance-single:
     :
     Medium:
     9:
     :
0000
0000
0000
0000
,
0000
0000
0000
0000
,
0000
0000
0000
0000
,
0000
0000
0000
0000
,
0000
0000
0000
0000
,
2000
0000
0000
3002
0000
0000
0000
0000
,
0023
0000
0000
0000
0000
0000
0031
0000
1000
0000
0000
0100
0000
0000
1000
0000
,
0002
0000
0000
0203
0000
0000
0000
0000
,
0320
0000
0000
2030
0000
0000
3001
0000
,
1001
0000
0110
0000
1000
0001
0000
0000
,
0010
0000
0001
0000
0100
0010
1000
0000
,
0100
0000
0010
0000
0001
1000
0001
0000
,
1000
0100
0001
0000
0010
0000
0011
0000
,
1000
0001
0100
0000
0010
1000
0010
0000
,
1000
0000
1010
0000
0001
0100
0010
0000
,
1000
0001
1000
0000
1100
0000
0101
0000
,
0010
0001
0100
0000
0010
1000
0001
0000
,
1000
0100
0001
0000
0010
0100
0010
0000
,
0002
0000
0103
0020
0000
1030
0200
0000
,
0310
0001
0100
1000
,
0020
0000
1030
0002
0000
0013
0200
0000
,
2300
3000
1100
0011
,
2000
0000
3001
0200
0000
0301
0020
0000
,
0130
0110
1001
0100
,
0020
0000
1030
0002
0000
1003
0200
0000
,
0320
0030
1000
0001
,
0020
0000
0030
0000
0001
0100
0010
2000
,
0000
0001
3002
0000
0000
0000
0203
0000
,
0302
0000
0003
0000
0010
0001
1000
0020
,
0000
0100
0230
0000
0000
0000
0302
0000
,
2003
0000
3000
0000
0100
1000
0001
0200
,
0000
0010
0320
0000
0000
0000
2030
0000
,
3200
0000
0300
0000
0010
0001
1000
0002
,
0000
0010
0023
0000
0000
0000
0030
0000
,
0001
0100
1000
0000
0010
0000
0100
0000
,
0001
1000
0010
0000
1000
0000
0001
0000
,
0010
0100
1000
0000
0001
0000
0010
0000
,
0100
0010
0001
0000
1000
0000
0001
0000
,
1000
0001
0000
1000
0001
0000
0100
0000
,
0010
1000
0000
0010
1000
0000
0001
0000
,
0010
0100
0000
0010
0100
0000
2000
0002
,
0000
0000
0000
3003
,
0010
0001
0100
0000
0110
0000
1001
0000
,
1000
0001
0100
0000
0010
0000
1010
0000
,
1000
0100
0001
0000
0010
0001
0100
0000
,
0101
0000
1010
0000
0100
0010
0100
0000
,
0002
0013
2000
3100
,
1000
0001
0100
0000
1001
0000
0011
0000
,
0100
0100
0001
0110
,
1000
0000
0001
0000
0100
0010
0100
0000
,
0002
0000
1003
0200
0000
0310
0002
0000
,
2003
3000
0010
0010
,
0200
0000
0301
0020
0000
0031
2000
0000
,
3200
1000
1000
1300
,
0020
0000
1030
0020
0000
0130
0002
0000
,
0013
1001
0101
1000
,
0200
0000
0310
0002
0000
1003
0002
0000
,
0203
0300
0001
1000
,
0020
0030
1000
0100
,
1000
0002
0000
0013
,
0200
0300
1000
0001
,
1000
0020
0000
0130
,
0002
0003
0010
0001
,
0100
0020
0000
1030
,
0200
0300
0010
0100
,
1000
0002
0003
0101
,
2200
0000
0300
0000
3001
1000
0001
2000
,
0000
0010
3020
0000
0030
0000
0110
0000
,
2002
0000
3000
0000
0013
0100
0010
0200
,
0000
1000
2300
0000
3000
0000
1100
0000
,
0022
0000
0003
0000
0031
0100
0001
0200
,
0000
0010
0320
0000
0030
0000
1001
0000
,
0220
0000
0030
0000
0310
1000
0010
2000
,
0000
0001
3002
0000
0000
0000
0103
0020
,
0000
1000
2030
0000
0000
0000
3100
0020
,
0000
0001
0032
0000
0000
0000
1003
0002
,
0000
0100
0103
0000
0000
0000
0000
0000
;

//---------------dance-single - ----------------
#NOTES:
     dance-single:
     :
     Hard:
     12:
     :
0000
0000
0000
0000
,
0000
0000
0000
0000
,
0000
0000
0000
0000
,
0000
0000
0000
0000
,
0000
0000
0000
0000
,
2000
0000
3001
0200
0000
0000
0300
0000
,
0010
0000
1000
0001
0000
0000
0010
0000
0001
0000
0000
1000
0000
0000
0100
0000
,
2000
0000
3010
0200
0000
0301
0000
0000
,
0010
0002
0000
2003
0000
0000
3100
0010
,
1001
0000
0100
0001
1000
0001
0000
0100
,
0010
1000
0001
0000
0010
0100
1000
0000
,
0001
0100
0001
0010
0001
1000
0100
0000
,
1000
0010
0001
1000
0001
0100
0010
0000
,
1000
0100
0010
0000
0001
1000
0001
0000
,
0100
0010
1000
0010
1000
0001
0100
0000
,
0010
0100
0001
0000
1000
0010
0001
0000
,
0100
0010
0100
0001
0010
0100
1000
0000
,
0010
1000
0010
1000
0001
0100
0110
0000
,
0001
0010
0001
1000
0010
1000
0001
0010
,
0001
0000
0100
0010
2000
0000
3002
0000
,
1003
0100
1000
0001
0100
0001
1000
0100
,
2000
3000
0101
1010
,
0001
0100
0001
1000
0100
1000
0001
0100
,
0001
0000
0110
0000
1001
0000
0100
0010
,
1000
0010
1000
0001
0010
0001
1000
0010
,
2000
3000
1001
1001
,
0020
0000
0130
0000
0001
0010
0001
1000
,
0010
0100
0002
0000
1003
0000
1100
0000
,
0201
0000
0301
0000
1000
0010
1000
0100
,
0010
0001
2000
0000
3100
0000
0011
0000
,
2010
0000
3001
0000
0010
0100
1000
0010
,
1000
0001
0200
0000
0310
0000
0110
0000
,
1002
0000
0013
0000
0001
1000
0010
0100
,
0001
0010
1000
0000
1100
0000
0011
0000
,
1000
0000
0010
0000
0000
0100
0000
0000
0010
0000
0000
0100
0000
0000
0010
0000
,
0000
0100
0000
0000
0010
0000
0000
0100
0000
0000
0010
0000
0000
0100
0000
0000
,
0010
0000
1000
0000
0000
0001
0000
0000
1000
0000
0000
0001
0000
0000
1000
0000
,
0000
0001
0000
0000
1000
0000
0000
0001
0000
0000
1000
0000
0000
0001
0000
0000
,
0000
0000
0200
0000
0000
0302
0000
0000
2003
0000
0000
3002
0000
0000
0203
0000
,
0000
0000
0320
0000
0000
2030
0000
0000
3002
0000
0000
2003
0000
0000
3020
0000
,
0000
0000
2030
0000
0000
3200
0000
0000
0320
0000
0000
0230
0000
0000
2300
0000
,
0000
0000
0001
0000
0000
0001
0000
0000
0001
0000
0000
0001
0000
0000
0001
0000
,
3001
0100
0010
0000
1001
0000
0110
0000
,
1000
0100
1000
0010
1000
0001
0100
0000
,
0010
1000
0010
1000
0001
1000
0010
0000
,
0100
0001
0010
0000
0001
1000
0100
0000
,
0001
1000
0010
0000
0100
0001
0100
0000
,
0010
1000
0010
0000
1000
0001
0100
0000
,
0101
0000
1010
0000
0001
0010
0100
0000
,
1000
0001
1000
0001
0010
0001
0100
0000
,
0001
0010
0001
1000
0010
1000
0001
0010
,
0002
0003
0200
0320
,
1030
0100
1000
0001
0100
0001
1000
0100
,
2000
0010
0010
3010
,
0001
0100
0001
1000
0100
1000
0001
0100
,
0001
0011
1100
0001
,
1000
0010
1000
0001
0010
0001
1000
0010
,
2000
3000
1001
1001
,
0020
0000
0030
0000
1000
0000
0010
1000
,
0000
0001
0200
0000
0300
0000
0101
0000
,
1010
0000
0000
0000
0001
0000
0010
0100
,
0000
1000
0002
0000
0003
0000
1100
0000
,
0011
0000
0000
0000
0100
0000
0010
1000
,
0000
0001
0020
0000
0030
0000
1001
0000
,
0110
0000
0000
0000
1000
0000
0010
0100
,
0000
0001
2000
0000
3000
0000
0110
0000
,
0120
0000
1030
0000
0100
0010
0001
0100
,
0001
1000
0020
0000
0130
0000
0101
0000
,
1200
0000
0310
0000
0001
0100
0001
0010
,
0001
1000
0200
0000
0310
0000
0011
0000
,
2010
0000
3001
0000
1000
0100
1000
0010
,
0100
0001
0020
0000
0130
0000
0110
0000
,
2001
0000
3010
0000
1000
0100
1000
0002
,
0000
0100
0103
0000
0100
0000
0001
2000
,
0000
0100
3100
0000
0100
0000
1000
0002
,
0000
0100
0103
0000
0100
0000
0100
0010
,
0000
0110
0110
0000
0000
0000
0000
0000
;

//---------------dance-single - ----------------
#NOTES:
     dance-single:
     :
     Challenge:
     14:
     :
0000
0000
0000
0000
,
0000
0000
0000
0000
,
0000
0000
0000
0000
,
0000
0000
0000
0000
,
0000
0000
0000
0000
,
1000
0000
0000
0000
0100
0000
0000
0000
1000
0000
0000
0001
0000
0000
0100
0000
,
0000
0000
0000
0000
0010
0000
0000
0000
0100
0000
0000
0001
0000
0000
1000
0000
,
0002
0103
2000
3010
,
0200
0310
2000
3001
,
1001
0000
0100
0000
0001
0000
0010
0000
1000
0000
0001
0000
0000
0000
0100
0010
,
0100
0001
0010
0001
0100
0010
1000
0000
,
0100
1000
0010
1000
0100
0010
0001
0000
,
0100
0000
0001
1000
0001
0000
1000
0001
1000
0000
0010
0000
0100
0000
0000
0000
,
0001
0010
0000
0010
0000
0000
0001
1000
0001
0000
0100
0000
0010
0000
0000
0000
,
1000
0000
0100
0000
0010
0000
0001
0000
0100
0010
0100
0000
0001
0000
0000
0000
,
0010
0001
1000
0010
1000
0100
0001
0000
,
0010
0000
0001
0000
0100
0000
0010
1000
0010
0000
1000
0100
1000
0000
0000
0000
,
0001
0100
0001
0100
0001
0000
1000
0000
0010
0100
0010
0000
0110
0000
0000
0000
,
0001
0010
1000
0001
0100
1000
0001
0010
,
1000
0000
0100
1000
0001
1000
0100
0000
,
1000
0010
0001
1000
0100
0001
1000
0010
,
0001
0000
0000
0001
1000
0000
0000
1000
0001
0000
0000
0001
0010
0000
0100
0000
,
1000
0100
0001
1000
0010
0001
1000
0100
,
0001
0000
0010
0000
0200
0000
1000
0000
1300
0000
0000
0001
0000
0000
0100
0000
,
0001
0100
1000
0001
0010
1000
0001
0100
,
2000
3000
1001
1001
,
0010
1000
0100
0001
0100
1000
0010
0100
,
0001
0010
1000
0010
0001
0100
0010
0000
,
0110
0001
1000
0000
1010
0001
0100
0010
,
0001
0010
1000
0010
1000
0001
0100
0000
,
0110
0010
1000
0000
0101
0001
0010
1000
,
0010
0100
0010
0001
0100
0010
1000
0000
,
1100
0001
1000
0000
0011
0100
0010
1000
,
0001
0000
0100
0000
0010
1000
0000
0010
1000
0000
0010
1000
0000
0010
1000
0000
,
0100
0000
0010
0000
0001
1000
0000
0001
1000
0000
0000
0010
0000
0000
0100
0000
,
0000
0001
0000
0000
0010
0000
0000
0001
0000
0000
1000
0000
0000
0010
0000
0000
,
0100
0000
0001
0000
0010
0100
0000
0010
0100
0000
0000
1000
0000
0000
0001
0000
,
0000
0100
0000
0000
0010
0000
0000
1000
0000
0000
0001
0000
0000
1000
0000
0000
,
0100
0000
0010
0000
0001
1000
0000
1000
0020
0000
0000
0230
0000
0000
0301
0000
,
0010
0000
0100
0000
1000
0001
0000
0001
0200
0000
0000
0320
0000
0000
1030
0000
,
0001
0000
1000
0000
0100
0010
0000
0010
0002
0000
0000
2003
0000
0000
3010
0000
,
2000
0000
0100
0000
0000
0001
0000
0000
0100
0000
0000
0010
0000
0000
0100
0000
,
3100
0000
1000
0000
0100
0000
0001
0000
0010
0000
0000
0001
0000
1000
0000
0000
,
0010
0000
1000
0000
0100
0000
0010
0001
0010
0000
0001
0000
1000
0000
0100
0000
,
0010
0000
0001
0100
0001
0000
1000
0100
1000
0000
0010
0000
0020
0000
0000
0000
,
0130
0001
0100
0010
1000
0100
0001
0000
,
0011
0001
0010
0000
1100
1000
0100
0000
,
0010
0000
0001
0100
0001
0000
0010
0100
0010
0000
0001
0000
1000
0000
0000
0000
,
1010
0100
1010
0000
0001
0100
1000
0000
,
0010
0000
1000
0100
0000
1000
0000
0001
0100
0000
1001
0000
0110
0000
0000
0000
,
0001
0010
1000
0001
0100
1000
0001
0010
,
1000
0000
0100
0010
0001
1000
0100
0000
,
1000
0010
0001
1000
0100
0001
1000
0010
,
0001
0200
2300
3200
,
1300
0100
0001
1000
0010
0001
1000
0100
,
0001
0000
1000
0000
0020
0000
0100
0000
0130
0000
0000
0001
0000
0000
1000
0000
,
0001
0100
1000
0001
0010
1000
0001
0100
,
1000
0010
0100
0000
1001
0000
1001
0000
,
0020
0000
0030
0000
1000
0100
1000
0002
,
0000
0100
0200
0000
0303
0000
0011
0000
,
2200
0000
0300
0000
3001
1000
0001
0200
,
0000
0010
0020
0000
0330
0000
1010
0000
,
0202
0000
0003
0000
0310
1000
0001
2000
,
0000
0100
0200
0000
3300
0000
0110
0000
,
2002
0000
3000
0000
0103
0010
1000
0002
,
0000
0000
1000
0000
1003
0000
0000
0001
0100
0000
0000
0010
1000
0000
0000
0000
,
1100
0010
1000
0001
0100
1000
0100
0001
,
0010
0100
0001
0100
1000
0010
0100
0000
,
0101
0010
0001
0100
0010
0001
0010
1000
,
0100
1000
0001
0100
1000
0100
0010
0000
,
1001
1000
0100
0001
0010
1000
0010
0100
,
0010
0001
0100
1000
0100
0001
0010
0000
,
0011
1000
0010
0100
0010
1000
0001
0100
,
0000
0101
1100
0000
1100
0000
0001
1000
,
0000
1010
0011
0000
0011
0000
0100
0010
,
1000
0000
0100
0000
1000
0001
0000
1000
0001
0000
0000
0000
0100
0000
0010
0000
,
0000
1001
0110
0000
0000
0000
0000
0000
;
