#TITLE:DM STAR;
#SUBTITLE:~KANSAI energy style~;
#ARTIST:NAOKI;
#BANNER:DM STAR ~KANSAI energy style~-bn.png;
#BACKGROUND:DM STAR ~KANSAI energy style~-bg.png;
#JACKET:DM STAR ~KANSAI energy style~-jacket.png;
#MUSIC:DM STAR ~KANSAI energy style~.ogg;
#SAMPLESTART:39.424;
#SAMPLELENGTH:20;
#DISPLAYBPM:155;
#BPMS:0=155.09;
#BGCHANGES:;

//---------------dance-single - ----------------
#NOTES:
     dance-single:
     :
     Beginner:
     3:
     :
0000
0000
0000
0000
,
0000
0000
0000
0000
,
0000
0000
0000
0000
,
0000
0000
0000
0000
,
0000
0000
0000
0000
,
1000
0000
0001
0000
,
0020
0000
0030
0000
,
0001
0000
1000
0000
,
0200
0000
0300
0000
,
0010
0010
0010
0000
,
0001
0000
0001
0000
,
1000
0000
1000
0000
,
0010
0000
0010
0000
,
0100
0000
0100
0000
,
0001
0000
0010
0000
,
0100
0000
1000
0000
,
0010
0000
1000
0000
,
0100
0000
0001
0000
,
1000
1000
1000
0000
,
0001
0000
0100
0000
,
0010
0010
0010
0000
,
1000
0000
0001
0000
,
0100
0100
0100
0000
,
0001
0000
1000
0000
,
0001
0001
0001
0000
,
1001
0000
0110
0000
,
0010
0000
1000
0000
,
0100
0100
0000
0000
,
1000
0000
0001
0000
,
0010
0010
0000
0000
,
0001
0000
1000
0000
,
0001
0001
0000
0000
,
0010
0000
0100
0000
,
1000
1000
0000
0000
,
0001
0000
1000
0000
,
0000
0000
0000
0100
,
0100
0000
0000
0000
,
0000
0000
0000
0000
,
1000
0000
1000
0000
,
0001
0000
0001
0000
,
1000
0000
0001
0000
,
1001
0000
0110
0000
,
0010
0000
0010
0000
,
0100
0000
0100
0000
,
1000
0000
0001
0000
,
1000
0000
0001
0000
,
1000
0000
1000
0000
,
0001
0000
0001
0000
,
0010
0000
0010
0000
,
0100
0000
0100
0000
,
0010
0010
0010
0000
,
0001
0000
0100
0000
,
1000
1000
1000
0000
,
0001
0000
1000
0000
,
0001
0001
0001
0000
,
1000
0000
0010
0000
,
0100
0100
0100
0000
,
1001
0000
0110
0000
,
0010
0000
0000
0000
,
1000
0000
0000
0000
,
0001
0000
0000
0000
,
0100
0000
0000
0000
,
0001
0000
0000
0000
,
0010
0000
0000
0000
,
0100
0000
0000
0000
,
1000
0000
0000
0000
,
0010
0000
1000
0000
,
0001
0001
0000
0000
,
0010
0000
0001
0000
,
0100
0100
0000
0000
,
1000
0000
0001
0000
,
0010
0010
0000
0000
,
0001
0000
0100
0000
,
1000
1000
0000
0000
,
0010
0010
0000
0000
,
0100
0100
0000
0000
,
0001
0001
0000
0000
;

//---------------dance-single - ----------------
#NOTES:
     dance-single:
     :
     Easy:
     7:
     :
0000
0000
0000
0000
,
0000
0000
0000
0000
,
0000
0000
0000
0000
,
0000
0000
0000
0000
,
0000
0000
0000
0000
,
1000
1100
0100
0101
,
0001
0011
0010
1010
,
1000
1001
0010
0110
,
1000
0010
0100
0001
,
0010
0010
0001
0100
,
0010
1000
0010
0100
,
0001
0010
0001
1000
,
0100
0010
0100
1000
,
0010
1000
0001
0010
,
0001
0100
0010
0100
,
0001
0010
0001
1000
,
0100
0010
0001
0100
,
0001
0010
0100
1000
,
0010
0010
1000
0001
,
0010
0001
0100
0100
,
0010
1000
0100
1000
,
0002
0000
0010
0013
,
1000
1000
0001
0010
,
0200
0000
1000
1300
,
0010
1000
0100
0001
,
0010
0100
1001
1001
,
0010
1000
0100
0010
,
0001
0100
0001
1000
,
0100
0010
0001
0100
,
0010
0100
0001
0010
,
0100
1000
0010
1000
,
0100
1000
0001
0010
,
0001
0100
0010
1000
,
0100
0010
0001
1000
,
0010
0000
0010
0000
,
0010
0000
0010
1000
,
0100
0000
0100
0000
,
0100
0000
0100
0010
,
0001
0001
0001
0001
,
1000
1000
1000
1000
,
0001
0001
1000
1000
,
0020
0200
0300
0130
,
0001
0001
1000
1000
,
0010
1000
0100
0010
,
0001
0100
0001
0010
,
0100
1000
0010
0100
,
0010
1000
0100
0001
,
1000
0001
0010
0001
,
1000
0010
1000
0100
,
0010
0010
0001
1000
,
0010
1000
0100
0010
,
0002
0000
1000
0103
,
1000
0010
0100
0010
,
2000
0000
0001
3001
,
1000
0001
0010
0100
,
0020
0000
0001
0031
,
1000
0010
1000
0001
,
0200
0300
0110
0110
,
0010
0000
1000
0000
,
0100
0010
0001
1000
,
0010
0000
0100
0000
,
0010
1000
0100
1000
,
0001
0000
1000
0000
,
0100
0010
0001
0100
,
0001
0000
0010
0000
,
0001
1000
0010
0101
,
0101
0001
0010
0100
,
1000
0010
0100
1010
,
1010
1000
0001
1000
,
0100
0010
0001
0011
,
0011
1000
0001
0010
,
0001
0100
1000
1100
,
1100
0010
1000
0001
,
0200
0010
0010
0310
,
2000
0001
0001
3001
,
0020
0001
0001
0031
,
0100
0002
0000
0003
;

//---------------dance-single - ----------------
#NOTES:
     dance-single:
     :
     Medium:
     10:
     :
0000
0000
0000
0000
,
0000
0000
0000
0000
,
0000
0000
0000
0000
,
0000
0000
0000
0000
,
0000
0000
0000
0000
,
1000
0000
0001
0000
0010
0001
0100
0000
,
0010
0000
1000
0000
0100
0010
0001
0000
,
1000
0000
0100
0000
1000
0010
0001
0000
,
0100
0010
1000
0100
0010
0001
0000
0000
,
1000
0010
1000
0001
0100
0010
1000
0000
,
0100
1000
0001
0000
0010
0001
0100
0000
,
0001
0010
0001
0000
1000
0100
0010
0000
,
0001
0100
0001
0000
0010
0100
1000
0000
,
0010
1000
0100
0010
0001
0100
0001
0000
,
1000
0001
1000
0000
0001
0010
0100
0000
,
1000
0010
0100
0000
0001
0010
1000
0000
,
0100
0010
0100
0010
0001
0100
1000
0000
,
0001
1000
0010
1000
0100
0010
0001
0000
,
1000
0100
0001
0010
0000
0010
0001
0100
,
1000
0000
0001
0100
0001
0000
1001
0000
,
0001
0010
1000
0100
0000
0100
1000
0010
,
0001
0000
0100
0010
1000
0000
0110
0000
,
0010
1000
0100
0001
0000
0001
0100
1000
,
0010
0000
0200
0000
0000
0000
0000
0000
0301
0000
0000
0010
0000
0000
0001
0000
,
0010
0000
0100
1000
0000
0010
1000
0001
,
0200
0300
0101
1100
,
0010
0000
1000
0000
0100
0010
0001
0100
,
0000
0001
1000
0000
0010
0000
1010
0000
,
0011
0000
0010
0000
0001
0100
0010
1000
,
0000
0100
0010
0000
0001
0000
0101
0000
,
1010
0000
0001
0000
1000
0001
0010
0100
,
0000
1000
0010
0000
0100
0000
0110
0000
,
1001
0000
0001
0000
0010
0100
1000
0010
,
0000
1000
0001
0000
0100
0000
0011
0000
,
2100
0000
0000
0002
0000
0000
3003
0000
,
0100
0010
1000
0010
1000
0100
0001
0000
,
0010
0001
0100
0000
0000
0001
1000
0000
,
0010
0000
1000
0000
0100
0010
0001
0000
,
1000
0010
0000
0100
0000
0001
0000
1000
,
0000
0100
0000
0010
0000
0001
0000
1000
,
0000
0010
0000
1000
0000
0100
0010
0002
,
2000
0000
0000
3003
,
0010
1000
0010
0000
1100
0000
0101
0000
,
0001
0010
0001
0010
0100
1000
0001
0000
,
1000
0010
0100
0000
0010
1000
0001
0000
,
0010
0100
1000
0000
0100
0010
0001
0000
,
1000
0100
0010
0000
0011
0000
1010
0000
,
0100
1000
0001
1000
0100
1000
0001
0000
,
1001
0000
0110
0000
1000
0100
0001
0000
,
0010
0001
0100
0001
0010
0100
1000
0000
,
0010
1000
0100
0001
0000
0001
0100
1000
,
0010
0000
0100
0001
1000
0000
0110
0000
,
1000
0100
0001
0010
0000
0010
0001
0100
,
1000
0000
0010
0100
0001
0000
1001
0000
,
0100
0001
0010
1000
0000
1000
0010
0001
,
0100
0000
0020
0000
0000
0000
0000
0000
1030
0000
0000
0001
0000
0000
0100
0000
,
0010
0000
1000
0001
0000
1000
0100
0010
,
0002
0003
0101
1100
,
0010
0001
0100
0010
,
1000
0100
1000
0001
,
0010
0001
1000
0001
,
0010
0100
1000
0010
,
1000
0100
0010
0001
,
0100
0001
0010
0100
,
1000
0010
1000
0001
,
0100
0010
1000
0001
,
0011
0000
0100
0000
0001
0010
0100
1000
,
0000
0010
2000
0000
3100
0000
1010
0000
,
0101
0000
0010
0000
0001
1000
0001
0100
,
0000
0010
0200
0000
0301
0000
1001
0000
,
1010
0000
0100
0000
1000
0001
1000
0010
,
0000
0100
0002
0000
0013
0000
0011
0000
,
0110
0000
1000
0000
0010
1000
0100
0020
,
0000
0031
1000
0000
1000
0000
0010
0200
,
0000
0301
1000
0000
1000
0000
0001
0020
,
0000
0031
0100
0000
0100
0000
0010
1000
,
0000
1000
1100
0000
0000
0000
0000
0000
;

//---------------dance-single - ----------------
#NOTES:
     dance-single:
     :
     Hard:
     13:
     :
0000
0000
0000
0000
,
0000
0000
0000
0000
,
0000
0000
0000
0000
,
0000
0000
0000
0000
,
0000
0000
0000
0000
,
1000
0000
0001
0100
0001
0010
0100
1000
,
0010
0000
1000
0001
0100
0001
1000
0000
,
0010
0000
1000
0001
0010
0100
1000
0001
,
1000
0100
0010
0001
0100
0010
1000
0000
,
0001
0000
0100
0000
1000
0000
0010
0000
0001
0100
0001
0000
1000
0000
0010
0000
,
1000
0001
1000
0001
1000
0000
0100
0000
0010
0000
0001
0000
0100
0000
0010
0000
,
1000
0100
1000
0000
0001
0000
0010
0000
0001
0000
0100
0000
0010
0000
1000
0000
,
0100
0000
0010
0001
0010
0000
0100
1000
0100
0000
1000
0000
0001
0000
0000
0000
,
0010
0000
0001
0000
0100
0000
0010
1000
0010
0000
0100
0000
0001
0000
0000
0000
,
0010
0000
0001
0000
1000
0000
0100
0010
0100
0000
1000
0000
0001
0000
0000
0000
,
0010
0000
0001
0100
0000
0001
0100
0000
0010
0000
1000
0000
0001
0000
0000
0000
,
1000
0100
1000
0000
0010
0000
0100
0000
0001
0000
1000
0010
1000
0000
0000
0000
,
0001
0000
0010
0100
0010
0000
0001
0000
1000
0100
1000
0000
0010
0000
0000
0000
,
0100
0001
0000
0001
0010
0000
0100
1000
0000
1000
0010
0000
0100
0001
0000
1000
,
0010
0000
0100
0001
1000
0100
0010
0000
,
0001
1000
0000
1000
0100
0000
1000
0001
0000
0001
0100
0000
0010
0100
0000
0010
,
0100
0000
0001
0010
0100
1000
0010
1000
,
0100
0010
0000
0010
0001
0000
0100
0010
0000
0010
1000
0000
0100
1000
0000
0001
,
0100
0000
0010
0000
1000
0000
0001
0000
0010
0000
0000
0100
0000
0000
1000
0000
,
0010
1000
0001
0010
0001
1000
0010
1000
,
0001
0100
0010
1000
1100
0000
1100
0000
,
0010
0001
1000
0010
1000
0100
0010
0001
,
0100
0010
1000
0001
0010
0100
1000
0000
,
0010
1000
0100
0001
0100
0010
0001
1000
,
0010
0100
1000
0100
0001
1000
0010
0000
,
1000
0001
0010
0100
0001
0100
1000
0010
,
1000
0001
0100
0010
0100
0001
1000
0000
,
0100
0010
0001
0100
0001
1000
0010
1000
,
0100
0010
0001
0100
0001
1000
0010
0000
,
1001
0000
0100
0010
0000
1000
0001
0000
,
0010
0001
0000
0010
0100
0000
1000
0010
0000
1000
0001
0000
0100
0000
0000
0000
,
0110
0000
0000
0000
0010
0000
0000
1000
0000
0000
0001
0000
0000
0100
0000
0000
,
0001
0010
0000
0001
1000
0000
0001
0100
0000
0010
1000
0000
0100
0000
1000
0000
,
0010
0000
0200
0000
0000
0302
0000
0000
0023
0000
0000
0230
0000
0000
1300
0000
,
0010
0000
2000
0000
0000
3002
0000
0000
2003
0000
0000
3020
0000
0000
0130
0000
,
0010
0000
2000
0000
0000
3200
0000
0000
0320
0000
0000
0032
0000
0000
0103
0000
,
0010
1000
0010
1000
0010
1000
0010
1000
,
0001
0000
0010
0000
0001
0000
1000
0000
0100
0000
0000
0010
0000
0001
0000
0000
,
0100
0000
0010
0000
1000
0000
0001
0010
0001
0000
0100
0000
0010
0000
1000
0000
,
0100
0000
0010
0001
0010
0000
0100
1000
0100
0000
1000
0000
0001
0000
0000
0000
,
0010
0000
0001
0000
0100
0000
0000
0010
1000
0000
0001
0000
0100
0000
0000
0000
,
0001
1000
0010
0000
1000
0100
0001
0000
,
0010
0000
0001
0100
0001
0000
1000
0100
1000
0000
0010
0000
0100
0000
0000
0000
,
1001
0000
0000
0000
0110
0000
0000
0000
1000
0001
0000
0100
0010
0000
0000
0000
,
1000
0000
0100
0000
1000
0000
0001
0100
0001
0000
0010
0000
0010
0000
0000
0000
,
0001
0100
0000
0100
0010
0000
1000
0100
0000
0100
0010
0000
0001
1000
0000
0001
,
1000
0010
0100
0010
1000
0100
0001
0100
,
1000
0001
0000
0001
0010
0000
0001
1000
0000
1000
0010
0000
0100
0001
0000
0100
,
0010
0000
1000
0001
1000
0100
0010
0001
,
0100
0010
0000
0010
1000
0000
0100
0010
0000
0010
0001
0000
1000
0001
0000
0100
,
0010
1000
0100
1000
0001
0010
0001
0100
,
0010
1000
0001
0010
0001
1000
0010
1000
,
0001
0100
0010
1000
1100
0000
1100
0000
,
0010
0000
0000
0000
0001
1000
0001
1000
,
0000
0100
0020
0000
0000
0000
0031
0000
,
0100
0000
0000
0000
0010
1000
0010
1000
,
0000
0001
2000
0000
0000
0000
3100
0000
,
1000
0000
0000
0000
0010
0100
0001
1000
,
0000
0001
0200
0000
0000
0000
0310
0000
,
1000
0000
0000
0000
1000
0100
1000
0010
,
0000
0100
0002
0000
0000
0000
1003
0000
,
0010
1000
0100
0010
0001
0100
1000
0100
,
0010
0100
1000
0100
0001
0010
1000
0000
,
0100
0010
1000
0010
0001
0100
0010
0001
,
0010
1000
0010
0100
0010
1000
0001
0000
,
0010
1000
0010
0001
1000
0100
0010
1000
,
0010
0100
0010
0001
0100
0010
1000
0000
,
0001
0010
0001
0100
1000
0100
0001
0010
,
0100
1000
1001
0000
1001
0000
0010
0110
,
0000
0000
0100
0000
0110
0000
0000
0000
0001
1000
0001
0000
0010
0000
0100
0000
,
1000
0000
0010
0000
1000
0001
0000
1000
0001
0000
1000
0001
0000
1000
0001
0000
,
0000
0011
1100
0000
0000
0000
0000
0000
;
