#VERSION:0.83;
#TITLE:DISCO DOG;
#SUBTITLE:;
#ARTIST:ASLETICS;
#TITLETRANSLIT:;
#SUBTITLETRANSLIT:;
#ARTISTTRANSLIT:;
#GENRE:;
#ORIGIN:;
#TAGS:;
#CREDIT:;
#BANNER:DISCO DOG-bn.png;
#BACKGROUND:DISCO DOG-bg.png;
#PREVIEWVID:;
#JACKET:DISCO DOG-jacket.png;
#CDIMAGE:;
#DISCIMAGE:;
#LYRICSPATH:;
#CDTITLE:;
#MUSIC:DISCO DOG.ogg;
#OFFSET:0.000000;
#SAMPLESTART:30.222000;
#SAMPLELENGTH:20.000000;
#SELECTABLE:YES;
#DISPLAYBPM:135.000000;
#BPMS:0.000000=135.000000;
#STOPS:;
#DELAYS:;
#WARPS:;
#TIMESIGNATURES:0.000000=4=4;
#TICKCOUNTS:0.000000=4;
#COMBOS:0.000000=1;
#SPEEDS:0.000000=1.000000=0.000000=0;
#SCROLLS:0.000000=1.000000;
#FAKES:;
#LABELS:0.000000=Song Start;
#BGCHANGES:;
#KEYSOUNDS:;
#ATTACKS:
;

//---------------dance-single - ----------------
#NOTEDATA:;
#CHARTNAME:;
#CHARTHASH:0:
#STEPSTYPE:dance-single;
#BANNER:;
#DESCRIPTION:;
#CHARTSTYLE:;
#DIFFICULTY:Hard;
#METER:13;
#METERF:0.000000;
#RADARVALUES:0.650413,0.637405,0.263936,0.356313,0.389305,345.000000,325.000000,20.000000,27.000000,0.000000,0.000000,0.000000,0.000000,0.000000,0.650413,0.637405,0.263936,0.356313,0.389305,345.000000,325.000000,20.000000,27.000000,0.000000,0.000000,0.000000,0.000000,0.000000;
#CREDIT:;
#DISPLAYBPM:135.000000;
#NOTES:
0000
0000
0000
0000
,
0000
0000
0000
0000
,
1001
0000
0100
0010
1000
0001
0010
0100
,
1000
0000
0001
0000
1000
0100
0000
0100
0010
0000
0010
0000
0001
1000
0001
0000
,
1001
0000
0100
0010
1000
0001
0010
0100
,
1000
0000
1000
0000
0001
0100
0000
0100
0010
0000
1000
0001
0000
0000
1000
0001
,
0100
0000
0010
1000
0001
0100
0101
0101
,
0010
0000
0100
0000
1000
0000
0000
0000
0001
0000
0001
0000
0001
1000
0100
0000
,
1001
0000
0100
0010
1000
0001
0101
0101
,
0010
0000
0010
0000
0001
0100
0000
0100
0001
0000
1000
0001
0000
0000
1000
0001
,
0200
0000
0320
0000
2030
0001
3001
0100
,
0010
1000
0010
0200
0001
0000
1300
0001
,
0010
0100
1000
0001
0100
0000
0100
0010
,
1000
0001
0100
2010
0000
0010
3010
0100
,
0002
1000
2003
0000
3100
0010
0001
1000
,
0020
0100
0230
0000
0301
0010
0100
1000
,
0001
0001
1000
1000
0010
0010
0100
0100
,
0010
0000
0010
0000
0100
0000
0100
0000
1000
0001
1000
0001
1000
0001
1000
0001
,
1000
0000
0100
0000
0010
0000
0001
0000
0100
0000
0001
1000
0000
0001
1000
0000
,
0010
0000
0100
0000
0001
0000
1000
0100
1000
0000
0001
0010
0000
0000
0100
0001
,
0100
0000
0010
0000
1000
0000
0001
0000
0010
0000
0100
1000
0000
0100
1000
0000
,
0120
0000
0031
1000
0020
0100
0230
0001
,
0301
0000
1000
0000
0100
0000
0010
0000
0100
0000
1000
0001
0000
1000
0001
0000
,
0010
0000
0100
0000
0010
0000
0001
1000
0001
0000
1000
0100
0000
0000
0010
1000
,
0010
0000
0100
0000
0001
0000
1000
0000
0100
0000
0010
0001
0000
0010
0001
0000
,
0120
0000
0000
0000
0130
0000
0010
0000
0001
1000
0100
0000
0001
1000
0100
0000
,
1001
0000
0010
0100
0000
0100
0001
0000
0000
0000
0010
0100
0000
0100
1000
0000
,
0000
0000
0010
0100
0000
0001
0000
1000
0010
0000
0010
0000
0001
0100
0001
0000
,
0000
0000
0001
0010
0001
0000
0100
0000
0010
0000
1000
0100
0000
0100
1000
0000
,
0000
0000
0001
0010
0001
0000
0000
0000
1000
0001
1000
0001
0000
0000
1000
0001
,
0100
0000
0020
0000
0000
2030
0000
0000
3001
0000
0000
0000
0011
0000
1100
0000
,
0000
0000
0020
0000
2030
0000
3100
0000
1000
0000
1000
0000
0010
0001
0100
0000
,
0000
0000
1010
0000
1000
0001
0000
1000
0200
0000
0000
0000
0310
0000
0001
0000
,
1000
0001
1000
0001
1000
0001
1000
0001
2000
0000
0000
0000
0000
0000
0000
0000
,
3020
0000
0230
0000
0302
1000
1003
0100
,
0001
0010
0001
2000
0010
0000
3100
2010
,
0001
0000
3010
0201
1000
0000
0301
0120
,
1000
0000
0130
0012
1000
0000
0013
0100
,
1001
0010
1000
0010
0001
0000
0001
0100
,
1001
0100
0001
0100
1000
0000
1000
0100
,
0001
0010
0100
1000
0001
0010
0100
1000
,
0010
0000
0010
0000
0100
0000
0100
0000
0001
1000
0001
1000
0001
1000
0001
1000
,
0001
0000
0000
0000
;

//---------------dance-single - ----------------
#NOTEDATA:;
#CHARTNAME:;
#CHARTHASH:0:
#STEPSTYPE:dance-single;
#BANNER:;
#DESCRIPTION:;
#CHARTSTYLE:;
#DIFFICULTY:Medium;
#METER:10;
#METERF:0.000000;
#RADARVALUES:0.482625,0.498839,0.211149,0.475084,0.204550,256.000000,240.000000,16.000000,36.000000,0.000000,0.000000,0.000000,0.000000,0.000000,0.482625,0.498839,0.211149,0.475084,0.204550,256.000000,240.000000,16.000000,36.000000,0.000000,0.000000,0.000000,0.000000,0.000000;
#CREDIT:;
#DISPLAYBPM:135.000000;
#NOTES:
0000
0000
0000
0000
,
0000
0000
0000
0000
,
1001
0000
0000
0010
1000
0001
0000
0000
,
0000
0000
1000
0000
0000
0001
0000
0000
0010
0000
0010
0000
0000
0001
0000
0000
,
1001
0000
0000
0010
1000
0001
0000
0000
,
0100
0000
0100
0000
0000
0010
0000
0000
0100
0000
0001
1000
0000
0000
0001
1000
,
0001
0000
0000
1000
0010
0100
0101
0101
,
0000
0000
0000
0000
0000
0000
0000
0000
0010
0000
0010
0000
0000
1000
0000
0000
,
1001
0000
0000
0010
1000
0001
1100
1100
,
0001
0000
0001
0000
0000
1000
0000
0000
0010
0000
1000
0001
0000
0000
1000
0001
,
2000
0000
3020
0000
0230
0000
0301
1000
,
0000
1000
0100
0020
0000
0000
0031
1000
,
0001
0100
1000
0100
0001
0000
0001
0010
,
0100
1000
0000
2010
0000
0000
3001
0100
,
0020
0000
2030
0000
3000
0001
0100
0010
,
2000
0000
3002
0000
0013
0010
0100
1000
,
0001
1000
0200
0000
1300
0010
0100
0001
,
0210
0000
0301
1000
0020
0100
0230
0000
,
0301
0000
0100
0000
0010
0000
1000
0000
0001
0000
0000
0001
0000
0000
0001
0000
,
1000
0000
0100
0000
0010
0000
0001
1000
0001
0000
0000
0100
0000
0000
0010
0000
,
1000
0000
0001
0000
1000
0000
0100
0000
0010
0000
0000
0010
0000
0000
0010
0000
,
0012
0000
1003
0001
2000
0100
3200
0000
,
1300
0000
0001
0000
0100
0000
0010
0000
1000
0000
0000
1000
0000
0000
1000
0000
,
0100
0000
0010
0000
0001
0000
1000
0010
1000
0000
0000
0001
0000
0000
0100
0000
,
0010
0000
1000
0000
0001
0000
1000
0000
0100
0000
0000
0100
0000
0000
0100
0000
,
0120
0000
0031
1000
0020
0100
0230
0000
,
0301
0000
2000
0000
0000
3001
0000
0000
0000
0000
0020
0000
0000
0130
0000
0000
,
0000
0000
2000
0000
0000
3002
0000
0000
0013
0000
0010
0000
0000
1001
0000
0000
,
0000
0000
1000
0000
0010
0000
0100
0000
0001
0000
0000
1000
0000
0000
0100
0000
,
0000
0000
1000
0001
0000
0000
0000
0000
1000
0001
1000
0000
0000
0000
1000
0001
,
1000
0000
0020
0000
0000
0230
0000
0000
0301
0000
0000
0000
0001
0000
1000
0000
,
0000
0000
0010
0000
1000
0000
0001
0000
0100
0000
0100
0000
0000
0010
0000
0000
,
0000
0000
2000
0000
0000
3020
0000
0000
0130
0000
0000
0000
0001
0000
1000
0000
,
0001
1000
0001
1000
0001
1000
0000
0000
0020
0000
0000
0000
0000
0000
0000
0000
,
2030
0000
3002
0000
0203
0000
0310
1000
,
0000
1000
0100
0020
0000
0000
0031
2000
,
0000
3010
0000
0200
0000
0301
0000
2000
,
0000
3001
0000
0200
0010
0000
0301
1000
,
0001
0010
1000
0010
0001
0000
0001
1000
,
0001
0010
1000
0010
0001
0000
0001
1000
,
1100
0000
1000
0001
0101
0000
0001
1000
,
0110
0000
0010
1000
0001
0100
0001
0100
,
1001
0000
0000
0000
;

//---------------dance-single - ----------------
#NOTEDATA:;
#CHARTNAME:;
#CHARTHASH:0:
#STEPSTYPE:dance-single;
#BANNER:;
#DESCRIPTION:;
#CHARTSTYLE:;
#DIFFICULTY:Easy;
#METER:8;
#METERF:0.000000;
#RADARVALUES:0.363854,0.415699,0.369510,0.395904,0.000000,193.000000,165.000000,28.000000,30.000000,0.000000,0.000000,0.000000,0.000000,0.000000,0.363854,0.415699,0.369510,0.395904,0.000000,193.000000,165.000000,28.000000,30.000000,0.000000,0.000000,0.000000,0.000000,0.000000;
#CREDIT:;
#DISPLAYBPM:135.000000;
#NOTES:
0000
0000
0000
0000
,
0000
0000
0000
0000
,
1001
0100
0110
1000
,
0001
0110
1000
0001
,
1001
0100
0110
0001
,
1000
0110
0001
1000
,
1001
0000
0010
0000
0110
0000
0001
0001
,
1000
0001
0100
0010
,
1001
0000
0100
0000
0110
0000
1000
1000
,
0001
0010
1000
0100
,
0002
2003
3002
2003
,
3020
0230
0302
1003
,
1010
0010
0100
0001
,
1000
0001
0000
0200
0000
0000
0310
0000
,
2000
3002
0003
0100
,
0002
2003
3000
0010
,
1000
0001
1000
0001
,
1001
0000
1000
0001
0100
0000
0100
0000
,
0010
0100
0001
0001
,
0010
0100
1000
0001
,
0100
0010
1000
1000
,
1001
0000
1000
0001
0100
0000
0100
0000
,
0010
1000
0100
0100
,
1000
0010
0100
0001
,
1000
0001
0010
0010
,
1001
0000
1000
0001
0100
0000
0100
0000
,
0000
0020
0000
1030
0000
0020
0000
1030
,
0000
0001
1000
0001
0010
0000
0000
0100
,
0000
1000
0001
0000
1100
0000
0101
0000
,
0000
0110
0000
0000
1000
0001
0000
0001
,
0000
0000
0010
0000
0001
0000
1000
1000
,
0000
0010
0100
0010
1000
0000
1100
0000
,
0000
0001
0000
1000
0100
0000
1000
0001
,
0100
0010
0100
0000
2020
0000
3000
0000
,
2030
3002
0023
0032
,
0203
0320
2030
3000
,
2200
3300
0202
0303
,
2200
3300
0002
1003
,
1001
0100
1000
0001
,
1001
0100
1000
0001
,
1001
0100
1001
0100
,
1001
0000
0110
0000
0001
1000
0001
1000
,
0001
0000
0000
0000
;

//---------------dance-single - ----------------
#NOTEDATA:;
#CHARTNAME:;
#CHARTHASH:0:
#STEPSTYPE:dance-single;
#BANNER:;
#DESCRIPTION:;
#CHARTSTYLE:;
#DIFFICULTY:Beginner;
#METER:4;
#METERF:0.000000;
#RADARVALUES:0.205493,0.249419,0.211149,0.000000,0.000000,109.000000,93.000000,16.000000,0.000000,0.000000,0.000000,0.000000,0.000000,0.000000,0.205493,0.249419,0.211149,0.000000,0.000000,109.000000,93.000000,16.000000,0.000000,0.000000,0.000000,0.000000,0.000000,0.000000;
#CREDIT:;
#DISPLAYBPM:135.000000;
#NOTES:
// measure 0
0000
0000
0000
0000
,  // measure 1
0000
0000
0000
0000
,  // measure 2
1001
0000
0010
0000
,  // measure 3
0000
0000
1000
0000
,  // measure 4
1001
0000
0010
0000
,  // measure 5
1000
1000
1000
0000
,  // measure 6
1001
0000
0001
0001
,  // measure 7
0000
0000
0100
0000
,  // measure 8
1001
0000
1000
1000
,  // measure 9
1000
0000
0001
0000
,  // measure 10
0010
0000
0001
0000
,  // measure 11
1000
0000
0001
0000
,  // measure 12
0100
0100
0100
0000
,  // measure 13
0010
0000
0110
0000
,  // measure 14
0001
0001
0000
0000
,  // measure 15
1000
1000
0000
0000
,  // measure 16
0010
0010
0000
0000
,  // measure 17
0100
0000
0110
0000
,  // measure 18
0001
0001
0001
0000
,  // measure 19
0010
0000
0100
0000
,  // measure 20
1000
1000
1000
0000
,  // measure 21
0010
0000
0110
0000
,  // measure 22
0100
0100
0100
0000
,  // measure 23
0001
0000
1000
0000
,  // measure 24
0010
0010
0010
0000
,  // measure 25
0100
0000
0110
0000
,  // measure 26
0000
0001
0000
0001
,  // measure 27
0000
0100
0100
0000
,  // measure 28
0000
0010
0010
0010
,  // measure 29
0000
0000
1000
0000
,  // measure 30
0000
0001
0001
0001
,  // measure 31
0000
0010
0010
0000
,  // measure 32
0000
0100
0100
0000
,  // measure 33
1000
0000
1001
0000
,  // measure 34
0010
0010
0010
0000
,  // measure 35
1000
1000
1000
0000
,  // measure 36
0110
0000
1001
0000
,  // measure 37
0110
0000
1001
0000
,  // measure 38
0010
0010
0010
0000
,  // measure 39
0010
0010
0010
0000
,  // measure 40
0110
0000
1001
0000
,  // measure 41
0110
0000
0001
0001
,  // measure 42
0001
0000
0000
0000
;
