#TITLE:DEEP IN YOU;
#ARTIST:dj nagureo;
#BANNER:DEEP IN YOU.png;
#BACKGROUND:DEEP IN YOU-bg.png;
#JACKET:DEEP IN YOU-jacket.png;
#MUSIC:DEEP IN YOU.ogg;
#SAMPLESTART:26.668;
#SAMPLELENGTH:20;
#DISPLAYBPM:126;
#BPMS:0=125.994;
#BGCHANGES:;

//---------------dance-single - ----------------
#NOTES:
     dance-single:
     :
     Beginner:
     3:
     :
0000
0000
0000
0000
,
0000
0000
0000
0000
,
0000
0000
0000
0000
,
0000
0000
0000
0000
,
0000
0000
0000
0000
,
0010
0010
0010
0010
,
0010
0010
0000
0000
,
1000
0000
0001
0000
,
1000
0000
0000
0010
,
0010
0000
0000
0000
,
0100
0100
0100
0100
,
0100
0000
0000
0001
,
0001
0001
0000
0000
,
1001
0000
0000
0000
,
1000
1000
1000
0000
,
0001
0001
0001
0000
,
0010
0010
0010
0000
,
0100
0100
0100
0000
,
0010
0010
0010
0000
,
0100
0100
0100
0000
,
1000
1000
1000
0000
,
0001
0001
0001
0000
,
1001
0000
0010
0010
,
0000
0010
0010
0010
,
0000
0000
0001
0001
,
0000
0001
0001
0000
,
1001
0000
0000
1000
,
1000
0000
0010
0000
,
1000
0000
0100
0100
,
0100
0000
0000
1000
,
1000
1000
0000
0000
,
1001
0000
0000
0000
,
0010
0010
0010
0000
,
0100
0100
0100
0000
,
0001
0001
0001
0000
,
1000
1000
1000
0000
,
0001
0001
0001
0000
,
1000
1000
1000
0000
,
0010
0010
0010
0000
,
0100
0100
0100
0100
,
0100
0000
0000
0000
;

//---------------dance-single - ----------------
#NOTES:
     dance-single:
     :
     Easy:
     7:
     :
0000
0000
0000
0000
,
0000
0000
0000
0000
,
0000
0000
0000
0000
,
0000
0000
0000
0000
,
0000
0000
0000
0000
,
0001
1000
0001
1000
,
0010
0100
0001
1000
0000
0000
0000
0000
,
0010
0001
0100
1000
,
0010
0000
0001
0000
0100
0000
1000
0010
,
0100
0001
0010
1000
,
0100
0000
0001
0000
0010
0000
1000
0010
,
0100
0001
0001
0001
,
0010
1000
0100
0001
,
1001
0010
0010
0010
,
1000
1000
1000
0000
0001
0000
0100
0000
,
0001
0001
0001
0000
1000
0000
0001
0000
,
0010
0010
0010
0000
1000
0000
0100
0000
,
0001
0001
0001
0000
0010
0000
0001
0000
,
0010
0010
0010
0000
0001
0000
1000
0000
,
0100
0100
0100
0000
1000
0000
0100
0000
,
0001
0001
0001
0000
0010
0000
0100
0000
,
1000
1000
1000
0000
0010
0000
1000
0000
,
0001
0000
1000
0000
0001
1000
0100
0000
,
1000
0000
0001
0000
1000
0001
0100
0000
,
0001
0000
1000
0000
0001
1000
0100
0000
,
1000
0000
0001
0000
1000
0001
0100
0000
,
0010
0010
0010
0010
,
0001
0010
0001
0000
1000
0100
1000
0000
,
0010
1000
0010
0000
0100
0001
0100
0000
,
0010
1001
0010
1001
,
0100
1001
0100
1001
,
0010
0000
0010
0000
0001
0001
0001
0000
,
0001
1000
0001
0000
1000
0000
0100
0000
,
0010
0100
0010
0000
1000
0000
0100
0000
,
0010
0001
0010
0000
0001
0000
1000
0000
,
0100
1000
0100
0000
0001
0000
1000
0000
,
0100
0001
0100
0000
0010
0000
0001
0000
,
0010
1000
0010
0000
1000
0000
0001
0000
,
0001
0100
0001
0000
1000
0000
0010
0000
,
1000
0010
1000
0000
0100
0000
0010
0000
,
1001
0000
0000
0000
;

//---------------dance-single - ----------------
#NOTES:
     dance-single:
     :
     Medium:
     10:
     :
0000
0000
0000
0000
,
0000
0000
0000
0000
,
0000
0000
0000
0000
,
0000
0000
0000
0000
,
0000
0000
0000
0000
,
0001
1000
0001
1000
,
0010
0100
0001
1000
0000
0000
0000
0000
,
0010
1001
0100
0001
,
0100
1000
0100
1000
,
0010
0110
0001
0100
,
1000
0001
0100
0001
,
0010
1001
0100
0001
,
0010
0110
0001
0100
,
1001
0010
0010
0010
,
1000
0000
0000
0000
0001
0000
0000
0000
0100
0000
0001
0010
0000
0001
0010
0000
,
0001
0000
0000
0000
1000
0000
0000
0000
0010
0000
1000
0100
0000
1000
0100
0000
,
1000
0000
0000
0000
0001
0000
0000
0000
0100
0000
0001
0010
0000
0001
0010
0000
,
0001
0000
0000
0000
1000
0000
0000
0000
0010
0000
1000
0100
0000
1000
0100
0000
,
1000
0000
0000
0000
0001
0000
0000
0000
0100
0000
0001
0010
0000
0001
0010
0000
,
0001
0000
0000
0000
1000
0000
0000
0000
0010
0000
1000
0100
0000
1000
0100
0000
,
1000
0000
0000
0000
0001
0000
0000
0000
0100
0000
0001
0010
0000
0001
0010
0000
,
0001
0000
0000
0000
1000
0000
0000
0000
0010
0000
1000
0100
0000
1000
0100
0000
,
0010
0101
1000
0100
,
0010
1100
0001
0100
,
0010
0101
1000
0100
,
0010
1100
0001
0100
,
0010
0010
0010
0010
,
0001
0010
0001
0000
1000
0100
1000
0000
,
0010
1000
0010
0000
0100
0001
0100
0000
,
0010
1000
0001
0100
,
0010
1000
0001
0100
,
0010
0000
0010
0000
0001
0001
1001
0000
,
1000
0000
0000
0000
0001
0000
0000
0000
0100
0000
0001
1000
0000
0001
1000
0000
,
0001
0000
0000
0000
1000
0000
0000
0000
0010
0000
1000
0001
0000
1000
0001
0000
,
0100
0000
0000
0000
1000
0000
0000
0000
0010
0000
0001
0100
0000
0001
0100
0000
,
0010
0000
0000
0000
1000
0000
0000
0000
0100
0000
1000
0010
0000
1000
0010
0000
,
1000
0000
0000
0000
0001
0000
0000
0000
0010
0000
0001
0100
0000
0001
0100
0000
,
0010
0000
0000
0000
1000
0000
0000
0000
0100
0000
1000
0010
0000
1000
0010
0000
,
0001
0000
0000
0000
1000
0000
0000
0000
0100
0000
0001
0010
0000
0100
1000
0000
,
0001
0000
0000
0000
1000
0000
0000
0000
0010
0000
1000
0010
0000
0100
0001
0000
,
1001
0000
0000
0000
;

//---------------dance-single - ----------------
#NOTES:
     dance-single:
     :
     Hard:
     12:
     :
0000
0000
0000
0000
,
0000
0000
0000
0000
,
0000
0000
0000
0000
,
0000
0000
0000
0000
,
0000
0000
0000
0000
,
0001
0010
0001
1000
0001
0100
0001
1000
,
0010
0100
0001
1000
0000
0000
0001
0010
,
0100
0000
1100
0000
0000
0000
0000
0000
0100
0000
0000
0100
0000
0000
1001
0000
,
0000
0001
0000
0000
0000
0000
0010
1000
,
0001
0100
1000
0010
,
0001
0000
0100
0000
1000
0000
0010
1000
,
0001
0000
0000
0000
0000
0000
0000
0000
0000
0000
0100
0000
0000
0100
0000
0000
,
0100
1100
0000
0000
,
1001
0000
0010
0000
0010
0010
0010
0000
,
1000
0000
1000
0000
0001
0000
0001
0000
0010
0000
0001
0010
0000
0001
0010
0000
,
0001
0000
0001
0000
1000
0000
1000
0000
0100
0000
1000
0100
0000
1000
0100
0000
,
1000
0000
1000
0000
0001
0000
0001
0000
0010
0000
0001
0010
0000
0001
0010
0000
,
0001
0000
0001
0000
1000
0000
1000
0000
0100
0000
1000
0100
0000
1000
0100
0000
,
1000
0000
1000
0000
0001
0000
0001
0000
0010
0000
0100
0010
0000
0100
0010
0000
,
0001
0000
0001
0000
1000
0000
1000
0000
0010
0000
0100
0010
0000
0100
0010
0000
,
1000
0000
1000
0000
0001
0000
0001
0000
1000
0000
0001
1000
0000
0001
1000
0000
,
0001
0000
0001
0000
1000
0000
1000
0000
0001
0000
1000
0001
0000
1000
0001
0000
,
0000
0000
0000
0000
0001
0000
0000
0100
,
0000
0000
0000
0000
0000
0000
0000
0010
,
0100
0000
0001
0000
,
0000
0000
0000
0000
0000
0000
0000
0001
,
1000
0000
0010
0000
0010
0010
0010
0000
,
0001
0001
1000
1000
,
0100
0001
0100
0001
,
0010
1000
0010
1000
,
0001
0001
0100
0100
,
0001
0010
0001
0010
0001
0010
0001
0010
,
0001
0000
0001
0000
1000
0000
1000
0000
0010
0000
1000
0010
0000
1000
0010
0000
,
1000
0000
1000
0000
0001
0000
0001
0000
0100
0000
0001
0100
0000
0001
0100
0000
,
0001
0000
0001
0000
0100
0000
0100
0000
0010
0000
0100
0010
0000
0100
0010
0000
,
1000
0000
1000
0000
0010
0000
0010
0000
0100
0000
0010
0100
0000
0010
0100
0000
,
0001
0000
0001
0000
0100
0000
0100
0000
0010
0000
1000
0010
0000
1000
0010
0000
,
1000
0000
1000
0000
0010
0000
0010
0000
0100
0000
0001
0100
0000
0001
0100
0000
,
0001
0000
0001
0000
0010
0000
0010
0000
0100
0000
1000
0010
0000
0100
0001
0000
,
1000
0000
1000
0000
0010
0000
0010
0000
0100
0000
0001
0010
0000
0100
1000
0000
,
1001
0000
0000
0000
;

//---------------dance-single - ----------------
#NOTES:
     dance-single:
     :
     Challenge:
     15:
     :
0000
0000
0000
0000
,
0000
0000
0000
0000
,
0000
0000
0000
0000
,
0000
0000
0000
0000
,
0000
0000
0000
0000
,
0010
0100
0001
0100
1000
0100
0010
0100
,
1000
0000
0100
0000
0001
0000
0020
0000
0000
0000
0000
0000
0031
0010
0100
1000
,
0000
0000
1100
0000
0001
0000
0100
0000
0010
0000
1000
0010
0000
1000
0010
0000
,
0100
0000
0110
0000
0001
1000
0000
1000
0001
0000
0000
0000
0100
0010
1000
0001
,
0100
0000
0000
0000
1010
0000
0001
0010
0001
0000
0100
0010
0000
0010
1000
0000
,
0002
0000
0203
0000
0320
0000
1030
0002
0000
0013
0200
0000
1300
0010
0100
0001
,
0010
0000
0100
0000
1000
0000
0010
0000
0100
0000
0001
0010
0000
0001
0010
0000
,
0001
0010
0000
0001
1000
0000
0010
0000
0100
0000
0001
1000
0000
0010
0100
0000
,
0001
0100
0001
0100
0001
0100
0001
0100
0001
0100
0001
0100
0001
0100
0001
0100
,
0010
0000
1000
0000
0100
0000
0010
0000
0001
0000
0100
0010
0000
0010
1000
0100
,
0010
0000
0001
0000
0100
0000
0001
0000
0010
0000
0100
1000
0000
1000
0001
0010
,
0100
0000
0010
0000
0001
0000
0100
0000
0010
0000
1000
0100
0000
0100
0010
0001
,
1000
0000
0010
0000
1000
0000
0100
0000
0010
0000
0001
1000
0000
1000
0001
0010
,
0100
0000
1000
0000
0001
0000
0010
0000
0100
0000
0010
0001
0000
0001
1000
0100
,
0010
0000
0100
0000
0010
0000
0001
0000
1000
0000
0010
0100
0000
0100
0001
1000
,
0100
0000
0010
0000
0100
0000
1000
0000
0001
0000
1000
0010
0000
0010
0100
0001
,
0010
0000
0100
0000
1000
0000
0010
0000
0100
0000
0001
0010
0000
0010
0001
1000
,
0100
0000
0000
1000
0001
0000
0100
0000
0010
1000
0001
0000
0020
0000
0230
0000
,
1300
0000
0020
0000
0130
0002
0000
0103
0002
0000
0013
0000
0200
0000
1300
0001
,
1000
0000
0000
0010
0100
0000
0001
0010
0002
0000
1003
0000
0020
0000
2030
0000
,
3100
0000
0020
0031
0000
0020
0130
0000
1000
0000
0000
0010
0100
0001
0100
0000
,
0010
1000
0010
1000
0010
1000
0010
1000
0010
1000
0010
1000
0010
1000
0010
1000
,
0100
0000
0000
0000
1100
0000
0000
0000
0101
0000
0000
0011
0000
0000
0110
0000
,
0000
0000
1001
0000
0010
1000
0000
0010
1000
0000
0000
0000
0100
0010
0001
0100
,
0010
0000
0000
0000
1010
0000
0000
0000
1100
0000
0001
0100
0000
0001
1000
0000
,
0010
1000
0000
0100
0010
0000
0001
0000
0100
0010
2000
0000
3001
1000
0000
0010
,
1000
0000
1001
0000
0110
0000
0000
0010
1000
0000
0001
0010
0000
0100
1000
0000
,
0010
0000
1000
0000
0001
0000
0010
0000
0100
0000
0010
0100
0000
0100
1000
0001
,
0010
0000
0100
0000
0010
0000
0001
0000
1000
0000
0010
1000
0000
1000
0100
0010
,
0001
0000
0100
0000
0001
0000
0010
0000
0100
0000
1000
0001
0000
0001
1000
0100
,
1000
0000
0001
0000
0010
0000
0100
0000
1000
0000
0010
0100
0000
0100
0001
1000
,
0001
0000
0100
0000
0010
0000
1000
0000
0001
0000
1000
0100
0000
0100
0010
0001
,
0100
0000
0001
0000
1000
0000
0100
0000
0010
0000
0001
1000
0000
1000
0010
1000
,
0100
0000
0010
0000
0001
0000
0100
0000
0001
0000
0010
0100
0000
0100
1000
0010
,
0100
0000
0010
0000
1000
0000
0100
0000
0010
0000
0001
1000
0000
1000
0001
0010
,
0100
0000
0000
0000
;

//---------------dance-double - ----------------
#NOTES:
     dance-double:
     :
     Easy:
     7:
     :
00000000
00000000
00000000
00000000
,
00000000
00000000
00000000
00000000
,
00000000
00000000
00000000
00000000
,
00000000
00000000
00000000
00000000
,
00000000
00000000
00000000
00000000
,
00010000
10000000
00010000
10000000
,
01000000
00010000
00001000
00000100
00000000
00000000
00000000
00000000
,
00000010
00000001
00000100
00001000
,
00010000
00000000
00100000
00000000
10000000
00000000
00100000
10000000
,
00010000
00100000
01000000
00010000
,
00001000
00000000
00000100
00000000
00000010
00000000
00001000
00000001
,
00000100
00000010
00000010
00000010
,
00000100
00001000
00010000
01000000
,
10010000
01000000
00010000
00000100
,
00000001
00000001
00000001
00000000
00000010
00000000
00000100
00000000
,
00000100
00000100
00000100
00000000
00001000
00000000
00010000
00000000
,
00100000
00100000
00100000
00000000
00010000
00000000
01000000
00000000
,
10000000
10000000
10000000
00000000
00100000
00000000
00010000
00000000
,
00100000
00100000
00100000
00000000
00001000
00000000
01000000
00000000
,
00010000
00010000
00010000
00000000
00001000
00000000
00000100
00000000
,
00000010
00000010
00000010
00000000
00000001
00000000
00000100
00000000
,
00001000
00001000
00001000
00000000
00010000
00000000
00000100
00000000
,
00001000
00000000
00000010
00000000
00000100
00001000
00010000
00000000
,
10000000
00000000
00100000
00000000
01000000
00010000
10000000
00000000
,
00010000
00000000
00100000
00000000
01000000
00010000
00001000
00000000
,
00000001
00000000
00000010
00000000
00000100
00001000
00000001
00000000
,
00000010
00000010
00000010
00000010
,
00001000
00001000
00010000
00010000
,
00100000
00100000
01000000
01000000
,
00001000
00011000
00010000
00011000
,
00000010
00001001
00000100
00001001
,
00000010
00000000
00000010
00000000
00001000
00001000
00011000
00000000
,
00010000
00001000
00010000
00000000
00001000
00000000
00010000
00000000
,
00000010
00001000
00000010
00000000
00001000
00000000
00010000
00000000
,
00100000
00010000
00100000
00000000
00001000
00000000
00000010
00000000
,
00000001
00000010
00000001
00000000
00000100
00000000
00000001
00000000
,
00001000
00000001
00001000
00000000
00000100
00000000
00000001
00000000
,
00000100
00010000
00000100
00000000
00100000
00000000
01000000
00000000
,
10000000
00100000
10000000
00000000
01000000
00000000
00001000
00000000
,
00000010
00010000
00000010
00000000
00000100
00000000
00000001
00000000
,
00001001
00000000
00000000
00000000
;

//---------------dance-double - ----------------
#NOTES:
     dance-double:
     :
     Medium:
     9:
     :
00000000
00000000
00000000
00000000
,
00000000
00000000
00000000
00000000
,
00000000
00000000
00000000
00000000
,
00000000
00000000
00000000
00000000
,
00000000
00000000
00000000
00000000
,
00001000
00010000
00001000
00010000
01000000
00100000
01000000
00100000
,
00010000
00000000
10000000
00000000
00100000
00000000
02000000
00000000
00000000
00000000
00000000
00000000
03001000
00010000
00001000
00010000
,
00000000
00000000
00011000
00000000
00000000
00000000
00000000
00000000
00001100
00000000
00000000
00000101
00000000
00000000
00001100
00000000
,
00000000
00000000
00000011
00000000
00000000
00000000
00000000
00000000
00000000
00000000
00000000
00000000
00001000
00000100
00001000
00000100
,
00001000
00000000
00000000
00000000
,
00100000
00000000
10000000
00000000
01000000
00000000
00100000
00000000
00000000
00020000
00000000
00000000
10030000
01000000
10000000
01000000
,
10000000
00000000
00000000
00000000
00000000
00000000
00000000
00000000
00000000
00000000
10010000
00000000
00000000
01100000
00000000
00000000
,
01010000
00110000
00000000
00000000
,
00010000
00001000
00010000
00001000
00010000
00001000
00010000
00001000
,
00000010
00000000
00000001
00000000
00000100
00000000
00000010
00000000
00001000
00000000
00000000
00001000
00000000
00000000
00001000
00000000
,
00000001
00000000
00000100
00000000
00000010
00000000
00001000
00000000
00000100
00000000
00000000
00000100
00000000
00000000
00000100
00000000
,
00010000
00000000
00001000
00000000
01000000
00000000
00100000
00000000
10000000
00000000
00000000
10000000
00000000
00000000
10000000
00000000
,
01000000
00000000
00100000
00000000
00001000
00000000
01000000
00000000
00010000
00000000
00000000
00010000
00000000
00000000
00010000
00000000
,
00100000
00000000
00010000
00000000
10000000
00000000
00100000
00000000
01000000
00000000
00000000
01000000
00000000
00000000
01000000
00000000
,
00010000
00000000
00000100
00000000
00000001
00000000
00000010
00000000
00000100
00000000
00000000
00000100
00000000
00000000
00000100
00000000
,
00000010
00000000
00000001
00000000
00001000
00000000
00000010
00000000
00010000
00000000
00000000
00010000
00000000
00000000
00010000
00000000
,
00001000
00000000
00000100
00000000
00000001
00000000
00001000
00000000
00000010
00000000
00000000
00000010
00000000
00000000
00000010
00000000
,
00000110
00000000
00000001
00000000
00001000
00000010
00001000
00000001
,
00000000
00000000
00000011
00000000
00000000
00000110
00000000
00000000
00001100
00000000
00000000
00000000
00001000
00000000
00100000
00000000
,
01100000
00000000
10000000
00000000
00010000
00100000
00010000
01000000
,
00000000
00000000
10100000
00000000
00000000
10010000
00000000
00000000
00100000
00000000
00000000
00010000
00000000
00000000
01000000
00000000
,
00001000
00010000
00001000
00010000
00001000
00010000
00001000
00010000
,
00000010
00000000
00000000
00000000
00000100
00000000
00000000
00000000
00000001
00000000
00000000
00001000
00000000
00000000
00000001
00000000
,
00000000
00000000
00000010
00000000
00000000
00000010
00000000
00000000
00000010
00000000
00000000
00000000
00000001
00001000
00000001
00001000
,
00000001
00000000
00000000
00000000
00000000
00000000
00000000
00000000
00000000
00000000
00001010
00000000
00000000
00001100
00000000
00000000
,
00001001
00000000
00000000
00010010
00000000
00000000
00000000
00000000
00001000
00000000
00010000
00000000
02000000
00000000
00000000
00000000
,
03200000
00000000
00010000
00000000
00010000
00000000
00000000
00000000
10000000
00000000
00000000
00010000
00000000
00000000
01000000
00000000
,
01300000
00000000
00100000
00000000
00010000
00000000
10000000
00000000
00100000
00000000
00000000
01000000
00000000
00000000
00010000
00000000
,
00100000
00000000
00001000
00000000
00010000
00000000
00000010
00000000
00000100
00000000
00000000
00000001
00000000
00000000
00000010
00000000
,
00000001
00000000
00001000
00000000
00000010
00000000
00001000
00000000
00000100
00000000
00000000
00000010
00000000
00000000
00000001
00000000
,
00001000
00000000
00000100
00000000
00001000
00000000
00000010
00000000
00010000
00000000
00000000
00000100
00000000
00000000
00001000
00000000
,
00010000
00000000
01000000
00000000
00100000
00000000
01000000
00000000
00010000
00000000
00000000
10000000
00000000
00000000
00100000
00000000
,
10000000
00000000
00010000
00000000
00100000
00000000
01000000
00000000
10000000
00000000
00000000
00010000
00000000
00000000
00100000
00000000
,
00001000
00000000
00000100
00000000
00000001
00000000
00000010
00000000
00000100
00000000
00000000
00001000
00000000
00000000
00000001
00000000
,
00000100
00000000
00000010
00000000
00001000
00000000
00000100
00000000
00010000
00000000
00000000
00100000
00000000
00000000
10000000
00000000
,
01000000
00000000
00000000
00000000
;

//---------------dance-double - ----------------
#NOTES:
     dance-double:
     :
     Hard:
     12:
     :
00000000
00000000
00000000
00000000
,
00000000
00000000
00000000
00000000
,
00000000
00000000
00000000
00000000
,
00000000
00000000
00000000
00000000
,
00000000
00000000
00000000
00000000
,
00000001
00000010
00000001
00000100
00001000
00010000
01000000
10000000
,
00100000
10000000
01010000
00000000
00010000
00000000
01000000
00001000
,
00010000
00000000
00010100
00000000
00000000
00000000
00000000
00000000
00100000
00000000
00000000
00010000
00000000
00000000
10010000
00000000
,
00000000
01000000
00000000
00000000
00000000
00000000
00100000
01000000
,
00001000
00100000
01000000
00010000
,
00001000
00000000
00000100
00000000
00000010
00000000
00000100
00010000
,
00000010
00000000
00000000
00000000
00000100
00000000
00000000
00000000
00000000
00000000
00010000
00000000
00000000
00001000
00000000
00000000
,
00100000
00000000
00000000
01010000
00000000
00000000
00000000
00000000
00000000
00000000
00000000
00000000
00000000
00000000
00000000
00000000
,
10010000
00000000
00100000
00000000
00100000
00100000
00100000
00000000
,
00100000
00000000
10000000
00000000
01000000
00000000
00010000
00000000
00001000
00000000
00010000
00001000
00000000
00010000
00001000
00000000
,
00000010
00000000
00000001
00000000
00000100
00000000
00001000
00000000
00010000
00000000
00001000
00010000
00000000
00001000
00010000
00000000
,
00100000
00000000
10000000
00000000
01000000
00000000
00010000
00000000
00001000
00000000
00010000
00001000
00000000
00010000
00001000
00000000
,
00000010
00000000
00000001
00000000
00000100
00000000
00001000
00000000
00010000
00000000
00001000
00010000
00000000
00001000
00010000
00000000
,
00000100
00000000
00001000
00000000
00010000
00000000
00100000
00000000
01000000
00000000
00100000
01000000
00000000
00100000
01000000
00000000
,
00100000
00000000
00010000
00000000
00001000
00000000
00000010
00000000
00000100
00000000
00000010
00000100
00000000
00000010
00000100
00000000
,
00000001
00000000
00000100
00000000
00001000
00000000
00100000
00000000
00010000
00000000
00100000
00010000
00000000
00100000
00010000
00000000
,
10000000
00000000
01000000
00000000
00010000
00000000
00000100
00000000
00001000
00000000
00000100
00001000
00000000
00000100
00001000
00000000
,
00000000
00000000
00000000
00000000
00000010
00000000
00000000
00001000
,
00000000
00000000
00000000
00000000
00000000
00000000
00000000
00010000
,
10000000
00000000
00010000
00000000
,
00000000
00000000
00000000
00000000
00000000
00000000
00000000
00001000
,
00000001
00000000
00000010
00000000
00000010
00000010
00000010
00000000
,
00001000
00001000
00010000
00010000
,
00100000
00100000
01000000
01000000
,
10000000
01000000
00100000
00010000
,
00001000
00000100
00000010
00000001
,
00000010
00000001
00000010
00000001
00000010
00000001
00000010
00000001
,
00000001
00000000
00000100
00000000
00001000
00000000
00100000
00000000
00010000
00000000
00100000
00010000
00000000
00100000
00010000
00000000
,
10000000
00000000
01000000
00000000
00010000
00000000
00000100
00000000
00001000
00000000
00000100
00001000
00000000
00000100
00001000
00000000
,
00000010
00000000
00000001
00000000
00000100
00000000
00010000
00000000
01000000
00000000
00010000
01000000
00000000
00010000
01000000
00000000
,
00100000
00000000
10000000
00000000
01000000
00000000
00001000
00000000
00000010
00000000
00001000
00000010
00000000
00001000
00000010
00000000
,
00000100
00000000
00001000
00000000
00010000
00000000
00100000
00000000
10000000
00000000
00100000
10000000
00000000
10000000
00010000
00000000
,
01000000
00000000
00010000
00000000
00001000
00000000
00000001
00000000
00000100
00000000
00000001
00000100
00000000
00000001
00001000
00000000
,
00000010
00000000
00000100
00000000
00010000
00000000
00100000
00000000
10000000
00000000
01000000
10000000
00000000
00100000
00010000
00000000
,
00100000
00000000
01000000
00000000
00001000
00000000
00000100
00000000
00000001
00000000
00000010
00000001
00000000
00000100
00001000
00000000
,
00001001
00000000
00000000
00000000
;

//---------------dance-double - ----------------
#NOTES:
     dance-double:
     :
     Challenge:
     15:
     :
00000000
00000000
00000000
00000000
,
00000000
00000000
00000000
00000000
,
00000000
00000000
00000000
00000000
,
00000000
00000000
00000000
00000000
,
00000000
00000000
00000000
00000000
,
00100000
00010000
01000000
10000000
01000000
00100000
01000000
10000000
,
01000000
00000000
00010000
00000000
00100000
00000000
00002000
00000000
00000000
00000000
00000000
00000000
00013000
00001000
00000010
00000001
,
00000000
00000000
00000101
00000000
00000010
00000000
00001000
00000000
00000100
00000000
00000010
00000001
00000000
00000010
00000001
00000000
,
00001000
00000000
00001010
00000000
00000001
00000000
00000100
00000000
00001000
00000000
00000000
00000000
00000010
00010000
00000100
00001000
,
01000000
00000000
00000000
00000000
11000000
00000000
00000000
00010000
00100000
00000000
00100000
01000000
00000000
01000000
10000000
00000000
,
00020000
00000000
02030000
00000000
03100000
20000000
00000000
32000000
00000000
03200000
00000000
00000000
00301000
00100000
00010000
00000010
,
00000100
00000000
00000000
00000000
00001001
00000000
00000000
00000001
00000010
00000000
00000010
00000100
00000000
00000100
00001000
00000000
,
00001000
00000010
00000000
00000010
00010000
00000000
00000000
00000100
00000010
00000000
00000010
00000001
00000000
00000001
00000100
00000000
,
00000010
00010000
00000010
00010000
00000010
00010000
00000010
00010000
00000010
00010000
00000010
00010000
00000010
00010000
00000010
00010000
,
01000000
00000000
10000000
00000000
00100000
00000000
01000000
00000000
00010000
00000000
00100000
01000000
00000000
01000000
10000000
00010000
,
01000000
00000000
00001000
00000000
00010000
00000000
01000000
00000000
00100000
00000000
00001000
00010000
00000000
00010000
00000010
00001000
,
00000100
00000000
00000010
00000000
00000001
00000000
00000100
00000000
00000010
00000000
00001000
00000100
00000000
00000100
00010000
00000010
,
00001000
00000000
00000100
00000000
00010000
00000000
01000000
00000000
00100000
00000000
00001000
01000000
00000000
01000000
00100000
10000000
,
00010000
00000000
00100000
00000000
10000000
00000000
00100000
00000000
00010000
00000000
01000000
00000100
00000000
00000100
00001000
00000001
,
00000010
00000000
00001000
00000000
00000010
00000000
00000100
00000000
00010000
00000000
00000010
00000100
00000000
00000100
00000001
00001000
,
01000000
00000000
00010000
00000000
01000000
00000000
00100000
00000000
00001000
00000000
01000000
00100000
00000000
00100000
10000000
01000000
,
00001000
00000000
00000100
00000000
00000010
00000000
00010000
00000000
00100000
00000000
10000000
01000000
00000000
01000000
00100000
00001000
,
00010000
00000000
00000000
00000000
00011000
00000000
00000000
00000010
00000100
00000001
00001000
00000000
00000100
00001000
00000001
00000000
,
00000010
00000000
00010100
00000000
00010000
00001000
00000000
00001000
01000000
00100000
10000000
00000000
01000000
00100000
01000000
00100000
,
00001000
00000000
00000000
00010000
01000000
00000000
00000000
01000000
10000000
00100000
01000000
00000000
00001000
00010000
00000010
00000000
,
00000100
00000000
00000101
00000000
00001000
00000001
00000010
00000000
00000110
00000000
00000100
00001000
00000000
00001000
00010000
00000000
,
00100000
00001000
00100000
00001000
00100000
00001000
00100000
00001000
00100000
00001000
00100000
00001000
00100000
00001000
00100000
00001000
,
01000000
00000000
00000000
00000000
10010000
00000000
00000000
00000000
10100000
00000000
00000000
11000000
00000000
00000000
00101000
00000000
,
00000000
00000000
01010000
00000000
00000000
00011000
00000000
00000000
00001010
00000000
00000000
00000001
00000100
00000010
00000100
00000001
,
00001000
00000000
00000000
00000000
00010010
00000000
00000000
00000010
00001000
00000000
00001000
00000100
00000000
00000100
00010000
00000000
,
00010000
00001000
00000000
00001000
00100000
00000000
01000000
00000000
10000000
00010000
20000000
00000000
30100000
02000000
00000000
03010000
,
00100000
00000000
10010000
00000000
01001000
00000000
00000000
10000000
00100000
00000000
00100000
01000000
00000000
01000000
00010000
00000000
,
00100000
00000000
10000000
00000000
00100000
00000000
00001000
00000000
00010000
00000000
00000010
00000100
00000000
00000001
00000010
00001000
,
00100000
00000000
01000000
00000000
10000000
00000000
00100000
00000000
01000000
00000000
00010000
10000000
00000000
00100000
01000000
00001000
,
00010000
00000000
01000000
00000000
00100000
00000000
00001000
00000000
00010000
00000000
00000010
00001000
00000000
00000100
00000010
00000001
,
00000100
00000000
00000010
00000000
00001000
00000000
00000100
00000000
00000001
00000000
00000100
00010000
00000000
00001000
01000000
00100000
,
00010000
00000000
00100000
00000000
10000000
00000000
01000000
00000000
00100000
00000000
00010000
10000000
00000000
10000000
00010000
00100000
,
00001000
00000000
00000100
00000000
00000010
00000000
00000001
00000000
00000010
00000000
00010000
00000100
00000000
00000010
00000001
00001000
,
01000000
00000000
00010000
00000000
01000000
00000000
00100000
00000000
00001000
00000000
10000000
00100000
00000000
01000000
00010000
00100000
,
00001000
00000000
00000010
00000000
00010000
00000000
00000010
00000000
00000001
00000000
00000100
00000010
00000000
00001000
00000001
00000010
,
00000100
00000000
00000000
00000000
;
