#VERSION:0.83;
#TITLE:DAY DREAM;
#SUBTITLE:;
#ARTIST:Mutsuhiko Izumi;
#TITLETRANSLIT:;
#SUBTITLETRANSLIT:;
#ARTISTTRANSLIT:;
#GENRE:;
#ORIGIN:;
#TAGS:;
#CREDIT:;
#BANNER:DAY DREAM-bn.png;
#BACKGROUND:DAY DREAM-bg.png;
#PREVIEWVID:;
#JACKET:DAY DREAM-jacket.png;
#CDIMAGE:;
#DISCIMAGE:;
#LYRICSPATH:;
#CDTITLE:;
#MUSIC:DAY DREAM.ogg;
#OFFSET:0.000000;
#SAMPLESTART:18.950001;
#SAMPLELENGTH:20.000000;
#SELECTABLE:YES;
#DISPLAYBPM:80.000000:300.000000;
#BPMS:0.000000=80.000000,
21.000000=300.000000,
37.000000=170.000000,
91.500000=90.000000,
107.500000=170.000000,
235.000000=680.000000,
515.000000=170.000000;
#STOPS:;
#DELAYS:;
#WARPS:;
#TIMESIGNATURES:0.000000=4=4,
8.000000=3=4,
11.000000=4=4,
15.000000=3=4,
21.000000=4=4,
235.000000=17=4,
490.000000=25=4,
515.000000=4=4;
#TICKCOUNTS:0.000000=4;
#COMBOS:0.000000=1;
#SPEEDS:0.000000=1.000000=0.000000=0;
#SCROLLS:0.000000=1.000000,
235.000000=0.250000,
515.000000=1.000000;
#FAKES:;
#LABELS:0.000000=Song Start;
#BGCHANGES:;
#KEYSOUNDS:;
#ATTACKS:
;

//---------------dance-single - ----------------
#NOTEDATA:;
#CHARTNAME:;
#CHARTHASH:3206612045:
#STEPSTYPE:dance-single;
#BANNER:;
#DESCRIPTION:;
#CHARTSTYLE:;
#DIFFICULTY:Hard;
#METER:17;
#METERF:0.000000;
#RADARVALUES:0.891673,1.030924,0.281581,0.422372,1.402039,532.000000,508.000000,24.000000,36.000000,0.000000,0.000000,0.000000,0.000000,0.000000,0.891673,1.030924,0.281581,0.422372,1.402039,532.000000,508.000000,24.000000,36.000000,0.000000,0.000000,0.000000,0.000000,0.000000;
#CREDIT:;
#DISPLAYBPM:80.000000:300.000000;
#NOTES:
// measure 0
0000
0000
0000
0000
,  // measure 1
1002
0000
0103
0010
1010
0102
1000
0000
,  // measure 2
0023
0000
0230
0000
1300
0001
0021
0000
,  // measure 3
0130
1000
1100
0120
0031
0000
0101
2200
,  // measure 4
0000
0000
0000
0000
,  // measure 5
0300
0000
0000
3001
0010
0100
1000
0010
,  // measure 6
0100
0001
0010
0100
1000
0001
0000
0000
,  // measure 7
1000
0100
0000
0100
0001
0000
0001
0010
,  // measure 8
0000
0010
1000
0000
0010
0100
0010
0000
,  // measure 9
0000
0000
0000
0000
1001
0000
0100
0010
1000
0100
1000
0001
0000
0001
0100
0000
,  // measure 10
0010
1000
0001
1000
0000
0101
0000
0001
0010
0100
1000
0010
1000
0000
1000
0100
,  // measure 11
0000
0100
0010
0001
1000
0000
1100
0000
0001
1000
0001
0100
0010
1000
0000
1000
,  // measure 12
0100
0000
1000
0010
0100
0001
0000
0011
0000
0100
0001
0010
0001
0100
0010
0000
,  // measure 13
0010
1000
0000
1000
0100
1000
0001
0000
1010
0000
0000
1000
0001
0000
0001
0100
,  // measure 14
0000
0100
0010
0000
0010
1000
0000
0001
0000
0010
0000
0000
0001
0100
0000
0100
,  // measure 15
0010
0000
0010
1000
0000
0001
0000
0100
0000
0000
0001
1000
0001
1000
0001
0010
,  // measure 16
0100
1000
0000
1000
0010
0100
0001
1000
0000
0010
0100
0001
0010
0001
1000
0001
,  // measure 17
1000
0010
0100
0000
0010
1000
0001
1000
0100
0000
1000
0001
0100
0010
0100
0010
,  // measure 18
1000
0001
1000
0100
0000
0100
0010
0100
1000
0001
0000
0001
0010
0100
1000
0001
,  // measure 19
0100
0001
0010
0100
1000
0000
1000
0010
0100
0001
0010
0000
0001
0100
0010
0100
,  // measure 20
0010
0100
0000
0110
0000
1010
0000
1100
0000
0001
0010
0100
1000
0000
1100
0000
,  // measure 21
0000
0101
0000
0000
1100
0000
0000
0101
0000
0000
0010
0100
1000
0000
0022
0000
,  // measure 22
0000
0000
0000
0000
0000
0000
0000
0000
0000
0000
0000
0000
0030
0000
1003
0010
,  // measure 23
1000
0010
0100
0100
0010
1000
0001
0001
0010
0100
1000
1000
1000
0001
0100
0010
,  // measure 24
0100
0010
1000
1000
0100
0010
0001
0001
1000
0010
0100
0100
0100
0001
0010
0100
,  // measure 25
0010
0001
1000
1000
0010
0100
0010
0010
1000
0001
0010
0010
0010
0100
1000
1000
,  // measure 26
0010
0010
0100
0100
0001
0001
2020
0000
0000
0000
0000
0000
0030
0000
3100
1000
,  // measure 27
0010
0100
0001
0010
0100
1000
0000
1000
0010
1000
0100
0010
0000
0001
1000
0100
,  // measure 28
0010
1000
0010
0001
0100
0010
1000
0000
1000
0100
0001
0100
0010
0000
0010
0001
,  // measure 29
1000
0010
0100
0010
0001
0010
1000
0001
0000
0001
0010
0100
0001
0100
0000
1000
,  // measure 30
0010
1000
0001
0010
0001
0100
0010
0100
0001
0000
1000
0100
0010
0001
1000
0000
,  // measure 31
0010
1000
0001
0000
0001
0100
0000
0100
0010
0000
0010
1000
0000
1000
0001
1000
,  // measure 32
0000
0100
0000
0010
0000
0010
0001
0000
0001
1000
0000
1000
0010
0000
0010
1000
,  // measure 33
0001
0000
0100
0000
0010
1000
0000
0001
1000
0000
0100
0010
0001
0100
0010
0000
,  // measure 34
1000
0001
0100
0010
0000
1000
0100
0001
0100
1000
0010
0000
0100
1000
0100
0001
,  // measure 35
0000
0010
0100
1000
0001
0000
1000
0100
1000
0001
0000
0010
0100
1000
0001
0100
,  // measure 36
0000
0010
1000
0001
0000
0010
0001
1000
0100
0010
0001
0000
0000
0100
0010
1000
,  // measure 37
0100
0000
1000
0001
0010
0100
1000
0000
0001
0100
0001
0100
0010
1000
0010
1000
,  // measure 38
0100
0010
0001
0100
0010
1000
0001
0010
0000
0200
0000
0001
0000
0301
0000
0100
,  // measure 39
0010
0001
1000
0001
0000
1000
0010
0100
0001
0000
2000
0000
0100
0000
3100
0000
,  // measure 40
1000
0001
0020
0000
0031
0200
0000
0310
2000
0000
0000
3002
0000
1000
0000
1003
,  // measure 41
0000
0010
0100
0001
1000
0001
0000
1000
0010
0100
0001
0010
0100
1000
0010
0100
,  // measure 42
0001
0000
0020
0000
0000
0000
0100
0000
0130
0000
1000
0001
0000
0010
0001
0100
,  // measure 43
0001
1000
0000
0020
0000
1030
0100
0010
0001
0100
0010
0100
0010
0000
0000
0000
,  // measure 44
0000
0000
0000
2200
0000
0000
0300
0000
,  // measure 45
0000
3001
0000
0100
0000
0010
0000
1000
0020
0000
0030
2000
0000
0000
3200
0000
,  // measure 46
0000
0320
0000
0000
0032
0000
0000
2003
0000
0000
3010
1000
0010
0100
0001
0010
,  // measure 47
0100
1000
0001
1000
0100
0001
0100
0010
0001
0100
1000
0100
0010
1000
0001
0010
,  // measure 48
0001
0100
2000
0000
0000
0000
0000
0000
0000
0000
0000
0000
3001
0000
0000
0001
,  // measure 49
0000
0000
0200
0000
0000
0320
0000
0000
2030
0000
0000
3002
0000
0000
0013
0000
,  // measure 50
0001
0000
0200
0000
0000
0000
0000
0000
0000
0300
0000
2002
0000
0000
0000
0000
,  // measure 51
0000
0000
0000
0000
0000
3000
0000
0000
1003
0001
1000
0001
0000
0000
0000
0000
;

//---------------dance-single - ----------------
#NOTEDATA:;
#CHARTNAME:;
#CHARTHASH:0:
#STEPSTYPE:dance-single;
#BANNER:;
#DESCRIPTION:;
#CHARTSTYLE:;
#DIFFICULTY:Medium;
#METER:13;
#METERF:0.000000;
#RADARVALUES:0.588303,0.727711,0.234651,0.586627,0.791947,351.000000,331.000000,20.000000,50.000000,0.000000,0.000000,0.000000,0.000000,0.000000,0.588303,0.727711,0.234651,0.586627,0.791947,351.000000,331.000000,20.000000,50.000000,0.000000,0.000000,0.000000,0.000000,0.000000;
#CREDIT:;
#DISPLAYBPM:80.000000:300.000000;
#NOTES:
0000
0000
0000
0000
,
2002
0000
3000
0103
0012
2000
0000
3003
,
0020
0000
0230
0000
0301
1000
2200
0000
,
3000
0310
0120
0002
0000
0033
0101
2020
,
0000
0000
0000
0000
,
0030
0000
0000
3001
0100
0000
0010
1000
,
0010
0000
1000
0001
1000
0001
0000
0000
,
0000
1010
0000
0000
0101
0000
0000
0011
,
0000
0000
1100
0000
0001
1000
0001
0000
,
0000
0000
0000
0000
0010
0000
0100
0000
2000
0000
0000
3002
0000
0000
0023
0000
,
0000
0031
0000
1000
0000
0010
0000
0100
0000
0002
0000
0000
0023
0000
0000
0230
,
0000
0000
1300
0000
0001
0000
0100
0000
0010
0000
2000
0000
0000
3020
0000
0000
,
0230
0000
0000
0301
0000
0010
0000
0001
0000
1000
0000
0020
0000
0000
2030
0000
,
0000
3002
0000
0000
0103
0010
0100
0000
0210
0000
0000
0000
0001
0000
0000
1000
,
0000
0000
0001
0000
0000
0010
0000
0310
0000
2000
0000
0000
0000
0001
0000
0000
,
0010
0000
0000
0001
0000
0000
0100
0000
3100
0000
1000
0000
0100
0000
0010
0000
,
0001
1000
0000
0010
0100
0000
0001
0010
0000
0001
0000
1000
0000
0001
0000
1000
,
0000
0010
0100
0000
0001
0010
0000
0100
1000
0000
0001
0000
0010
0000
0001
0000
,
1000
0000
0001
0100
0000
0010
1000
0000
0100
0010
0000
0001
0000
1000
0000
0100
,
0000
1000
0000
0010
0100
0000
0001
1000
0000
0001
0100
0000
0001
0000
1000
0001
,
1000
0001
0000
0010
0000
0010
0000
0010
0000
0000
0001
1000
0001
0000
0011
0000
,
0000
1010
0000
0000
0011
0000
0000
1010
0000
0000
0000
0000
0000
0000
2200
0000
,
0000
0000
0000
0000
0000
0000
0300
3001
,
1000
0000
0010
0000
0100
0000
0001
0000
1000
0000
0001
0010
1000
0010
0001
0000
,
0100
0000
0010
0000
1000
0000
0100
0000
0010
0000
0001
0100
1000
0100
0001
0000
,
1000
0000
0100
0000
0010
0000
0100
0000
0001
0000
0100
0010
0100
1000
0001
0000
,
1000
0000
0010
0100
0010
0100
0220
0000
0000
0000
0000
0000
0300
0000
1030
0010
,
0000
1000
0002
0000
0000
0023
0000
0000
0230
0000
0000
1300
0000
0010
0000
0100
,
0001
0000
0100
0020
0000
0000
2030
0000
0000
3002
0000
0000
0013
0000
0100
0000
,
1000
0010
0000
0001
0020
0000
0000
2030
0000
0000
3200
0000
0000
0301
0000
0100
,
0000
1000
0001
0000
1000
0002
0000
0000
0203
0000
0000
2300
0000
0000
3100
0000
,
0001
0000
2001
0000
0000
0010
0000
0000
0100
0000
0000
0001
0000
0000
0000
0010
,
0000
3010
0000
0200
0000
0000
1000
0000
0000
0010
0000
0000
1000
0000
0000
0000
,
0001
0301
0010
0001
0100
0010
1000
0001
,
1000
0000
0100
0000
0000
0001
0000
0010
0000
0100
0000
0001
0000
0100
0000
1000
,
0000
0010
0000
1000
0000
0000
0001
0000
1000
0000
0100
0000
0001
0000
0100
0000
,
0010
0000
0001
0000
1000
0000
0000
0010
0000
0010
0000
0100
0000
0100
0000
1000
,
0000
0001
0000
1000
0000
0001
0000
0000
1000
0000
0100
0000
0010
0000
0001
0000
,
0100
0000
0010
0000
1000
0000
0001
1000
0000
0010
0000
0100
0000
0001
0000
0010
,
0000
1000
0000
0010
0000
0001
0000
1000
0100
0000
1000
0000
0001
0000
0100
0000
,
0010
0000
1000
0000
0100
0000
0001
0000
0100
1000
0000
0001
0000
0100
0000
0001
,
0000
0010
0000
0100
0000
1000
0000
0010
0000
1000
0001
0000
0010
0000
1000
0000
,
0010
0000
0100
0000
0010
0000
0001
0000
0100
0000
0010
1000
0000
0001
1000
0001
,
1000
0001
0000
0100
0000
0010
0000
1000
0000
0001
0100
0001
0100
0000
0000
0000
,
0000
0000
0000
0000
0000
0000
0022
0000
0000
0000
0000
0000
0000
0030
0000
0000
,
0000
1003
0000
0001
0000
1000
0000
0000
0010
0000
0000
0010
0000
0000
0100
0000
,
0000
0100
0000
0000
0001
0000
0000
1000
0000
0000
0001
0000
0100
0000
0010
0000
,
0100
0001
0010
0100
1000
0001
1000
0010
,
0100
0000
0002
0000
0000
0000
0000
0000
0000
0000
0000
0000
1003
0000
0000
0001
,
0000
0000
1000
0000
0000
0100
0000
0000
0010
0000
0000
0001
0000
0000
0100
0000
,
0010
0000
2000
0000
0000
0000
0000
0000
3000
0000
0000
2002
0000
0000
0000
0000
,
0000
0000
0000
0000
0000
0000
3000
0000
0000
1003
0000
0001
0000
0000
0000
0000
;

//---------------dance-single - ----------------
#NOTEDATA:;
#CHARTNAME:;
#CHARTHASH:0:
#STEPSTYPE:dance-single;
#BANNER:;
#DESCRIPTION:;
#CHARTSTYLE:;
#DIFFICULTY:Easy;
#METER:9;
#METERF:0.000000;
#RADARVALUES:0.358681,0.424498,0.164256,0.563162,0.457569,214.000000,200.000000,14.000000,48.000000,0.000000,0.000000,0.000000,0.000000,0.000000,0.358681,0.424498,0.164256,0.563162,0.457569,214.000000,200.000000,14.000000,48.000000,0.000000,0.000000,0.000000,0.000000,0.000000;
#CREDIT:;
#DISPLAYBPM:80.000000:300.000000;
#NOTES:
0000
0000
0000
0000
,
1001
0000
0000
0000
0200
0020
0330
0000
,
0001
1000
0001
1001
,
0000
0000
0200
0020
0330
0000
2000
0002
,
0000
0000
0000
0000
,
3000
0000
0000
1003
0000
0000
0001
0000
,
0000
0100
0000
0010
0000
1000
0000
0000
,
0001
0000
0000
0001
0000
0000
1000
0000
,
0000
1000
0000
0000
0010
0000
0100
0000
,
0000
0000
0000
0000
0110
0000
0000
0000
0001
0000
0000
0000
1000
0000
0000
0010
,
0000
0000
0100
0000
0000
0001
0000
0000
0000
0010
0000
0000
0000
0001
0000
0000
,
1000
0000
0000
0100
0000
0000
1000
0000
0000
0000
0001
0000
0000
0000
0010
0000
,
0000
0001
0000
0000
0100
0000
0000
0010
0000
0000
0000
1000
0000
0000
0000
0100
,
0000
0000
0010
0000
0000
0001
0000
0000
2001
0000
0000
0000
0010
0000
0000
0000
,
0010
0000
0000
0000
3010
0000
0000
0100
0000
0002
0000
0000
0000
1000
0000
0000
,
0000
1000
0000
0000
0000
1003
0000
0000
0010
0000
1000
0000
0000
0000
0100
0000
,
0000
0000
0010
0000
0000
0001
0000
0000
1000
0000
0000
0010
0000
0000
0000
0100
,
0000
0000
0000
0001
0000
0000
1000
0000
0000
0100
0000
0000
1000
0000
0000
0000
,
0001
0000
0000
0000
0010
0000
0000
0100
0000
0000
0010
0000
0000
0001
0000
0000
,
0000
0100
0000
0000
0000
0010
0000
0000
1000
0000
0000
0001
0000
0000
0100
0000
,
0010
0100
0001
0010
0100
1000
0001
0010
,
0000
0010
0000
0000
0010
0000
0000
0010
0000
0000
0000
0000
0000
0000
0220
0000
,
0000
0000
0000
0000
0000
0000
0000
0000
0000
0000
0000
0300
0000
0000
0130
0000
,
0000
0100
0000
0010
0000
0001
0000
0100
,
0000
0010
0000
1000
0000
0001
0000
1000
,
0000
0100
0000
0010
0000
0001
0000
0101
,
0000
0000
1100
0000
0000
0000
2002
0000
0000
0000
0000
3000
0000
0000
1003
0000
,
0000
0000
1100
0000
0000
0000
0002
0000
0000
0203
0000
0000
0320
0000
0000
1030
,
0000
0000
0000
1010
0000
0000
0000
2000
0000
0000
3020
0000
0000
0230
0000
0000
,
0301
0000
0000
0000
0011
0000
0000
0000
0002
0000
0000
2003
0000
0000
3200
0000
,
0000
0310
0000
0000
0000
1001
0000
0000
0000
2000
0000
0000
3002
0000
0000
0023
,
0000
0000
0032
0000
0000
0000
1000
0000
0000
0100
0000
0000
1000
0000
0000
0100
,
0000
0000
0000
2003
0000
0000
0000
0001
0000
0000
0010
0000
0000
0001
0000
0000
,
0010
0000
0000
0000
3200
0000
0000
0000
0001
0000
0000
0000
1000
0000
0000
1000
,
0000
0000
1300
0000
0000
0100
0000
0000
0010
0000
0000
0001
0000
0000
0100
0000
,
0000
0001
0000
1000
0000
0000
0010
0000
0100
0000
0001
0000
0000
0000
2000
0000
,
0000
0000
0000
3200
0000
0000
0000
0000
2300
0000
0000
0000
3002
0000
0000
0023
,
0000
0000
0000
0031
0000
0100
0000
0000
0010
0000
0000
0000
1000
0000
0000
0000
,
0001
0000
0100
0000
0010
0000
1000
0000
0000
0100
0000
0000
0000
0010
0000
0000
,
0000
0001
0000
1000
0000
0010
0000
1000
0000
0000
0002
0000
0000
0000
0000
0000
,
0000
0000
0100
0000
0000
0100
0000
0000
0103
0000
0000
0020
0000
0000
0000
1000
,
0000
0000
0000
0130
0000
0001
0000
0010
0000
0100
0000
0000
1000
0000
0001
0000
,
1000
0000
0200
0000
0000
0000
0000
0000
0000
0000
0000
0000
0000
0310
0000
0001
,
0000
1000
0000
0002
0000
0000
0000
0000
0000
0000
0000
0000
0000
0003
0000
0000
,
0000
0000
0000
0202
0000
0000
0000
0000
,
0300
0000
0000
1003
0000
0000
0001
0000
0000
0200
0000
0000
0000
0000
0000
0320
,
0000
0000
0000
0000
0000
2030
0000
0000
0000
0000
3001
0000
0000
0000
0010
0000
,
0000
0001
0000
0100
0000
0010
0000
1000
,
0000
0002
0000
0000
0000
0000
0203
0000
,
0000
0320
0000
2030
,
0000
0000
0000
0000
0200
0000
3300
0000
0000
0000
0000
2002
0000
0000
0000
0000
,
0000
0000
0000
0000
0000
0000
0000
0003
0000
0000
0000
3001
0000
0000
0000
0000
;

//---------------dance-single - ----------------
#NOTEDATA:;
#CHARTNAME:;
#CHARTHASH:0:
#STEPSTYPE:dance-single;
#BANNER:;
#DESCRIPTION:;
#CHARTSTYLE:;
#DIFFICULTY:Beginner;
#METER:5;
#METERF:0.000000;
#RADARVALUES:0.179340,0.242570,0.164256,0.105593,0.199453,107.000000,93.000000,14.000000,9.000000,0.000000,0.000000,0.000000,0.000000,0.000000,0.179340,0.242570,0.164256,0.105593,0.199453,107.000000,93.000000,14.000000,9.000000,0.000000,0.000000,0.000000,0.000000,0.000000;
#CREDIT:;
#DISPLAYBPM:80.000000:300.000000;
#NOTES:
0000
0000
0000
0000
,
1001
0000
0110
0000
,
0001
0001
0000
1001
,
0000
0110
0000
2000
,
0000
0000
0000
0000
,
3000
0000
0000
0001
0000
0000
0000
0000
,
0000
0001
0000
0000
0000
0100
0000
0000
,
0000
0010
0000
0000
0000
0010
0000
0000
,
0000
0010
0000
0000
0000
1000
0000
0000
,
0000
0001
0001
0001
,
0000
0000
0000
0000
0000
0010
0000
0000
0000
0010
0000
0000
0000
0010
0000
0000
,
0000
0000
0000
0100
0000
0100
0000
0100
,
0000
0000
0000
0000
0000
0000
0000
1000
0000
0000
0000
1000
0000
0000
0000
1000
,
0000
0000
1001
0000
,
0000
0000
0000
0000
0000
0000
0000
0000
0000
0110
0000
0000
0000
0000
0000
0000
,
0000
0000
0000
0000
0000
1000
0000
1000
,
0000
0000
1000
0000
0000
0000
0000
0000
0000
0000
0000
0001
0000
0000
0000
0001
,
0000
0000
0000
0001
0000
0000
0000
0000
0000
0000
0000
0000
0100
0000
0000
0000
,
0100
0000
0000
0000
0100
0000
0000
0000
0000
0000
0000
0000
0000
0010
0000
0000
,
0000
0010
0000
0000
0000
0010
0000
0000
0000
0000
0000
0000
0000
0000
1000
0000
,
0000
0000
0000
0001
0000
0000
0000
0100
,
0000
0100
0000
0100
0000
0000
0000
0020
,
0000
0000
0000
0000
0030
0000
0000
2000
,
0000
0000
0000
3000
0000
0000
0000
0020
,
0000
0000
0000
0030
0000
0000
0000
0200
,
0000
0000
0000
0300
0000
0000
0000
0001
,
0000
0000
0000
1001
0000
0000
0000
1000
,
0000
0000
1000
0000
0000
0000
1000
0000
0000
0000
0000
0000
0000
0000
0000
0010
,
0000
0000
0000
0010
0000
0000
0000
0010
0000
0000
0000
0000
0000
0000
0000
0000
,
0100
0100
0100
0000
,
0000
0001
0000
0000
0000
0001
0000
0000
0000
0001
0000
0000
0000
0000
0000
0000
,
0000
0110
0000
0000
0000
0000
0000
0000
,
0000
0000
0000
1001
0000
0000
0000
0000
0000
0000
0000
0000
0000
0000
0000
0000
,
0000
0110
0000
0000
,
0000
0000
0000
0000
0000
0001
0000
0000
0000
0001
0000
0000
0000
0001
0000
0000
,
0000
0000
0000
0010
0000
0010
0000
0010
,
0000
0000
0000
0000
0000
0000
0000
1000
0000
0000
0000
1000
0000
0000
0000
1000
,
0000
0000
0001
0000
,
0100
0000
0000
0000
0000
0000
0000
0000
0000
0110
0000
0000
0000
0000
0000
0000
,
0000
0000
0000
0000
0000
0010
0000
0000
,
0000
0000
1000
0000
0000
0000
0000
0000
0000
0000
0000
1001
0000
0000
0000
0000
,
0000
0000
0000
0001
,
0002
0000
0000
0000
0000
0000
0000
0000
0003
0000
0000
0000
0000
1000
0000
0000
,
0000
2000
0000
0000
0000
0000
0000
0000
0000
0000
0000
0000
0000
3000
0000
0000
,
0000
0000
0000
0220
0000
0000
0000
0000
,
0000
0000
0000
0000
,
0000
0000
0000
0330
0000
0000
0000
0000
0000
0000
0001
0000
0000
0000
0000
0000
,
0000
1000
0000
0000
0000
0001
0000
0000
,
0000
0100
0000
0000
0000
0000
0010
0000
,
0000
0000
0000
0000
,
0000
0000
0000
0000
0000
0000
0000
0000
0000
0000
0000
1001
0000
0000
0000
0000
,
0000
0000
0000
0000
0000
0000
0000
0000
0000
0000
0000
0001
0000
0000
0000
0000
;
