#VERSION:0.83;
#TITLE:大見解;
#SUBTITLE:;
#ARTIST:Des-ROW feat. TSUBOI for ALPHA;
#TITLETRANSLIT:DAIKENKAI;
#SUBTITLETRANSLIT:;
#ARTISTTRANSLIT:;
#GENRE:;
#ORIGIN:;
#TAGS:;
#CREDIT:;
#BANNER:DAIKENKAI.png;
#BACKGROUND:DAIKENKAI-bg.png;
#PREVIEWVID:;
#JACKET:DAIKENKAI-jacket.png;
#CDIMAGE:;
#DISCIMAGE:;
#LYRICSPATH:;
#CDTITLE:;
#MUSIC:DAIKENKAI.ogg;
#OFFSET:0.000000;
#SAMPLESTART:61.340000;
#SAMPLELENGTH:20.000000;
#SELECTABLE:YES;
#DISPLAYBPM:143.000000:172.000000;
#BPMS:0.000000=143.425995,
4.000000=142.977005,
118.000000=172.059998;
#STOPS:;
#DELAYS:;
#WARPS:;
#TIMESIGNATURES:0.000000=4=4;
#TICKCOUNTS:0.000000=4;
#COMBOS:0.000000=1;
#SPEEDS:0.000000=1.000000=0.000000=0;
#SCROLLS:0.000000=1.000000;
#FAKES:;
#LABELS:0.000000=Song Start;
#BGCHANGES:0.000=DAIKENKAI.avi=1.000=0=0=0=StretchNoLoop====,
99999=-nosongbg-=1.000=0=0=0 // don't automatically add -songbackground-
;
#KEYSOUNDS:;
#ATTACKS:
;

//---------------dance-single - ----------------
#NOTEDATA:;
#CHARTNAME:;
#CHARTHASH:2147483647:
#STEPSTYPE:dance-single;
#BANNER:;
#DESCRIPTION:;
#CHARTSTYLE:;
#DIFFICULTY:Medium;
#METER:8;
#METERF:0.000000;
#RADARVALUES:0.465450,0.543994,0.754028,0.148944,0.000000,350.000000,269.000000,81.000000,16.000000,0.000000,0.000000,0.000000,0.000000,0.000000,0.465450,0.543994,0.754028,0.148944,0.000000,350.000000,269.000000,81.000000,16.000000,0.000000,0.000000,0.000000,0.000000,0.000000;
#CREDIT:;
#DISPLAYBPM:143.000000:172.000000;
#NOTES:
0000
0000
0000
0000
,
0000
0000
0000
0000
,
1000
0000
0001
0000
,
1000
0000
1000
0000
,
0001
0000
0001
0000
,
0001
0110
1000
0101
,
0010
0001
1000
1100
,
0010
1000
0001
0101
,
0010
0001
1000
1000
,
0010
0010
2200
3300
,
1000
0000
0001
0000
0110
1000
1000
0000
,
0010
0000
0100
0000
0110
0001
0001
0000
,
1000
0000
0001
0000
1001
0100
0100
0000
,
0010
0100
0010
0100
0220
0000
0330
0000
,
1000
0000
0100
0000
1100
0001
0001
0000
,
0010
0100
1001
0010
,
1000
1000
0110
0001
,
1000
0000
1100
0001
0001
0000
0110
0000
,
0001
1000
0001
1100
,
1001
0000
0100
0000
0010
0001
0001
0000
,
0101
0000
0001
0000
1000
0100
1000
0000
,
0010
0010
2002
3003
,
0010
1000
0010
1000
,
0001
0100
0001
0100
,
1000
1000
0001
0001
,
0010
0000
0010
0000
0100
1000
1001
0000
,
0010
0010
0100
0100
,
0001
1000
0100
0001
,
1000
0100
0001
0010
,
1001
0001
0110
1000
,
0002
0000
1000
0000
,
1000
0000
0100
0003
,
2000
0000
0001
0000
,
0001
0000
0100
3000
,
1001
1001
1001
1001
,
0010
0100
0010
0100
,
0110
0110
0110
0110
,
0001
1000
0010
1001
,
0101
0000
1100
0000
0010
1000
0100
0000
,
0101
0000
1100
0000
0010
1000
0100
0000
,
0101
1000
0101
1000
,
0101
0000
0010
1000
0200
0000
0300
0000
,
0101
0000
1100
0000
0001
1000
0100
0000
,
0101
0000
1100
0000
0001
1000
0100
0000
,
0010
0010
1000
1000
,
0001
0010
2002
3003
,
0001
0000
0001
0000
0001
0100
0100
0000
,
1000
0000
1000
0000
1000
0100
0100
0000
,
0001
1000
0001
1001
,
0010
0100
2002
3003
,
0001
0001
1000
1000
,
0010
0100
0001
0110
,
0010
1100
0001
1100
,
0010
0000
1001
0000
0010
0100
0010
0000
,
1000
1000
0001
0001
,
0010
0100
1000
0110
,
0010
0101
1000
0101
,
0010
1001
0220
0330
,
0110
0000
0110
0000
1000
0001
1000
0000
,
0110
0000
0110
0000
0001
1000
0001
0000
,
1100
0101
1100
0110
,
0011
0000
1001
0000
0010
0100
0100
0000
,
0101
1100
0101
0110
,
1010
0000
1001
0000
0010
0100
0100
0000
,
1001
0110
1100
0011
,
1001
0000
0101
0000
1000
1000
1000
0000
,
1001
0110
0101
1010
,
1001
0000
1100
0000
0001
0001
0001
0001
,
0002
0000
0000
0003
,
0000
0000
0000
0000
;

//---------------dance-single - ----------------
#NOTEDATA:;
#CHARTNAME:;
#CHARTHASH:2147483647:
#STEPSTYPE:dance-single;
#BANNER:;
#DESCRIPTION:;
#CHARTSTYLE:;
#DIFFICULTY:Hard;
#METER:12;
#METERF:0.000000;
#RADARVALUES:0.587797,0.607994,0.158253,0.204798,0.000000,442.000000,425.000000,17.000000,22.000000,0.000000,0.000000,0.000000,0.000000,0.000000,0.587797,0.607994,0.158253,0.204798,0.000000,442.000000,425.000000,17.000000,22.000000,0.000000,0.000000,0.000000,0.000000,0.000000;
#CREDIT:;
#DISPLAYBPM:143.000000:172.000000;
#NOTES:
0000
0000
0000
0000
,
0000
0000
0000
0000
,
0001
0000
0001
0000
,
0001
0000
0001
0000
,
0001
0000
0001
0000
,
0001
0000
0001
0000
,
0010
1000
0100
1000
0001
0010
0100
0000
,
1000
0001
0010
0100
1000
0100
1001
0000
,
0010
0100
0001
1000
0100
0010
0001
1000
,
0010
0100
0001
1000
0220
0000
0330
0000
,
0001
1000
0100
0001
0100
0010
1000
0000
,
0010
0001
0100
1000
0010
0100
0011
0000
,
0100
1000
0010
0100
0001
0010
0100
1000
,
0010
1000
0001
0100
2002
0000
3003
0000
,
0100
0010
1000
0001
0010
0100
1000
0000
,
0010
0001
0100
0010
1000
0000
0010
0001
,
0100
0010
1000
0001
0010
0000
1000
0100
,
0010
0100
0001
1000
0010
0000
0110
0000
,
1000
0100
0001
0010
1000
0000
0001
0100
,
0010
0001
1000
0100
0010
0100
1000
0000
,
0001
0000
0001
0000
0001
1000
0100
0000
,
0010
1000
0100
0001
0200
0000
0300
0000
,
0010
0001
1000
0100
1000
0010
0100
0001
,
0010
0001
1000
0100
0010
0001
0200
0000
,
0310
0001
1000
0100
0010
0100
1000
0001
,
0010
0100
0001
1000
0100
0010
2000
0000
,
3010
0100
0001
1000
0200
0000
0310
1000
,
0001
0010
0100
0001
2000
0000
3100
0010
,
0001
0100
1000
0010
0002
0000
0103
1000
,
0010
0100
0001
1000
0110
0000
1001
1001
,
1001
0000
0001
1000
0100
0000
1000
0001
,
0000
0001
0010
0100
1000
0000
2000
0000
,
3000
0001
0010
0100
0010
0001
1000
0100
,
0000
0001
0100
1000
0010
0001
0100
0000
,
0201
0001
0001
0001
,
0001
0001
0001
0301
,
1200
1000
1000
1000
,
1000
1000
1000
1300
,
0010
1000
0100
0001
0100
0010
1000
0000
,
0100
0001
0010
0100
1000
0001
0110
0000
,
1000
0001
0010
0100
1000
0010
0100
0001
,
1000
0010
0100
0001
0220
0000
0330
0000
,
0001
0100
0010
1000
0100
0010
1000
0000
,
0100
0001
0010
0100
1000
0010
1001
0000
,
1000
0100
0001
0010
0100
0001
1000
0100
,
0010
0001
1000
0010
0220
0000
0330
0000
,
0001
1000
0100
1000
0001
1000
0100
0000
,
1000
0001
0100
0001
1000
0001
0100
0000
,
0010
1000
0100
0001
0100
1000
0010
0000
,
0100
0001
0010
0100
2200
0000
3300
0000
,
0010
0100
0001
0100
0010
0100
0001
0000
,
1000
0100
0010
0100
1000
0010
0100
0000
,
0001
1000
0100
0010
0001
1000
0100
1000
,
0010
0001
0100
0010
0001
0100
1000
0000
,
0100
0001
0010
0001
0100
0001
0010
0000
,
0010
1000
0001
1000
0010
1000
0001
0000
,
0100
0010
1000
0100
0001
0010
0100
0000
,
1000
0001
0010
0100
0002
0000
0003
0000
,
1000
0001
0100
0001
1000
0001
0100
0000
,
1000
0100
0010
0100
1000
0100
0010
0000
,
1000
0010
0100
0001
0010
0100
1000
0010
,
0100
0001
0010
0100
1000
0010
1000
0100
,
0001
0010
0100
0010
0001
0100
1000
0010
,
0100
0010
0001
1000
0010
0100
0001
0010
,
0100
0001
1000
0010
0100
1000
0010
0001
,
0100
0010
0001
1000
0100
0010
1000
0100
,
0010
1000
0100
0001
0010
1000
0001
0100
,
1000
0010
0100
0001
0010
1000
0100
0001
,
2002
0000
0000
3003
,
0000
0000
0000
0000
;

//---------------dance-single - ----------------
#NOTEDATA:;
#CHARTNAME:;
#CHARTHASH:2147483647:
#STEPSTYPE:dance-single;
#BANNER:;
#DESCRIPTION:;
#CHARTSTYLE:;
#DIFFICULTY:Challenge;
#METER:17;
#METERF:0.000000;
#RADARVALUES:0.904302,0.895991,0.781955,0.018618,0.623703,680.000000,596.000000,84.000000,2.000000,0.000000,0.000000,0.000000,0.000000,0.000000,0.904302,0.895991,0.781955,0.018618,0.623703,680.000000,596.000000,84.000000,2.000000,0.000000,0.000000,0.000000,0.000000,0.000000;
#CREDIT:;
#DISPLAYBPM:143.000000:172.000000;
#NOTES:
0000
0000
0000
0000
,
0000
0000
0000
0000
,
1001
0000
0010
0100
0110
0001
1000
1100
,
0000
0010
0101
1000
0001
0100
0011
0000
,
1100
0000
0001
1000
1010
0010
0100
0110
,
0000
0000
0001
1000
0100
0010
0001
0000
0011
0000
0110
0000
1100
0000
0000
0000
,
0010
0000
1000
0000
0100
0000
0010
0001
0100
0000
0001
0000
0101
0000
0000
0000
,
0010
0000
1000
0000
0001
0000
1000
0100
0010
0000
0001
0000
0110
0000
0000
0000
,
0001
0000
1000
0000
0010
0000
1000
0100
0010
0000
0001
0000
0100
0000
1000
0000
,
1100
0010
0011
1000
1010
0100
0001
0000
,
0010
0000
0001
0000
1000
0000
0100
1000
0001
0000
0010
0000
0101
0000
0000
0000
,
0001
0000
0010
0000
1000
0000
0100
1000
0010
0000
0100
0000
0101
0000
0000
0000
,
0001
0000
0010
0000
0100
0000
1000
0001
0010
0000
0100
0000
0010
0000
0001
0000
,
0011
0000
0100
0000
1100
0000
1000
0000
0001
1000
0010
0000
0100
0000
0001
0000
,
1000
0000
0001
0000
0100
0000
0010
1000
0001
0000
0010
0100
1000
0000
0001
1000
,
0010
0100
0010
1000
0100
0000
0010
0001
1000
0000
0000
0000
0100
1000
0001
0000
,
0010
0000
0001
0100
1000
0000
0010
0100
0001
0000
0000
0000
1000
0001
1000
0001
,
0010
0100
1000
0001
1000
0000
0001
0000
0101
0000
0000
0000
1001
0000
0000
0000
,
0010
0000
1000
0001
0010
0100
0010
0001
0100
0000
0000
0000
0010
1000
0100
0000
,
1000
0001
0000
0010
0000
0001
0100
0001
1000
0000
0100
0010
0001
0000
0000
0000
,
1100
0000
0000
1000
0001
0000
0010
0100
1000
0001
0100
0001
0010
0000
0000
0000
,
0100
0000
1000
0000
0000
0000
0010
0000
0000
0000
1000
0000
0100
0000
0010
0000
0001
0000
0000
0000
0000
0000
1000
0001
1000
0000
0010
0000
0100
0000
0010
0000
,
1000
0000
0100
0000
0001
0000
0100
0001
0010
0100
1000
0000
0010
0000
1000
0001
,
0100
0000
1000
0000
0001
0010
0100
1000
0010
1000
0100
0000
0011
0000
1000
0000
,
0100
0000
0001
0000
0010
0100
1000
0000
1001
0000
0100
0000
0010
1000
0001
0010
,
0100
0010
0100
1000
0010
0100
0001
0000
1100
0000
0110
0000
0011
0000
0000
0000
,
0010
0000
0100
0001
0010
0100
1000
0001
0100
0000
0000
0000
0010
1000
0100
1000
,
0001
0010
0100
1000
0010
0100
0000
0100
0001
0000
0000
0000
0110
0000
0001
0000
,
0100
0010
1000
0000
0100
1000
0000
0001
0010
0000
0000
0000
0001
0100
1000
0010
,
1000
0100
0010
0001
1000
0001
0010
0100
1000
0000
0000
0000
1100
0000
1100
0000
,
1001
0000
0010
0100
0100
0001
1000
0010
,
0000
1000
1000
0001
0010
0010
0011
0000
,
0000
0100
0100
0001
0001
1000
0010
0100
,
0000
0010
0010
1000
0010
0010
1010
0000
,
1100
0000
0000
1000
0100
0000
0000
0100
0010
0000
0000
0010
0001
0000
0000
0001
,
1000
0000
0000
1000
0001
0000
0000
0001
0100
0000
0000
0100
0010
0000
0000
0010
,
1000
0001
0010
0001
0100
0010
1000
0100
,
0010
0000
0001
0000
0100
0000
0010
1000
0100
0000
1000
0001
0100
0000
0010
0000
,
1000
0000
0001
0000
0010
0000
0100
1000
0001
0000
0100
0000
0110
0000
0000
0000
,
0001
0000
0010
0000
0100
0000
1000
0010
0100
0000
0001
0000
0101
0000
0000
0000
,
0010
0000
0001
0000
1000
0000
0010
1000
0100
0000
1000
0000
0001
0000
0100
0000
,
0110
0001
0011
0100
1100
0010
1000
0000
,
0100
0000
1000
0000
0010
0000
1000
0100
0001
0000
0010
0000
0011
0000
0000
0000
,
0010
0000
0001
0000
0100
0000
1000
0001
0100
0000
0010
0000
1010
0000
0000
0000
,
1000
0000
0100
0000
0010
0000
0001
1000
0010
0000
0100
0000
0001
0000
1000
0000
,
1100
0001
1001
0010
0101
1000
0100
0000
,
0010
0000
1000
0000
0100
0000
1000
0010
0100
0000
0001
0000
1001
0000
0000
0000
,
1000
0000
0100
0000
0010
0000
0001
0100
1000
0000
0010
0000
1100
0000
0001
1000
,
0010
1000
0001
0000
0010
0100
1000
0000
1100
0000
0110
0000
0011
0000
0000
0000
,
0001
0000
0100
0001
1000
0000
0010
0000
0011
0000
0100
0000
0010
0000
0000
0000
,
1000
0000
1000
0000
1000
0000
0100
0010
0001
0000
0001
0000
1001
0000
0000
0000
,
0010
1000
0100
0000
0010
0000
0001
1000
0100
0000
0100
0000
1001
0000
0000
0000
,
1100
0000
0100
0000
0101
0000
0001
0000
1001
0000
0010
0000
1001
0000
0100
1000
,
0001
0000
0010
0001
1000
0010
1000
0100
0001
0000
0010
0000
1100
0000
0000
0000
,
0010
0000
0010
0000
0010
0000
1000
0100
0001
0000
0001
0000
0101
0000
0000
0000
,
0001
0000
0001
0000
0001
0000
1000
0100
0010
0000
0010
0000
0110
0000
0000
0000
,
1000
0001
0010
0001
0100
0010
1000
0001
0010
0000
0010
0000
0110
0000
0000
0000
,
1000
0000
0001
0100
1000
0000
0001
0000
0010
0000
1000
0100
0001
1000
0100
0010
,
0001
0000
0100
0000
0100
0000
0001
0100
1000
0000
1000
0000
0101
0000
0000
0000
,
1000
0001
0010
0000
0100
1000
0010
0100
0001
0000
1000
0000
0110
0000
0000
0000
,
1010
0000
0010
0000
0101
0000
0001
0000
0011
0000
0100
0000
1100
0000
0001
1000
,
0010
0000
1000
0100
0010
0100
0010
0001
0100
0000
1000
0000
1100
0000
0000
0000
,
0011
0000
0100
0000
1100
0000
1000
0000
1010
0000
0010
0000
0101
0000
0010
0001
,
0100
0000
0001
0010
1000
0100
0010
0001
1000
0000
1000
0000
0101
0000
0000
0000
,
1001
0000
0100
0000
1010
0000
0100
0000
0011
0000
0010
0000
1100
0000
0100
1000
,
0010
0000
1000
0001
1000
0100
0010
0001
0100
0000
0100
0000
1010
0000
0000
0000
,
1100
0000
0010
0000
1100
0000
0001
0000
0101
0000
1000
0000
1100
0000
0001
0010
,
0100
1000
0000
0001
0000
1000
0001
0010
0100
0000
1000
0010
0100
0000
0101
0000
,
2200
0000
0000
3300
;

//---------------dance-double - ----------------
#NOTEDATA:;
#CHARTNAME:;
#CHARTHASH:2147483647:
#STEPSTYPE:dance-double;
#BANNER:;
#DESCRIPTION:;
#CHARTSTYLE:;
#DIFFICULTY:Easy;
#METER:5;
#METERF:0.000000;
#RADARVALUES:0.287249,0.351996,0.121017,0.027927,0.000000,216.000000,203.000000,13.000000,3.000000,0.000000,0.000000,0.000000,0.000000,0.000000,0.287249,0.351996,0.121017,0.027927,0.000000,216.000000,203.000000,13.000000,3.000000,0.000000,0.000000,0.000000,0.000000,0.000000;
#CREDIT:;
#DISPLAYBPM:143.000000:172.000000;
#NOTES:
00000000
00000000
00000000
00000000
,
00000000
00000000
00000000
00000000
,
00001000
00000000
00010000
00000000
,
00001000
00000000
00010000
00000000
,
00001000
00000000
00000010
00000000
,
00000100
00000000
00011000
00000000
,
00100000
00000000
10000000
00000000
,
00010000
00000000
00001000
00000000
,
00000010
00000000
00000001
00000000
,
00001000
00000000
00010000
00000000
,
00100000
00000000
01000000
00000000
,
00010000
00000000
00001000
00000000
,
00000010
00000000
00000100
00000000
,
00010000
00000000
00011000
00000000
,
00100000
10000000
01000000
01000000
,
00010000
00001000
00000100
00000000
,
00000100
00000010
00010000
00000000
,
00001000
00100000
01000000
00000000
,
00100000
01000000
00010000
00000000
,
00010000
00000100
00001000
00000100
,
00000001
00000100
00001000
00010000
,
01000000
10000000
10000000
00000000
,
01100000
00000000
00010000
00000000
,
00011000
00000000
00000010
00000000
,
00000110
00000000
00000001
00000000
,
00001001
00000000
00000100
00000000
,
00011000
00000000
01000000
00000000
,
01100000
00000000
10000000
00000000
,
01100000
00000000
00001000
00000000
,
00011000
00000000
01000000
00000000
,
20020000
00000000
30030000
00000000
,
00001000
00000000
00010000
00000000
,
00001000
00000000
00010000
00000000
,
00001000
00000000
00010000
00000000
,
00100000
00100000
01000000
01000000
,
00001000
00001000
00010000
00010000
,
00000010
00000010
00000100
00000100
,
00001000
00001000
00010000
00010000
,
00100000
10000000
00100000
10000000
,
00010000
01000000
00001000
00010000
,
00000010
00001000
00000010
00001000
,
00000001
00000100
00000100
00000000
,
00000010
00000001
00000010
00000001
,
00001000
00000100
00010000
00001000
,
00100000
00010000
00100000
00010000
,
10000000
01000000
01000000
00000000
,
00100000
00000000
00010000
00000000
,
00000010
00000000
00000100
00000000
,
00000010
00000100
00001000
00001000
,
00010000
00001000
00001000
00000000
,
00000010
00000010
00000100
00000100
,
00001000
00001000
00010000
00010000
,
00100000
01000000
00010000
00010000
,
00001000
00010000
00001000
00010000
,
00100000
00100000
01000000
01000000
,
00010000
00010000
00001000
00001000
,
00000010
00000100
00000001
00000001
,
00001000
00000100
00010000
00000000
,
00000001
00000100
00001000
00010000
,
00100000
01000000
00010000
00001000
,
00000010
00000100
00000010
00000100
,
00001000
00010000
01000000
01100000
,
00100000
01000000
00100000
01000000
,
00010000
00001000
00000100
00000110
,
00000001
00000001
00000100
00001000
,
00010000
00100000
10000000
10000000
,
01000000
01000000
00010000
00001000
,
00000010
00000100
00000001
00000001
,
00000200
00000000
00000000
00000300
,
00000000
00000000
00000000
00000000
;

//---------------dance-double - ----------------
#NOTEDATA:;
#CHARTNAME:;
#CHARTHASH:2137078315:
#STEPSTYPE:dance-double;
#BANNER:;
#DESCRIPTION:;
#CHARTSTYLE:;
#DIFFICULTY:Medium;
#METER:8;
#METERF:0.000000;
#RADARVALUES:0.416245,0.479995,0.418905,0.102399,0.000000,313.000000,268.000000,45.000000,11.000000,0.000000,0.000000,0.000000,0.000000,0.000000,0.416245,0.479995,0.418905,0.102399,0.000000,313.000000,268.000000,45.000000,11.000000,0.000000,0.000000,0.000000,0.000000,0.000000;
#CREDIT:;
#DISPLAYBPM:143.000000:172.000000;
#NOTES:
00000000
00000000
00000000
00000000
,
00000000
00000000
00000000
00000000
,
00010000
00000000
00001000
00000000
,
00010000
00100000
10000000
00000000
,
10000000
00000000
20000000
30000000
,
01000000
00010000
00011000
00011000
,
00000010
00000100
00000001
00000100
,
00001000
00000100
00010000
00001000
,
00100000
01000000
10000000
00100000
,
00010000
00001000
00002000
00003000
,
00000010
00000001
00000100
00000100
,
00001000
00010000
01000000
10000000
,
10000000
01000000
00100000
00001000
,
00010000
00000100
00000220
00000330
,
00000011
00000100
00010100
00010000
,
00011000
01000000
01100000
10000000
,
01000000
00100000
00011000
00000100
,
00010100
00001000
00000110
00000101
,
00000010
00000100
00001100
00010000
,
00001000
01001000
00010000
01100000
,
10000000
01000000
00010000
00001000
,
00010100
00001000
00000220
00000330
,
00000101
00000010
00001001
00000100
,
00010100
00001000
00101000
01000000
,
01100000
10000000
11000000
00100000
,
00101000
00010000
00011000
00010100
,
00001100
00000010
00001001
00000100
,
00000101
00001000
00011000
01000000
,
10000000
01000000
01100000
00001000
,
00010000
00000000
00000010
00000000
00000110
00000000
00000001
00000001
,
00000002
00000000
00000100
00000000
,
00000100
00000000
00000100
00001003
,
00000100
00000000
00000100
00000000
,
00010000
00001000
00011000
01001000
,
00100000
00100000
10000000
10000000
,
01000000
00010000
00001000
00011000
,
00001000
00000100
00000110
00000001
,
00000010
00001100
00010000
00011000
,
00100000
00000000
00100000
00000000
01000000
00010000
01000000
00000000
,
00001000
00000000
00001000
00000000
00010000
00000100
00010000
00000000
,
00000010
00000010
00000100
00000100
,
00000001
00000000
00000100
00000010
00000200
00000000
00000300
00000000
,
00001000
00000000
00001000
00000000
00010000
00001000
00010000
00000000
,
00100000
00000000
00100000
00000000
10000000
01000000
10000000
00000000
,
01000000
00100000
00001000
00010000
,
00000010
00000000
00000100
00000001
00000200
00000000
00000300
00000000
,
00001000
00000100
00010000
00001000
,
00000010
00001000
00000001
00000100
,
00000001
00000000
00000001
00000000
00001000
00000100
00001000
00000000
,
00010000
00000000
00001000
01000000
00001000
00000000
00000000
00000000
,
00100000
00010000
10000000
01000000
,
00010000
00100000
00001000
00010000
,
00000010
00000010
00000100
00000100
,
00001000
00010000
00011000
00011000
,
00100000
00000000
01000000
00000000
00010000
01000000
00010000
00000000
,
00001000
00000000
00010000
00000000
00000100
00001000
00000100
00000000
,
00000010
00000001
00000100
00001000
,
00010000
00000000
00000010
00001000
00000100
00000000
00000000
00000000
,
00000001
00000100
00001000
00011000
,
00100000
01000000
00010000
00011000
,
00000010
00000000
00000100
00000100
00000000
00000001
00001000
00000000
,
00001000
00010000
00000000
00010000
01000000
00000000
10000000
00000000
,
11000000
00000000
00100000
00100000
00000000
00010000
00001000
00000000
,
00001000
00000010
00000000
00000010
00000100
00000000
00000001
00000000
,
00001001
00000000
00000100
00000100
00000000
00010000
00001000
00000000
,
00100000
01000000
00000000
10000000
00010000
00000000
01000000
00000000
,
00101000
00000000
00010000
00010000
00000000
00000100
00001000
00000000
,
00000010
00000100
00000000
00000100
00001000
00000000
00010000
00000000
,
02200000
00000000
00000000
03300000
,
00000000
00000000
00000000
00000000
;

//---------------dance-double - ----------------
#NOTEDATA:;
#CHARTNAME:;
#CHARTHASH:2147483647:
#STEPSTYPE:dance-double;
#BANNER:;
#DESCRIPTION:;
#CHARTSTYLE:;
#DIFFICULTY:Hard;
#METER:13;
#METERF:0.000000;
#RADARVALUES:0.567849,0.575994,0.111708,0.232725,0.000000,427.000000,415.000000,12.000000,25.000000,0.000000,0.000000,0.000000,0.000000,0.000000,0.567849,0.575994,0.111708,0.232725,0.000000,427.000000,415.000000,12.000000,25.000000,0.000000,0.000000,0.000000,0.000000,0.000000;
#CREDIT:;
#DISPLAYBPM:143.000000:172.000000;
#NOTES:
00000000
00000000
00000000
00000000
,
00000000
00000000
00000000
00000000
,
00010000
00000000
00001000
00000000
,
00010000
00000000
00001000
00000000
,
00010000
00000000
00002000
00000000
,
00000000
00013000
00010000
00000000
,
00100000
00010000
01000000
00000000
00100000
10000000
01000000
00000000
,
00010000
00001000
00000100
00000000
00001000
00000001
00000100
00000000
,
00000010
00000001
00000100
00001000
00000100
00010000
00001000
00100000
,
01000000
00010000
10000000
00010000
02200000
00000000
03300000
00000000
,
00010000
00001000
00010000
00000010
00000100
00000001
00001000
00000000
,
00000100
00010000
00001000
00100000
00010000
00001000
00010000
00000000
,
00000010
00001000
00000100
00000001
00000100
00001000
00010000
00001000
,
00100000
00010000
00001000
01000000
02020000
00000000
03030000
00000000
,
10000000
00100000
10000000
00010000
00100000
00001000
00010000
00000000
,
00001000
00000100
00000001
00000010
00000100
00000000
00001000
00010000
,
00001000
00100000
01000000
10000000
00100000
00000000
10000000
01000000
,
00100000
01000000
00010000
00001000
00000010
00000000
00000110
00000000
,
00001000
00000001
00000100
00001000
00010000
00000000
00010000
01000000
,
00100000
00010000
01000000
00001000
00010000
00001000
00000100
00000000
,
00000010
00001000
00000010
00001000
00010000
00001000
00000100
00000000
,
00000010
00010000
00001000
00010000
00200000
00000000
00300000
00000000
,
10000000
00010000
01000000
00100000
00001000
00010000
01000000
00010000
,
00001000
00000100
00000001
00000010
00000100
00001000
00000200
00000000
,
00010300
00001000
00100000
01000000
00100000
00001000
00010000
00001000
,
00000100
00000001
00000010
00001000
00000100
00010000
00002000
00000000
,
00103000
01000000
10000000
00100000
02000000
00000000
03010000
00100000
,
00001000
00100000
01000000
00010000
00002000
00000000
00013000
00000100
,
00000010
00000001
00001000
00000100
00020000
00000000
00031000
00100000
,
00010000
01000000
00100000
00010000
00011000
00000000
00000010
00000010
,
00002002
00000000
00000000
00003003
,
00001000
00000000
00010000
00000000
00100000
01000000
00020000
00000000
,
00031000
00001000
00000100
00000001
,
00000010
00000010
00001000
00010000
,
00102000
00010000
00100000
00010000
,
00100000
00010000
00100000
00013000
,
00210000
01000000
00010000
01300000
,
10000000
01000000
00010000
00011000
,
00001000
00000100
00000001
00000100
00001000
00000010
00000100
00000000
,
00001000
00010000
01000000
10000000
00100000
00010000
00001000
00000000
,
00010000
01000000
10000000
01000000
00100000
00001000
00010000
00001000
,
00000100
00000001
00000010
00000100
00002200
00000000
00003300
00000000
,
00001000
00010000
01000000
10000000
00100000
00010000
00100000
00000000
,
10000000
01000000
00010000
00001000
00000100
00000001
00000010
00000000
,
00000010
00001000
00000010
00000001
00000100
00001000
00010000
01000000
,
10000000
00100000
01000000
00010000
02200000
00000000
03300000
00000000
,
00010000
10000000
01000000
00010000
00001000
00010000
01000000
00000000
,
00010000
00001000
00000100
00000001
00000010
00000001
00000100
00000000
,
00001000
00100000
01000000
00010000
00001000
00000100
00001000
00000000
,
00010000
00100000
01000000
10000000
22000000
00000000
33000000
00000000
,
00100000
00010000
00100000
10000000
01000000
00010000
00001000
00000000
,
00001000
00000100
00000001
00000010
00001000
00000010
00000001
00000000
,
00000100
00001000
00010000
01000000
10000000
00100000
01000000
00010000
,
00100000
01000000
00010000
00001000
00000100
00000001
00000010
00000000
,
00000001
00001000
00000100
00010000
00001000
00000100
00000001
00000000
,
00000010
00000100
00001000
00000010
00000100
00001000
00010000
00000000
,
01000000
00100000
00010000
01000000
10000000
01000000
00010000
00000000
,
00100000
01000000
00010000
00001000
00020000
00000000
00030000
00000000
,
00001000
00000100
00000001
00001000
00000010
00000100
00001000
00000000
,
00010000
01000000
10000000
00100000
01000000
00010000
00100000
00000000
,
01000000
00100000
01000000
00010000
00001000
00000100
00000010
00001000
,
00000001
00000100
00000010
00001000
00001000
00010000
01000000
00100000
,
10000000
00010000
01000000
00100000
01000000
00010000
10000000
00100000
,
00010000
00001000
00010000
00000100
00001000
00000010
00000001
00000100
,
00010000
00001000
00100000
01000000
01000000
00010000
00100000
00001000
,
01000000
00100000
00010000
00001000
00100000
00010000
01000000
00001000
,
00010000
00100000
00001000
00000100
00000010
00001000
00000010
00000001
,
00000100
00001000
00010000
00100000
10000000
00010000
01000000
00001000
,
00020200
00000000
00000000
00030300
,
00000000
00000000
00000000
00000000
;

//---------------dance-double - ----------------
#NOTEDATA:;
#CHARTNAME:;
#CHARTHASH:0:
#STEPSTYPE:dance-double;
#BANNER:;
#DESCRIPTION:;
#CHARTSTYLE:;
#DIFFICULTY:Challenge;
#METER:17;
#METERF:0.000000;
#RADARVALUES:0.924250,0.991990,0.688866,0.093090,0.693520,695.000000,621.000000,74.000000,10.000000,0.000000,0.000000,0.000000,0.000000,0.000000,0.924250,0.991990,0.688866,0.093090,0.693520,695.000000,621.000000,74.000000,10.000000,0.000000,0.000000,0.000000,0.000000,0.000000;
#CREDIT:;
#DISPLAYBPM:143.000000:172.000000;
#NOTES:
00000000
00000000
00000000
00000000
,
00000000
00000000
00000000
00000000
,
00110000
00000000
00000010
00000100
00001001
00000001
00001000
00001200
,
00000000
00010300
00021000
00000000
00031000
00010000
01000000
00000000
,
11000000
00000000
00100000
01000000
01001000
00001000
00010000
00010020
,
00000000
00000000
00000031
00000010
00001000
00000001
00000100
00000000
00000011
00000000
00000110
00000000
00001200
00000000
00000000
00000000
,
00000310
00000001
00000100
00000010
00001000
00000100
00000110
00000000
,
00000001
00000000
00001000
00000000
00000010
00000000
00001000
00000001
00000100
00000000
00000010
00000000
00001010
00000000
00000000
00000000
,
00010000
00000010
00001000
00010000
00100000
10000000
01000000
00100000
,
00110000
00010000
10010000
10000000
10100000
00100000
01000000
00001000
,
00100000
10000000
00100000
00010000
01000000
00001000
00011000
00000000
,
00000010
00000000
00001000
00000000
00000001
00000000
00000010
00000100
00001000
00000000
00000001
00000000
00000101
00000000
00000000
00000000
,
00000010
00000001
00001000
00100000
10000000
00010000
01000000
00100000
,
10100000
00000000
10000000
00000000
10001000
00000000
00001000
00000000
00100000
01000000
10000000
00000000
11000000
00000000
00010000
00000000
,
00000010
00000000
00000001
00000000
00000100
00000000
00000001
00000010
00000001
00000000
00001000
00000010
00001000
00000000
00000100
00010000
,
00001000
00010000
00000100
00000010
00000001
00000000
00001001
00000000
00001100
00000000
00000000
00000000
00000010
00001000
00000100
00000000
,
00010000
00000000
00000010
00001000
01000000
00000000
10000000
00010000
01000000
00000000
00000000
00000000
00100000
01000000
00010000
10000000
,
01000000
00010000
01000000
00100000
00001000
00000000
01000000
00100000
10000000
00000000
00000000
00000000
01000100
00000000
00000000
00000000
,
00101000
00000000
00000010
00001000
00000010
00000001
00000100
00000010
00001000
00000000
00000000
00000000
00000100
00001000
00000001
00000000
,
00010000
00001000
01000000
00100000
00000000
00100000
10000000
01000000
00010000
00000000
00001000
00000100
00000010
00000000
00000000
00000000
,
00001000
00000001
00000000
00010000
00000100
00000000
00000010
00000001
00001000
00000010
00001000
00000001
00000100
00000000
00000000
00000000
,
00000010
00000000
00001000
00000000
00100000
00000000
01000000
00000000
00000000
00000000
00001000
00000000
00100000
00000000
01000000
00000000
10000000
00000000
00000000
00000000
00001000
00010000
00001000
00010000
00001000
00000000
01000000
00000000
00100000
00000000
01000000
00000000
,
00010000
00000000
00100000
00000000
10000000
00000000
00100000
01000000
10000000
00100000
01000000
00000000
00110000
00000000
00010000
01000000
,
00001000
00010000
00000100
00000001
00000100
00000010
00000001
00001000
00000010
00010000
00001000
00100000
01000000
00000000
01100000
00000000
,
00001000
00010000
00001000
00000000
01000000
00100000
10000000
00000000
11000000
00000000
00100000
00000000
10000000
00010000
01000000
00100000
,
10000000
01000000
00001000
01000000
00100000
00001000
00010000
00000010
00000100
00000000
00000110
00000000
00001001
00000000
00000000
00000000
,
00110000
00000000
00001000
00000010
00000001
00000100
00000010
00001000
00000001
00000000
00000000
00000000
00001000
00000100
00000010
00000001
,
00000100
00000010
00010000
00001000
00010000
01000000
00000000
01000000
10000000
00000000
00000000
00000000
00100000
01000000
00100000
00000000
,
10000000
00010000
00100000
01000000
10000000
00000000
00100000
01000000
00010000
00000000
00000000
00000000
10000000
00010000
00100000
00001000
,
00010000
01000000
10000000
00100000
01000000
00100000
10000000
00100000
01000000
00000000
00000000
00000000
10010000
00000000
10010000
00000000
,
00011000
00000000
00010000
00000010
00000120
00000000
00000130
00000001
,
00000000
00000001
00001000
00000100
00001100
00001100
00002200
00000000
,
00003000
00000010
00000310
00000001
00001000
00000010
00001000
00010000
,
00000000
01000000
01000000
00100000
00110000
00110000
00120000
00000000
,
10030000
00000000
00000000
10000000
01000000
00000000
00000000
01000000
00100000
00000000
00000000
00100000
00010000
00000000
00000000
00010000
,
00001000
00000000
00000000
00001000
00000100
00000000
00000000
00000100
00000010
00000000
00000000
00000010
00000001
00000000
00000000
00000001
,
00000010
00001000
00000010
00000100
00010000
00100000
10000000
00010000
,
00000010
00000000
00000001
00000000
00000100
00000010
00001000
00000000
00000100
00000000
00000010
00000001
00001000
00000000
00010000
00000000
,
10000000
01000000
00100000
00010000
01000000
00100000
01100000
00000000
,
00100000
00000000
10000000
00000000
00010000
00000000
00100000
01000000
10000000
00000000
00010000
00000000
00110000
00000000
00000000
00000000
,
00001000
00010000
00000010
00000100
00010000
00000100
00000001
00000010
,
00000110
00000100
00001100
00001000
00001001
00000010
00000100
00000001
,
00000010
00000100
00001000
00100000
01000000
10000000
01100000
00000000
,
00100000
00000000
10000000
00000000
01000000
00000000
00100000
00001000
00010000
00000000
01000000
00000000
11000000
00000000
00000000
00000000
,
00001000
00010000
00000010
00000001
00000010
00001000
00000100
00010000
,
00011000
00000000
00001000
00000000
10001000
00000000
10000000
00000000
11000000
00000000
00100000
01000000
00001000
00000000
00010000
00000000
,
00000010
00000000
00000100
00000000
00000001
00000000
00000010
00000100
00001000
00000000
00000001
00000000
00010100
00000000
00000000
00000000
,
00000010
00000000
00000100
00000000
00100000
00000000
10000000
00010000
01000000
00000000
00100000
00000000
01001000
00000000
00000000
00000000
,
10000000
01000000
00010000
00000000
00001000
00100000
00010000
01000000
00100000
00000000
10000000
00000000
01100000
00000000
00000000
00000000
,
00010000
00000000
01000000
00100000
10000000
00000000
01000000
00100000
00010000
00000000
01000000
00000100
00000010
00000000
00000011
00000000
,
00000001
00000000
00000100
00000000
00000010
00000000
00001000
00000001
00000100
00000000
00000010
00000000
00011000
00000000
00000000
00000000
,
01000000
00010000
00100000
00010000
10000000
01000000
00100000
00010000
01000000
00000000
00001000
00000000
00110000
00000000
00100000
01000000
,
10000000
00000000
00100000
00000000
10000000
00000000
00010000
00000000
00100000
00000000
01000000
00000000
10000000
00000000
00010000
00000010
,
00000100
00000000
00010000
00000010
00000100
00001000
00000100
00000001
00000010
00000000
00000100
00001000
00000001
00000000
00000100
00000000
,
00000010
00000000
00010000
00000000
00100000
00000000
10000000
00001000
01000000
00000000
00100000
00000000
10010000
00000000
00000000
00000000
,
10000000
00000000
01000000
00000000
00100000
00000000
00001000
01000000
00100000
00000000
10000000
00000000
00011000
00000000
00000000
00000000
,
01000000
10000000
00100000
01000000
00001000
00010000
00000001
00000010
00000100
00000000
00001000
00000010
00010000
00000000
00000000
00000000
,
00000100
00000000
00000010
00001000
00000001
00000000
00000010
00000100
00001000
00000001
00001000
00000001
00000010
00000100
00000010
00000100
,
00010000
00000000
00001000
00000000
01000000
00000000
00100000
10000000
00010000
00000000
01000000
00000000
00101000
00000000
00000000
00000000
,
10000000
00100000
10000000
00010000
00100000
01000000
10000000
00100000
01000000
00000000
00001000
00000000
00000100
00000001
00000010
00001000
,
00000010
00000000
00000001
00000000
00000100
00000000
00000010
00000000
00001000
00000000
00000001
00000000
00000010
00000000
00000100
00001000
,
00010000
00000000
00100000
10000000
01000000
00010000
01000000
10000000
00100000
00000000
01000000
00000000
01010000
00000000
00000000
00000000
,
11000000
00000000
00010000
00000000
00110000
00000000
01000000
00000000
01100000
00000000
00001000
00000000
00011000
00000000
00000010
00000100
,
00000001
00000000
00000010
00000100
00001000
00000010
00001000
00000001
00000100
00000000
00000010
00010000
00000100
00000000
00001000
00000000
,
01100000
00000000
10000000
00000000
10100000
00000000
00010000
00000000
01010000
00000000
01000000
00000000
01001000
00000000
00100000
01000000
,
10000000
00000000
00100000
01000000
00010000
10000000
01000000
00100000
00010000
00000000
01000000
00000000
00100000
00000000
10000000
00000000
,
01010000
00000000
00001000
00000000
00011000
00000000
00010000
00000000
00010001
00000000
00000001
00000000
00000011
00000000
00001000
00000100
,
00000010
00000001
00000000
00000100
00000000
00000001
00001000
00000100
00000001
00000100
00010000
00001000
01000000
00000000
01100000
00000000
,
20200000
00000000
00000000
30300000
;

//---------------dance-single - ----------------
#NOTEDATA:;
#CHARTNAME:;
#CHARTHASH:0:
#STEPSTYPE:dance-single;
#BANNER:;
#DESCRIPTION:;
#CHARTSTYLE:;
#DIFFICULTY:Beginner;
#METER:3;
#METERF:0.000000;
#RADARVALUES:0.179531,0.253205,0.093090,0.037236,0.000000,135.000000,125.000000,10.000000,4.000000,0.000000,0.000000,0.000000,0.000000,0.000000,0.179531,0.253205,0.093090,0.037236,0.000000,135.000000,125.000000,10.000000,4.000000,0.000000,0.000000,0.000000,0.000000,0.000000;
#CREDIT:;
#DISPLAYBPM:143.000000:172.000000;
#NOTES:
0000
0000
0000
0000
,
0000
0000
0000
0000
,
1001
0000
0100
0000
,
0000
0000
0000
0000
,
0110
0000
0010
0000
,
0000
0000
1000
0000
,
0001
0000
0001
0000
,
1000
0000
1000
0000
,
0010
0000
0010
0000
,
0100
0100
0100
0000
,
0010
0000
0010
0000
,
0100
0000
0100
0000
,
0001
0000
0001
0000
,
1000
1000
1000
0000
,
0001
0000
0100
0000
,
1000
0000
0010
0000
,
1000
0000
0001
0000
,
1000
0000
0110
0000
,
1001
0000
0010
0000
,
0100
0000
0010
0000
,
1000
1000
1000
0000
,
0001
0001
0001
0000
,
0010
0000
0001
0000
,
0100
0000
1000
0000
,
0010
0000
1000
0000
,
0100
0000
0010
0000
,
0001
0000
1001
0000
,
1000
0000
1001
0000
,
0010
0000
0110
0000
,
0100
0000
0110
0000
,
1001
0000
0000
0000
,
0000
0000
0000
0000
,
0000
0000
0000
0000
,
0000
0000
0000
0000
,
0001
0000
0001
0000
,
0001
0000
0001
0000
,
1000
0000
1000
0000
,
1000
0000
1000
0000
,
0020
0000
0030
0000
,
0200
0000
0300
0000
,
0001
0000
0001
0000
,
1000
0000
1000
0000
,
0002
0000
0003
0000
,
2000
0000
3000
0000
,
0100
0000
0100
0000
,
0010
0000
0010
0000
,
0001
0000
0010
0000
,
0001
0000
0100
0000
,
0010
0000
1000
0000
,
0100
0100
0100
0000
,
1000
0000
0001
0000
,
1000
0000
0010
0000
,
0100
0000
0001
0000
,
0010
0010
0010
0000
,
0001
0000
0001
0000
,
1000
0000
1000
0000
,
0010
0000
0010
0000
,
0100
0000
0100
0000
,
0001
0000
1000
0000
,
0001
0000
1000
0000
,
0100
0000
0100
0000
,
0100
0000
0100
0000
,
0010
0000
0010
0000
,
0010
0000
0010
0000
,
0001
0000
0100
0000
,
1000
0000
0010
0000
,
1000
0000
0001
0000
,
1000
0000
0100
0000
,
0110
0000
0000
0000
;

//---------------dance-single - ----------------
#NOTEDATA:;
#CHARTNAME:;
#CHARTHASH:0:
#STEPSTYPE:dance-single;
#BANNER:;
#DESCRIPTION:;
#CHARTSTYLE:;
#DIFFICULTY:Easy;
#METER:6;
#METERF:0.000000;
#RADARVALUES:0.331134,0.411458,0.204798,0.000000,0.000000,249.000000,227.000000,22.000000,0.000000,0.000000,0.000000,0.000000,0.000000,0.000000,0.331134,0.411458,0.204798,0.000000,0.000000,249.000000,227.000000,22.000000,0.000000,0.000000,0.000000,0.000000,0.000000,0.000000;
#CREDIT:;
#DISPLAYBPM:143.000000:172.000000;
#NOTES:
// measure 0
0000
0000
0000
0000
,  // measure 1
0000
0000
0000
0000
,  // measure 2
1001
0000
0100
0000
,  // measure 3
0001
0000
0010
0000
,  // measure 4
0110
0000
1000
0000
,  // measure 5
0010
0000
0100
0100
,  // measure 6
0001
0010
0001
1000
,  // measure 7
0010
0100
0010
1000
,  // measure 8
0100
0010
0100
0010
,  // measure 9
0001
0001
0001
0000
,  // measure 10
1000
0010
1000
0100
,  // measure 11
0010
0001
0100
0001
,  // measure 12
0010
0100
1000
0010
,  // measure 13
0100
0100
0100
0000
,  // measure 14
0001
0010
0001
0100
,  // measure 15
1000
0010
1000
1000
,  // measure 16
0100
0010
1001
0100
,  // measure 17
0010
1000
0001
1001
,  // measure 18
0110
0001
0100
1000
,  // measure 19
0010
0100
0001
0110
,  // measure 20
1000
1000
1000
0100
,  // measure 21
0001
0010
1000
0000
,  // measure 22
0010
0100
0010
1000
,  // measure 23
0100
0010
0001
0001
,  // measure 24
1000
0001
1001
0100
,  // measure 25
0010
1000
0110
1001
,  // measure 26
0010
1000
0110
0001
,  // measure 27
0010
0100
1001
0010
,  // measure 28
1000
0100
0110
0001
,  // measure 29
0100
0010
1001
0000
,  // measure 30
0110
0000
0000
0000
,  // measure 31
0000
0000
0000
0000
,  // measure 32
0000
0000
0000
0000
,  // measure 33
0000
0000
0000
0000
,  // measure 34
0001
0001
0001
0001
,  // measure 35
0001
0001
0001
0001
,  // measure 36
1000
1000
1000
1000
,  // measure 37
1000
1000
1000
1000
,  // measure 38
0010
1000
0100
0100
,  // measure 39
0010
0001
0100
0100
,  // measure 40
0001
0010
0001
0010
,  // measure 41
0100
1000
1001
0000
,  // measure 42
0010
1000
0010
1000
,  // measure 43
0001
0100
0001
0100
,  // measure 44
0010
0100
0001
0010
,  // measure 45
1000
0100
0110
0000
,  // measure 46
0001
0001
0001
0001
,  // measure 47
0100
0100
0100
0100
,  // measure 48
0001
0010
0001
0100
,  // measure 49
1000
1000
1000
0000
,  // measure 50
0010
1000
0010
0100
,  // measure 51
0001
0010
0001
0100
,  // measure 52
1000
0010
1000
0001
,  // measure 53
0100
0100
0100
0000
,  // measure 54
0010
0100
0001
1001
,  // measure 55
1000
0010
0100
0110
,  // measure 56
0001
0010
0001
1001
,  // measure 57
0100
0100
0100
0000
,  // measure 58
0010
1000
0100
0110
,  // measure 59
0010
0001
0100
1001
,  // measure 60
1000
0000
0000
0001
0000
0000
1000
0000
,  // measure 61
0000
0010
0000
0000
0100
0000
0100
0000
,  // measure 62
0010
0000
0000
1000
0000
0000
0100
0000
,  // measure 63
0000
0010
0000
0000
0001
0000
0001
0000
,  // measure 64
0010
0000
0000
0001
0000
0000
0100
0000
,  // measure 65
0000
0010
0000
0000
1000
0000
1000
0000
,  // measure 66
0100
0000
0000
0010
0000
0000
0001
0000
,  // measure 67
1000
1000
0001
0100
,  // measure 68
0110
0000
0000
0000
;
