#TITLE:Cum On Feel the Noize;
#ARTIST:Quiet Riot;
#BANNER:Cum on Feel the Noize-bn.png;
#BACKGROUND:Cum on Feel the Noize-bg.png;
#JACKET:Cum on Feel the Noize-jacket.png;
#MUSIC:Cum on Feel the Noize.ogg;
#SAMPLESTART:46.721;
#SAMPLELENGTH:20;
#DISPLAYBPM:139:152;
#BPMS:0=143,8=142,10=141,13=140,24=142.5,32=141.08,34=145,36=147,48=144.444,53=142.3,58=144,87=143.2,89=146,94=144.144,98=141.3,100=146.33,104=143.456,108=145.6,119=147.18,121=144.565,127=143.89,136=145.4,141=148,148=145.6,150=144.7,151=145.145,156=147.02,158=142.35,159=144.441,160=145.76,162=143.875,169=141.95,172=144.31,174=147.9,177=144.12,180=148.35,181=146.57,192=143.24,194=145.397,196=149,200=145.372,207=147.852,208=141.86,209=146.359,217=150,218=144.085,219=148.81,223=147.151,224=143.027,226=146.59,230=151,233=144.715,238=149.6,240=145.719,243=150.135,244=146.919,247=143.28,248=147.52,250=144.65,258=143.567,263=148.7,264=144.72,267=143.81,271=147.101,278=151.01,282=145.873,290=147.818,294=152.3,295=143.218,302=147.036,304=150.07,306=145.45,308=142.71,309=139,312=149.73,314=146.789;
#BGCHANGES:;

//---------------dance-single - ----------------
#NOTES:
     dance-single:
     :
     Beginner:
     2:
     :
0000
0000
0000
0000
,
0000
0000
0000
0000
,
0001
0000
0001
0000
,
0001
0000
0000
0000
,
1000
0000
1000
0000
,
1000
0000
0000
0000
,
0010
0000
0010
0000
,
0010
0000
0000
0000
,
0100
0000
0100
0000
,
0100
0000
0000
0000
,
1001
0000
1000
0000
,
0001
0000
0010
0000
,
0100
0100
0100
0000
,
0000
0000
0000
0000
,
1000
0000
0010
0000
,
1000
0000
0000
0000
,
0001
0000
0010
0000
,
0001
0000
0000
0000
,
0110
0000
1000
0000
,
0001
0000
0100
0000
,
0010
0010
0010
0000
,
0000
0000
0000
0000
,
0100
0000
0010
0000
,
0100
0000
0000
0000
,
0001
0000
1000
0000
,
0001
0000
0000
0000
,
1001
0000
0000
0000
,
0110
0000
0000
0000
,
1000
0000
0010
0000
,
0100
0000
0000
0000
,
0001
0000
0010
0000
,
0100
0000
0000
0000
,
1000
0000
0001
0000
,
0010
0000
0000
0000
,
0001
0000
0100
0000
,
1000
0000
0000
0000
,
0001
0000
0010
0000
,
0001
0000
0000
0000
,
1000
0000
0100
0000
,
1000
0000
0000
0000
,
0010
0000
0010
0000
,
0100
0000
0100
0000
,
0110
0000
0000
0000
,
1001
0000
0000
0000
,
0110
0000
0001
0000
,
0010
0000
0100
0000
,
1000
1000
1000
0000
,
0000
0000
0000
0000
,
0100
0000
0010
0000
,
0001
0000
0000
0000
,
1000
0000
0001
0000
,
0100
0000
0000
0000
,
1001
0000
1000
0000
,
0100
0000
0010
0000
,
0001
0001
0001
0000
,
0000
0000
0000
0000
,
1000
0000
0100
0000
,
0010
0000
0000
0000
,
0001
0000
1000
0000
,
0001
0000
0000
0000
,
0110
0000
0000
0000
,
1001
0000
0000
0000
,
1000
0000
0100
0000
,
1000
0000
0000
0000
,
0010
0000
1000
0000
,
0010
0000
0000
0000
,
0100
0000
0001
0000
,
0100
0000
0000
0000
,
0001
0000
0010
0000
,
0001
0000
0000
0000
,
0001
0000
0010
0000
,
1000
0000
0000
0000
,
0100
0000
1000
0000
,
0010
0000
0000
0000
,
1000
0000
0001
0000
,
0100
0000
0000
0000
,
0110
0000
0000
0000
,
0000
1001
0000
0000
,
1000
0000
0001
0000
,
0100
0000
0000
0000
;

//---------------dance-single - ----------------
#NOTES:
     dance-single:
     :
     Easy:
     7:
     :
0000
0000
0000
0000
,
0000
0000
0000
0000
,
0001
1001
0000
1001
,
1000
1001
0000
1001
,
0010
0110
0000
0110
,
0100
0110
0000
0110
,
0010
0110
0000
0110
,
0100
0110
0000
0110
,
0001
1001
0000
1001
,
1000
0001
0100
0010
,
1001
0100
1000
0001
,
0010
0001
0100
0000
,
0101
0000
0101
0000
0001
1000
0000
0000
,
0000
1000
0000
0001
1000
0000
0000
0010
,
2000
0000
0000
0000
3002
0000
0000
0203
,
0000
0000
0010
0000
0000
0000
0310
1000
,
0002
0000
0000
0000
0023
0000
0000
0230
,
0000
0000
1000
0000
0000
1300
0001
0000
,
1001
0010
0001
0100
,
1000
0001
0100
0000
,
1010
0000
1010
0000
0100
0001
0000
0000
,
1000
0000
0010
0000
1000
0001
0000
0010
,
0002
0000
0000
0000
0203
0000
0000
0320
,
0000
0000
1000
0000
0000
0000
1030
0001
,
0020
0000
0000
0000
0032
0000
0000
2003
,
0000
0000
3010
0000
0000
0010
0100
0002
,
0000
2000
0000
3003
0000
1100
0000
0101
,
0000
0001
1000
0001
,
0011
0100
1000
0010
,
0100
0110
0010
0110
,
2000
3000
1001
0010
,
0100
0001
0010
0100
,
2000
0000
0000
0000
3002
0000
0000
0023
,
0000
0001
0000
0130
,
0020
0000
0000
0000
0032
0000
0000
0203
,
0000
0000
0310
0000
0000
1000
0001
0000
,
1010
1000
0100
0010
,
0001
0100
0001
1000
,
0020
0030
1001
0100
,
0001
0010
1000
0001
,
0200
0000
0320
0000
,
2030
0000
0000
0000
0000
3010
0100
0002
,
0000
0000
0000
0000
0000
1003
0010
1000
,
0000
0000
0010
0000
0000
1000
0001
0000
,
1010
0001
1000
0100
,
0010
0001
0100
0000
,
1010
0000
1010
0000
1000
0100
0000
0000
,
0010
0000
0001
0000
1000
0000
0001
0100
,
0020
0000
0000
0000
2030
0000
0000
3002
,
0000
0000
0010
0000
0000
0000
0103
0010
,
2000
0000
0000
0000
3200
0000
0000
0320
,
0000
0000
1000
0000
0000
0000
0031
0100
,
0001
1001
1000
0010
,
1000
0100
0001
0000
,
0011
0000
0011
0000
1000
0100
0000
0000
,
1000
0000
0001
0000
0010
0000
0001
0100
,
0002
0000
0000
0000
0023
0000
0000
0032
,
0000
0000
0100
0000
0000
0000
0013
0001
,
0200
0000
0000
0000
0320
0000
0000
2030
,
0000
0000
3001
0000
0000
1000
0100
2000
,
0000
0002
0000
3003
0000
1100
0000
0101
,
0000
1100
0000
0000
0001
1000
0001
0000
,
0011
1000
0100
1000
,
0001
0100
0001
0010
,
0200
0300
0110
0001
,
1000
0010
1000
0001
,
2000
0000
0000
0000
3002
0000
0000
0203
,
0000
0010
1000
0310
,
0200
0000
0000
0000
0302
0000
0000
0023
,
0000
0100
0001
0130
,
0110
0001
1000
0100
,
0010
1000
0100
0001
,
0020
0030
0110
0001
,
0100
0010
1000
0001
,
0020
0000
0032
0000
,
0203
0000
0000
0000
0000
0310
1000
0002
,
0000
0100
1000
0103
,
0000
2020
0000
0030
,
0001
0000
0000
0000
3002
0000
0000
0200
,
0000
0000
0000
0303
;

//---------------dance-single - ----------------
#NOTES:
     dance-single:
     :
     Medium:
     10:
     :
0000
0000
0000
0000
,
0000
0000
0000
0000
,
0001
0000
1001
0000
0000
0001
1001
0000
,
0001
0000
1001
0000
0000
0001
1001
0000
,
0100
0000
0110
0000
0000
0100
0110
0000
,
0100
0000
0110
0000
0000
0100
0110
0000
,
0010
0000
0110
0000
0000
0010
0110
0000
,
0010
0000
0110
0000
0000
0010
0110
0000
,
1000
0000
1001
0000
0000
1000
1001
0000
,
1000
0001
1000
0000
0010
0100
0001
1000
,
0100
0000
0010
0000
0001
0100
1000
0000
,
0001
0100
0000
0101
0000
0000
0000
1000
,
0001
0000
0011
0000
0001
1000
0000
0000
,
0010
1000
0000
0001
1000
0000
0000
0100
,
0020
0000
0031
0000
2000
0000
3001
0100
,
0010
0000
1010
0000
0001
0100
0101
0000
,
2000
0000
3100
0000
0020
0000
0031
1000
,
0010
0000
1001
0000
1000
0001
0010
0100
,
1000
0000
0010
1000
0001
0000
0010
0000
,
0001
1000
0000
1100
0000
0000
0000
0010
,
0100
0000
0101
0000
0100
0010
0000
0000
,
1000
0001
0000
0010
0001
0000
0000
0100
,
0020
0000
1030
0000
0002
0000
0013
0100
,
1000
0000
0110
0000
0001
1000
1001
0000
,
0002
0000
1003
0000
0200
0000
0310
0001
,
1000
0000
0011
0000
0000
0010
0001
0200
,
0000
0310
1000
0000
0000
1100
0000
0101
,
0000
1000
0001
1000
0001
1000
0001
1000
,
0010
0100
0001
0000
0011
0000
1000
0001
,
0100
0010
1000
0000
0001
0010
0011
0000
,
2100
0000
3001
0000
1001
0000
0010
1000
,
0100
0010
0001
0000
1000
0001
0100
0000
,
0002
0000
0013
0100
2000
0000
3010
0100
,
0001
0011
1000
1010
,
0200
0000
0310
0001
2000
0000
3001
0100
,
0010
0000
0110
0000
1000
0001
1001
0000
,
0010
0001
0100
0000
1010
0000
0001
1000
,
0100
0010
0001
0000
1000
0001
0011
0000
,
0120
0000
0031
0000
1001
0000
0100
0010
,
1000
0001
0100
0000
0001
0010
1000
0000
,
0200
0000
0310
0001
2000
0000
3010
0100
,
0001
0000
1100
0000
1000
0001
0100
0020
,
1000
0000
0001
0000
1030
0100
0010
0001
,
0100
0001
0010
0000
1000
0001
1000
0001
,
0100
0000
0010
1000
0001
0000
1010
0000
,
1000
0100
0000
0011
0000
0000
0000
0100
,
0010
0000
0101
0000
1000
0001
0000
0000
,
0010
0001
0100
0000
0010
0000
1000
0001
,
2000
0000
3001
0000
0020
0000
0130
0010
,
0001
0000
0110
0000
1000
0100
1100
0000
,
0020
0000
0130
0000
0002
0000
1003
0010
,
1000
0000
0110
0000
0001
0000
1001
0010
,
1000
0000
0100
0010
0001
0000
0101
0000
,
1000
0001
0000
1010
0000
0000
0100
0010
,
1000
0000
0001
0000
1100
0001
0000
0000
,
0100
0010
1000
0000
0001
0000
0010
0001
,
0020
0000
0130
0000
2000
0000
3001
0100
,
0010
0000
0101
0000
1000
0100
0110
0000
,
0002
0000
0103
0000
2000
0000
3010
0100
,
0001
0000
0011
0000
1000
0010
0100
0002
,
0000
0013
0200
0000
0300
1100
0000
0101
,
0000
0001
1000
0001
1000
0001
1000
0001
,
0100
0010
1000
0000
1001
0000
0001
0010
,
0100
0000
1100
0000
0001
0100
1010
0000
,
0210
0000
0301
0000
0011
0000
1000
0100
,
0010
0000
0110
0000
0010
0001
1000
0000
,
0020
0000
1030
0000
0200
0000
0310
0001
,
1000
0000
0101
0000
0010
0100
0101
0000
,
0002
0000
1003
0000
0200
0000
1300
0010
,
0100
0000
0110
0000
1000
0010
1000
0001
,
0010
0100
0010
0000
1001
0000
0001
1000
,
0100
0000
1010
0000
0001
1000
0100
0000
,
1020
0000
0130
0000
0110
0000
0001
1000
,
0100
0010
0001
0000
1000
0001
0100
0000
,
0020
0000
1030
0001
0020
0000
0031
0100
,
0020
0000
1030
0000
0001
1000
0100
0020
,
0000
0031
2000
0000
3010
1000
0100
0000
,
0110
0000
0000
0000
2000
0002
0000
0000
0000
0000
0000
0000
3000
0000
0000
0000
,
0200
0000
0300
0000
0023
0000
0000
0200
,
0000
0000
0000
0330
;

//---------------dance-single - ----------------
#NOTES:
     dance-single:
     :
     Hard:
     13:
     :
0000
0000
0000
0000
,
0000
0000
0000
0000
,
0001
0100
0000
0000
0110
0000
0010
1000
,
0000
0001
0000
0000
0000
0100
0110
0000
,
2000
0000
3000
0000
1001
0000
0010
0100
,
0000
0001
0000
0000
0000
0100
0110
0000
,
2000
0000
3010
0000
0200
0000
0301
0010
,
0100
0000
0110
0000
0000
0100
0110
0000
,
0002
0000
1003
0000
0020
0000
1030
0200
,
1000
1300
1000
0001
0001
1000
1000
0100
,
0010
0000
0001
0100
0001
0010
1000
0010
,
0001
0100
0000
1010
0000
1000
0001
0100
,
0101
0000
0101
0000
1100
0001
0100
0000
,
0010
0000
1000
0000
0000
0000
0001
0100
0001
0000
1000
0000
0000
0000
0010
0000
,
2000
0000
3100
0010
0002
1000
1003
0010
,
0100
0000
0101
0001
1000
0010
1000
0001
,
0020
0000
0031
1000
0020
0100
0130
0001
,
0010
0000
0000
0000
1100
0000
0000
0000
0001
0000
1000
0000
1000
0000
0100
0010
,
0100
0000
1000
0001
1000
0010
0001
0010
,
1000
0100
0000
0110
0000
0001
0001
1000
,
1100
0000
1100
0000
0011
0100
0010
0000
,
1000
0001
0000
0010
0001
1000
0000
0100
,
0020
0000
0031
0100
0020
1000
1030
0001
,
0100
0000
1001
0000
1000
0001
1000
0100
,
0020
0000
0130
1000
0002
0010
0013
0001
,
0100
0000
1010
0000
1000
0001
1000
0100
,
0010
0000
0001
1000
0001
0000
0100
0000
0010
0000
0110
0000
0000
0000
1001
0000
,
0000
1000
1000
0001
0001
1000
1000
0100
,
0110
0001
0100
0010
1000
0100
1000
0001
,
0010
0100
1100
0000
0001
0100
0101
0000
,
0011
1000
0001
1000
0010
0100
0010
1000
,
0001
0000
1010
0000
0100
0010
0011
0000
,
1100
0010
0001
0100
0010
1000
0001
0100
,
0010
0000
1010
0001
1000
0100
1000
0001
,
0101
0100
0001
0010
1000
0010
0001
0100
,
0010
0000
0000
0000
1001
0000
0001
0000
1000
0000
0010
0000
0100
0000
0001
1000
,
0001
0010
0100
0010
1000
0010
0001
0100
,
0010
1000
0110
0000
0001
0100
0011
0000
,
1001
1000
0001
0010
0100
0001
0100
1000
,
0010
0100
0101
0000
1000
0001
1100
0000
,
0110
0001
1000
0100
0010
0100
1000
0001
,
0100
0000
0010
1000
0100
0010
0001
0100
,
2000
0001
0001
0000
3010
1000
0001
0010
,
0100
0000
1000
0000
0100
0000
1000
0000
0001
0000
0100
0010
0100
0010
0100
0010
,
0100
0000
0010
1000
0100
0001
0100
0010
,
0100
1000
0000
1001
0000
0010
1000
0001
,
0011
0000
0011
0000
1010
0100
0001
0000
,
0010
0001
1000
0010
1000
0001
0100
0010
,
0200
0000
0301
0010
0200
1000
1300
0001
,
0100
0000
0010
1000
0010
1000
0001
1000
,
0200
0000
0310
0001
2000
0010
3010
0100
,
0001
0000
0000
0000
0011
0000
0000
0000
1000
0000
0001
0000
0100
0000
0010
1000
,
0010
0000
0100
0001
1000
0001
0010
0100
,
1000
0001
0000
0110
0000
0010
1000
0001
,
1002
0000
0103
0000
1010
0001
1000
0000
,
0100
1000
0001
0000
0100
1000
0001
1000
,
0020
0000
1030
0100
2000
0001
3001
0100
,
0010
0000
0110
0000
0001
0100
1000
0001
,
2000
0000
3001
0010
0002
0100
0103
0010
,
1000
0000
1100
0000
0010
1000
0001
1000
,
0100
0000
0010
0001
0010
0000
0100
0000
1000
0000
1010
0000
0000
0000
1100
0000
,
0001
0001
0001
1000
1000
0001
0001
0100
,
0110
0100
0001
0010
1000
0010
0001
0100
,
1000
0000
0101
0001
1000
0001
0100
0000
,
0110
0010
1000
0100
0001
0100
0010
0100
,
1000
0001
1100
0000
0010
0100
1001
0000
,
0101
1000
0001
1000
0100
0010
0001
0100
,
1000
0010
1010
0000
1100
0001
0100
0000
,
0011
0010
0001
1000
0100
0001
0100
0010
,
0001
0000
0100
0000
0110
0000
0000
0000
1000
0000
0010
0100
0010
0100
0010
0100
,
0010
1000
0100
0010
1000
0010
0001
0100
,
1000
0001
0011
0000
0001
0100
1001
0000
,
1100
0100
0001
0100
0010
0001
1000
0010
,
0100
0001
0011
0000
1000
0100
0011
0000
,
0101
0010
0100
0010
0001
1000
0001
0100
,
0010
1000
0001
0000
0001
0100
1000
0010
,
0100
0001
0010
0001
1000
0001
1000
0100
,
0010
0000
0000
0000
0001
2000
0000
0000
0100
0000
0100
0000
0100
0000
0000
0000
,
0020
0000
0030
0000
3002
0000
0000
0200
,
0000
0000
0000
0303
;
