#TITLE:Crazy Jackpot;
#ARTIST:Hommarju;
#BANNER:Crazy Jackpot-bn.png;
#BACKGROUND:Crazy Jackpot-bg.png;
#JACKET:Crazy Jackpot-jacket.png;
#MUSIC:Crazy Jackpot.ogg;
#SAMPLESTART:8.471;
#SAMPLELENGTH:20;
#DISPLAYBPM:170;
#BPMS:0=170;
#BGCHANGES:;

//---------------dance-single - ----------------
#NOTES:
     dance-single:
     :
     Beginner:
     5:
     :
0000
0000
0000
0000
,
0000
0000
0000
0000
,
0010
0000
1000
0000
,
0001
0001
0001
0000
,
0010
0000
0001
0000
,
0100
0100
0100
0000
,
0010
0010
0010
0000
,
1000
1000
1000
0000
,
0100
0000
1000
1000
,
0000
0000
0001
0000
,
0100
0000
0010
0010
,
0000
0000
1000
0000
,
0001
0000
0010
0010
,
0000
0000
0100
0000
,
1000
0000
0001
0001
,
0000
0000
0100
0000
,
0010
0000
1000
0000
,
0010
0000
0100
0000
,
0001
0000
0010
0000
,
0001
0000
0100
0000
,
1000
0000
1000
0000
,
0001
0000
0001
0000
,
0100
0000
0010
0000
,
1000
1000
1000
0000
,
0010
0000
0100
0100
,
0000
0001
0001
0000
,
0010
0000
0100
0100
,
0000
1000
1000
0000
,
0001
0000
1000
1000
,
0000
0010
0010
0000
,
1000
0000
0001
0001
,
0000
0100
0100
0000
,
0010
0010
0000
0000
,
0100
0100
0000
0000
,
0001
0001
0000
0000
,
1000
1000
0000
0000
,
0100
0100
0100
0100
,
0000
0010
0010
0000
,
0001
0001
0001
0000
,
1000
1000
1000
0000
,
0010
0000
0010
0000
,
0010
0000
0010
0000
,
0010
0000
0010
0000
,
0010
0000
0010
0000
,
0010
0000
0010
0000
,
0010
0000
0010
0000
,
0010
0000
0010
0000
,
1000
0000
0001
0000
,
0010
0000
0001
0000
,
0010
0000
0001
0000
,
1000
0000
0100
0000
,
1000
0000
0100
0000
,
1000
0000
0010
0000
,
1000
0000
0010
0000
,
0100
0000
0001
0000
,
0100
0000
0001
0000
,
0010
0000
0010
0000
,
0100
0000
0100
0000
,
1000
0000
0001
0000
,
1000
0000
0001
0000
,
0100
0000
0110
0000
,
0010
0000
0110
0000
,
1000
1000
1000
0000
,
0001
0001
0001
0000
,
0010
0000
0001
0000
,
0100
0000
1000
0001
,
1000
0000
0010
0010
,
0100
0000
0001
0000
,
0010
0000
0001
0000
,
0100
0000
1000
0010
,
1000
0000
0100
0100
,
0010
0000
0001
0001
,
0000
1000
0000
1000
,
0000
0001
0000
0001
,
0000
0100
0000
0010
,
1000
1000
1000
0000
,
0000
0100
0100
0100
,
0000
1000
1000
0001
,
0100
0100
0100
0000
,
0010
0010
0010
0000
,
1000
0000
0000
0000
;

//---------------dance-single - ----------------
#NOTES:
     dance-single:
     :
     Easy:
     8:
     :
0000
0000
0000
0000
,
0000
0000
0000
0000
,
0010
0010
0010
1000
,
0100
0100
0100
0000
,
0010
0010
0010
0001
,
0100
0100
0100
0000
,
0001
1000
1100
1100
,
0010
0100
0101
0101
,
1000
0010
1000
0001
,
0000
0010
0001
0100
,
0010
1000
0100
0010
,
0000
0001
1000
0001
,
0010
0001
0100
0010
,
0000
1000
0100
0010
,
0100
1000
0010
0100
,
0000
0001
1000
0001
,
0010
0010
0011
0001
,
0100
0100
0110
0010
,
1000
1000
1010
1000
,
0100
0100
0110
0010
,
0001
0001
0001
0001
,
1000
1000
1000
1000
,
1100
1100
0101
0101
,
1001
0110
1001
0110
,
1000
0000
0010
0000
1000
0000
0001
0100
,
0000
0010
1000
0100
,
0010
0000
0001
0000
1000
0000
0001
0100
,
0000
0010
1000
0001
,
0010
0000
0100
0000
0010
0000
0001
1000
,
0000
0100
1000
0010
,
0100
0000
0010
0000
1000
0000
0001
0010
,
0000
0001
0100
1000
,
1100
0011
0100
0100
,
0101
1010
0010
0010
,
1010
0011
1000
1000
,
1100
0101
0001
0001
,
0010
0001
0101
0101
,
0000
1000
0010
0100
,
0001
1000
1010
1010
,
1000
0100
1000
0001
,
0010
0000
0010
0000
,
0010
0000
0010
0001
,
0010
0000
0010
0000
,
0010
0000
0010
0100
,
0010
0000
0010
0000
,
0010
0000
0010
1000
,
0010
0000
0010
0000
,
1000
0001
1000
0100
,
0010
0010
0010
0010
,
0001
0001
0001
0001
,
0100
0100
0100
0100
,
1000
1000
1000
1000
,
1001
1001
1001
1001
,
0110
0110
0110
0110
,
1001
1001
0110
0110
,
1001
0110
1001
0110
,
1000
0001
0100
0010
,
1000
0100
0001
0010
,
0100
1000
0001
0011
,
0100
0001
1000
1010
,
0100
0010
0011
1100
,
0010
0100
0101
1010
,
0001
1000
1100
1100
,
0010
0100
0101
0101
,
0010
0001
1000
0200
,
0310
0100
1000
0001
,
0010
0001
1000
0020
,
1030
0001
1000
0100
,
0010
0001
0100
2000
,
3001
0010
0001
0100
,
1000
0010
0100
0002
,
0013
0100
1001
1001
,
0000
1000
0100
0001
,
0010
0000
0100
0000
1000
0000
0010
0100
,
0000
0001
1000
0100
,
1100
0101
1010
0011
,
0000
0010
0001
0100
,
1000
0000
0010
0000
1000
0000
0001
0100
,
0001
1000
1100
1100
,
0010
0100
0101
0101
,
0010
0000
0000
0000
;

//---------------dance-single - ----------------
#NOTES:
     dance-single:
     :
     Medium:
     11:
     :
0000
0000
0000
0000
,
0000
0000
0000
0000
,
0010
0000
0000
0010
0000
0000
0001
0000
0000
1000
0000
0000
0000
0000
0000
0000
,
0010
0000
0000
0010
0000
0000
1000
0000
0000
0001
0000
0000
0000
0000
0000
0000
,
0100
0000
0001
1000
0001
0000
0010
0100
,
1000
0000
0010
1000
0001
0000
0100
0010
,
1000
0001
1000
0001
0200
0000
0320
0000
,
1030
0001
1000
0001
0020
0000
0230
0000
,
1300
0000
0001
0000
1000
0000
0010
0100
,
0000
0001
1000
0000
0010
0000
1000
0100
,
1000
0000
0010
0000
0100
0000
0001
1000
,
0000
0001
0010
0000
0100
0000
1000
0010
,
1000
0000
0001
0000
0010
0000
0001
0100
,
0000
0010
1000
0000
0100
0000
1000
0001
,
0010
0000
0001
0000
0100
0000
0010
1000
,
0000
0100
0010
0000
0001
0100
0001
1000
,
0010
0000
1000
0100
1000
0000
0001
0100
,
0010
0000
1000
0001
1000
0000
0100
0010
,
0001
0000
0010
0001
0100
0000
0001
0010
,
0001
0000
1000
0001
0100
0000
0010
1000
,
0001
0011
0110
1100
,
1010
1001
0101
0011
,
1100
0101
1010
0101
,
1001
0000
0110
0000
1001
0000
1000
0001
,
0100
0000
0010
0000
1000
0100
1000
0001
,
0000
0010
0001
0100
0001
0000
1000
0010
,
1000
0000
0100
0000
1000
0010
0100
0001
,
0000
0010
0100
1000
0001
0000
1000
0010
,
0100
0000
0001
0000
1000
0010
1000
0100
,
0000
0010
0001
1000
0010
0000
1000
0100
,
0010
0000
0100
0000
1000
0001
0010
0001
,
0000
0100
0001
0010
0100
0000
1000
0010
,
0100
0001
1000
0000
1100
0000
0101
0000
,
0001
0010
1000
0000
1000
0100
0001
0000
,
0010
0001
0100
0000
1010
0000
0011
0000
,
1000
0001
0100
0010
0000
1000
0100
0000
,
0020
0000
0000
0000
0230
0000
0000
0000
1300
0000
0000
0001
0000
0000
1000
0000
,
0000
0000
0010
0000
0100
0000
0000
0000
0001
0000
0000
0010
0000
0000
0100
0000
,
2000
0000
0000
0000
3020
0000
0000
0000
1030
0000
0000
0001
0000
0000
0100
0000
,
0002
0023
0230
2300
,
3010
0000
0010
0000
,
0010
0000
0000
0000
0010
0000
1000
0001
,
0010
0000
0010
0000
,
0010
0000
0000
0000
0010
0000
0001
1000
,
0010
0000
0010
0000
,
0010
0000
0000
0000
0010
0000
0100
0001
,
0010
0000
0010
0000
,
0001
0000
0100
0001
0010
0000
1000
0100
,
1000
1001
1010
1100
,
0001
0011
0101
1001
,
0010
0110
0101
0011
,
0100
0110
1010
1100
,
0002
1000
0010
0103
,
2000
0010
0100
3001
,
0020
1000
0100
0031
,
0200
0010
1000
0301
,
0010
0001
1000
0000
2100
0000
3020
0000
,
0130
0001
1000
0000
0201
0000
0320
0000
,
1030
0100
1000
0000
0001
0100
0001
0000
,
1000
0010
1000
0000
0001
0010
0001
0000
,
1000
0100
1000
0000
1001
0000
0110
0000
,
0001
0100
0001
0000
1001
0000
0110
0000
,
0001
1000
0001
0010
0200
0000
2300
0000
,
3010
1000
0010
0100
0002
0000
2003
0000
,
3010
0000
0000
1000
0000
0000
0001
0000
0010
0000
0100
0000
2000
0000
0000
0000
,
3010
0000
0000
0100
0000
0000
0001
0000
0010
0000
0001
0000
1000
0000
0000
0000
,
0100
0000
0000
0010
0000
0000
0100
0000
1000
0000
0001
0000
0020
0000
0000
0000
,
0031
0100
0001
0010
0001
1000
0100
0000
,
1000
0000
0000
0001
0000
0000
0010
0000
0001
0000
0100
0000
2000
0000
0000
0000
,
3010
0000
0000
1000
0000
0000
0100
0000
1000
0000
0010
0000
0002
0000
0000
0000
,
0013
0000
0000
0001
0000
0000
0100
0000
0010
0000
1000
0000
0002
0000
0000
0000
,
0013
0001
0010
0100
2000
0000
3010
0000
,
1000
0001
0000
0001
0000
1000
0000
1000
,
0000
0010
0000
1000
0000
0100
0010
0001
,
0000
0100
0000
0001
0000
0010
0000
0100
,
1000
1000
1100
0101
,
0010
0001
0000
0100
0000
0001
0000
0100
,
0000
0010
0000
1000
0000
0100
1000
0001
,
0010
0001
1000
0001
0200
0000
0320
0000
,
1030
0001
0010
0100
1000
0000
1001
0000
,
0110
0000
0000
0000
;

//---------------dance-single - ----------------
#NOTES:
     dance-single:
     :
     Hard:
     13:
     :
0000
0000
0000
0000
,
0000
0000
0000
0000
,
0010
0000
0000
0010
0000
0000
0010
0000
0000
0001
1000
0000
0001
0000
0100
0000
,
0010
0000
0000
0010
0000
0000
1000
0000
0000
0001
0000
0000
0000
0000
0000
0000
,
1000
0000
0000
0010
0000
0000
0100
0000
0001
0000
0000
0010
0000
0000
0100
0000
,
1000
0000
0000
0001
0000
0000
1000
0000
0010
0000
0000
0100
0000
0000
0001
0000
,
1000
0100
0001
0100
2000
0010
3020
0000
,
0130
1000
0100
0001
0200
0010
0320
0000
,
1030
0000
0001
1000
0100
0000
0010
0001
,
0000
0100
0100
0010
0100
0000
0001
1000
,
0100
0000
0010
0001
1000
0000
0100
0010
,
0000
0001
0001
1000
0001
0000
0010
0100
,
1000
0000
0010
1000
0100
0010
0001
0100
,
0000
0010
0010
1000
0010
0000
1000
0100
,
0001
0000
0010
0001
1000
0010
1000
0100
,
0000
1000
1000
0001
1000
0010
0100
0001
,
0010
0001
0100
0010
1010
0000
1000
0001
,
0010
1000
0010
0001
0011
0000
0100
0010
,
1000
0100
1000
0001
0101
0000
0010
0001
,
0100
0010
1000
0100
1100
0000
0001
1000
,
0010
0000
0000
1000
0100
0000
0000
1000
0100
0000
0000
1000
0100
0000
0000
1000
,
0100
0000
0000
0010
0001
0000
0000
0010
0001
0000
0000
0010
0001
0000
0000
0010
,
0001
0011
0101
1001
,
1010
0000
1100
0000
0110
0000
0001
1000
,
0100
0000
0010
0001
0010
0000
0100
0000
1000
0000
0010
0000
1000
0000
0002
0000
,
0000
0000
0103
0010
0100
0000
1000
0000
0100
0000
0001
0000
0010
0000
0100
0000
,
0001
0000
0100
1000
0100
0000
0010
0000
0001
0000
1000
0000
0001
0000
0200
0000
,
0000
0000
0310
1000
0010
0000
0100
0000
1000
0000
0100
0000
0001
0000
1000
0000
,
0001
0000
0010
0100
0010
0000
1000
0000
0010
0000
0100
0000
1000
0000
0002
0000
,
0000
0000
1003
0100
1000
0000
0010
0000
0100
0000
1000
0000
0100
0000
0001
0000
,
0010
0000
0100
1000
0100
0000
0001
0000
0100
0000
0010
0000
0100
0000
2000
0000
,
0000
0000
3001
1000
0001
0000
0100
0000
0010
0000
0001
0000
0010
0000
1000
0000
,
0100
0000
0100
0000
1100
0000
0000
0000
0001
0100
0000
0001
0100
0000
0010
0000
,
1000
0000
1000
0000
1010
0000
0000
0000
0100
1000
0000
0001
0100
0000
0000
0000
,
0001
0000
0001
0000
0011
0000
0000
0000
1000
0010
0000
1000
0010
0000
0100
0000
,
0001
0000
0001
0000
1000
0000
0001
0000
0000
0100
0000
0100
0010
0000
0000
0000
,
1001
0000
0000
1000
0100
0000
0000
0010
0002
0000
0000
2003
0000
0000
3001
0000
,
0000
0000
0110
0000
0110
0000
0000
0000
1000
0000
0010
0100
0000
0010
0100
0000
,
0001
0000
0000
0000
0010
0000
0001
0000
2000
0000
0000
3200
0000
0000
0310
0000
,
0001
0000
0000
0001
1000
0000
0000
1000
0001
0000
0000
0001
1000
0000
0000
1000
,
0010
0000
0010
0000
,
0010
0000
0000
0000
0000
0000
0000
0000
0010
0000
0000
0000
1000
0001
1000
0001
,
1000
0000
0010
0000
,
0010
0000
0000
0000
0000
0000
0000
0000
0010
0000
0000
0000
0100
0001
0100
0001
,
0100
0000
0010
0000
,
0010
0000
0000
0000
0000
0000
0000
0000
0010
0000
0000
0000
1000
0100
1000
0100
,
1000
0000
0010
0000
,
0100
0000
0001
0000
0010
0000
0001
0000
1000
0010
1000
0010
1000
0000
0100
0000
,
0010
0001
0100
0000
0101
0000
1100
0000
,
1000
0010
0001
0000
1010
0000
0011
0000
,
0100
0001
1000
0000
0110
0000
1001
0000
,
0010
0000
1000
0000
0001
0000
0000
0000
0010
0000
0000
0000
0001
0100
0001
0100
,
0001
1000
0010
0000
1000
0100
0001
0000
,
0010
0000
0001
0000
0100
0000
0000
0000
1000
0000
0000
0000
0010
0100
0010
0100
,
0010
1000
0001
0000
1100
0000
0011
0000
,
0100
0000
0000
0100
0001
0000
0000
0001
1000
0000
0000
1000
0010
0000
0000
0010
,
0100
1000
0100
0001
0200
0000
0320
0000
,
0031
0010
1000
0010
0200
0000
0320
0000
,
1030
0100
0001
0100
1000
0001
0100
0000
,
0010
1000
0010
0100
0010
0001
0010
0000
,
0010
1000
0100
0001
0100
0010
0100
0000
,
1000
0010
0001
0010
0100
1000
0100
0000
,
0001
0010
0100
1000
1010
0000
0101
0000
,
1000
0100
0010
0001
1001
0000
0110
0000
,
1000
0000
0010
0000
1000
0000
0010
0000
0100
0001
0100
0001
0200
0000
0000
0000
,
0310
0000
1000
0001
0000
1000
0001
0000
0010
0000
0001
0000
0100
0000
0010
1000
,
0010
0000
0100
0000
0001
0000
0010
0000
0100
1000
0100
1000
0200
0000
0000
0000
,
0310
0000
0001
1000
0000
0001
1000
0000
0010
0000
0100
0000
0001
0000
1000
0000
,
0100
0000
0001
0000
0100
0000
0010
0000
0001
1000
0001
1000
0002
0000
0000
0000
,
0103
0000
0010
1000
0000
0010
1000
0000
0100
0000
0010
0000
0001
0000
1000
0001
,
1000
0000
0010
0000
0100
0000
0010
0000
1000
0001
1000
0001
2000
0000
0000
0000
,
3100
0010
0001
1000
1100
0000
0101
0000
,
1000
0000
0010
0000
0000
0100
0000
0000
0010
0000
0000
1000
0000
0000
0001
0000
,
0000
0100
0000
0000
0001
0000
0000
1000
0000
0000
0100
0000
0010
0000
0010
0000
,
0001
0000
1000
0000
0000
0010
0000
0000
1000
0000
0000
0001
0000
0000
0100
0000
,
0010
1000
0010
1000
0002
0100
0203
0000
,
0310
0000
2010
0000
0000
3002
0000
0000
0203
0000
0000
0320
0000
0000
2030
0000
,
0000
3002
0000
0000
2003
0000
0000
3200
0000
0000
0310
0000
0001
0000
0001
0000
,
0100
1000
0100
0010
0200
0001
0302
0000
,
1003
0001
0100
0010
0110
0000
1001
0000
,
0101
0000
0000
0000
;
