#TITLE:Crash;
#SUBTITLE:;
#ARTIST:RAM;
#TITLETRANSLIT:;
#SUBTITLETRANSLIT:;
#ARTISTTRANSLIT:;
#GENRE:;
#CREDIT:;
#BANNER:Crash-bn.png;
#BACKGROUND:Crash-bg.png;
#LYRICSPATH:;
#CDTITLE:;
#MUSIC:Crash.ogg;
#OFFSET:0.125000;
#SAMPLESTART:60.798000;
#SAMPLELENGTH:20.000000;
#SELECTABLE:YES;
#DISPLAYBPM:130.000000;
#BPMS:0.000000=130.000000
;
#STOPS:
;
#BGCHANGES:;
#KEYSOUNDS:;
#ATTACKS:;

//---------------dance-single - ----------------
#NOTES:
     dance-single:
     :
     Hard:
     12:
     0.528526,0.538510,0.164430,0.189095,0.258978,450.000000,430.000000,20.000000,23.000000,0.000000,0.000000,0.528526,0.538510,0.164430,0.189095,0.258978,450.000000,430.000000,20.000000,23.000000,0.000000,0.000000:
0000
0000
0000
0000
,
0000
0000
0000
0000
,
0000
0000
0000
0000
,
0000
0000
0000
0000
,
0000
0000
0000
0000
,
2001
0000
0000
0001
0000
0000
0100
0000
0000
0010
0000
0010
0000
0000
3100
0000
,
0002
0000
0000
0010
0000
0000
1000
0000
0000
0100
0000
0100
0000
0000
0013
0000
,
0200
0000
0000
0001
0000
0000
1000
0000
0000
0010
0000
0010
0000
0000
0301
0000
,
0220
0000
0000
0330
,
1010
0000
0000
1000
0100
0000
0010
0000
0001
0000
0100
0000
0010
0000
0100
0000
,
1000
0100
0001
0010
0100
0001
0100
1000
,
0001
0000
0000
0100
0010
0000
1000
0000
0100
0000
0001
0000
0100
0000
0010
0000
,
0001
0100
0010
0001
0010
1000
0100
0010
,
0100
0000
0000
0010
0001
0000
0100
0000
0010
0000
1000
0000
0001
0000
1000
0000
,
0100
0010
0100
0001
0100
0010
0001
1000
,
0010
0000
0000
0010
1000
0000
0001
0000
1000
0000
0100
0000
0010
0000
0001
0000
,
0200
0000
0000
0010
0000
0000
1000
0000
0000
0001
0000
0000
0301
0000
0000
1000
,
0010
0000
0000
1000
0100
0000
1100
0000
0000
0001
0010
0000
0001
0000
0100
0000
,
0010
0000
0000
1000
0001
0000
0011
0000
0000
0010
0100
0000
1000
0000
0001
0000
,
0100
0000
0000
0001
0010
0000
0110
0000
0000
0001
1000
0000
0100
0000
1000
0000
,
0010
1000
0100
0001
0100
0010
0020
0000
,
0031
0000
0000
1000
0100
0000
1100
0000
0000
0010
1000
0000
0001
0000
0100
0000
,
0010
0000
0000
1000
0001
0000
0101
0000
0000
0100
0001
0000
0010
0000
0100
0000
,
1000
0000
0000
0010
0100
0000
1010
0000
0000
0001
0010
0000
0100
0000
1000
0000
,
0001
0000
0001
0000
1000
0000
1000
0000
0010
0100
0000
0010
0100
0000
0001
0000
,
1002
0000
0000
1000
0000
0000
1000
0000
0000
0000
0100
0000
0103
0000
0000
0000
,
2000
0000
0000
0010
0000
0000
0010
0000
0000
0000
0001
0000
3001
0000
0000
0000
,
0020
0000
0000
0100
0000
0000
0100
0000
0000
0000
1000
0000
1030
0000
0000
0000
,
0200
0000
0000
1000
0000
0000
1000
0000
0000
0000
0001
0000
0301
0000
0000
0000
,
0101
0000
0000
1000
0000
0000
0001
0000
0010
0000
0000
0100
0000
0000
1000
0000
,
0001
0000
0000
0100
0000
0000
0010
0000
1000
0000
0000
0001
0000
0000
0010
0000
,
0001
0000
0000
0100
0000
0000
0010
0000
1000
0000
0000
0100
0000
0000
0001
0000
,
0022
0000
0000
0000
0003
0001
0001
0031
,
0101
0000
0000
1000
0001
0000
0010
0000
0100
0000
1000
0000
0010
0000
0001
0000
,
0010
0100
0010
1000
0100
0010
0001
1000
,
0010
0000
0000
1000
0001
0000
0010
0000
1000
0000
0010
0000
0100
0000
1000
0000
,
0001
0100
0010
0001
0010
0100
0001
1000
,
0100
0000
0000
0001
0100
0000
0010
0000
0001
0000
1000
0000
0010
0000
1000
0000
,
0100
0001
0100
0010
0100
1000
0010
0001
,
0010
0000
0000
1000
0001
0000
0010
0000
1000
0000
0010
0000
0001
0000
0100
0000
,
0010
0001
0010
1000
0100
0010
0001
1000
,
1001
0000
0000
0010
1000
0000
0100
0000
0010
0000
0001
0000
1000
0000
0001
0000
,
0100
1000
0100
0010
1000
0001
0100
0010
,
1000
0000
0000
0001
0010
0000
0100
0000
0001
0000
0100
0000
1000
0000
0010
0000
,
0100
1000
0100
0010
0100
0001
1000
0100
,
0010
0000
0000
0001
1000
0000
0010
0000
0100
0000
1000
0000
0100
0000
0001
0000
,
0010
0100
0010
1000
0010
0100
0010
0001
,
0100
0000
0000
0010
1000
0000
0001
0000
0010
0000
1000
0000
0010
0000
0002
0000
,
0200
0000
0000
0303
,
1000
0000
0000
0001
0100
0000
0110
0000
0000
0010
1000
0000
0001
0000
0100
0000
,
0010
0000
0000
0100
0001
0000
0011
0000
0000
0010
0100
0000
1000
0000
0001
0000
,
0100
0000
0000
0001
0010
0000
1100
0000
0000
1000
0001
0000
1000
0000
0010
0000
,
0100
0001
0010
0100
1000
0001
0002
0000
,
0103
0000
0000
0001
0010
0000
1001
0000
0000
0100
0010
0000
1000
0000
0001
0000
,
1000
0000
0000
0001
0100
0000
1010
0000
0000
0010
1000
0000
0100
0000
0010
0000
,
0001
0000
0000
0010
0100
0000
0011
0000
0000
0001
1000
0000
0010
0000
0100
0000
,
0001
0000
0001
0000
1000
0000
1000
0000
0010
0100
0000
0010
0100
0000
0001
0000
,
0020
0000
0031
1000
0010
1000
0100
0010
,
0001
0100
0010
0100
0010
1000
0001
0100
,
0020
0000
1030
0001
0200
0000
0310
1000
,
0100
0010
0001
1000
0001
0100
0010
1000
,
0002
0000
0013
0100
1000
0010
1000
0002
,
0000
0013
0100
1000
0000
1000
0001
0100
,
0000
0010
1000
0001
1000
0100
0001
0100
,
0010
0000
0001
0000
1000
0000
0020
0000
0000
0000
0100
0000
0130
0000
0001
1000
,
0002
0000
0003
0000
;

//---------------dance-single - ----------------
#NOTES:
     dance-single:
     :
     Medium:
     9:
     0.337082,0.403882,0.082215,0.476848,0.086326,287.000000,277.000000,10.000000,58.000000,0.000000,0.000000,0.337082,0.403882,0.082215,0.476848,0.086326,287.000000,277.000000,10.000000,58.000000,0.000000,0.000000:
0000
0000
0000
0000
,
0000
0000
0000
0000
,
0000
0000
0000
0000
,
0000
0000
0000
0000
,
0000
0000
0000
0000
,
1001
0001
0010
0100
,
1000
0001
0010
0100
,
1000
0010
1000
0001
,
0220
0000
0000
0330
,
0001
0000
0000
1000
0000
0000
0001
0000
0000
0000
0100
0000
0000
0000
0010
0000
,
0000
1000
0000
0002
0000
0000
0003
0000
,
0010
0000
0000
0100
0000
0000
1000
0000
0000
0000
0010
0000
0000
0000
1000
0000
,
0000
0001
0000
0200
0000
0000
0300
0000
,
0010
0000
0000
1000
0000
0000
0001
0000
0000
0000
0010
0001
0000
0000
0100
0000
,
0000
0010
0000
2000
0000
0000
3000
0000
,
0100
0000
0000
1000
0000
0000
0001
0000
0000
0000
0010
0000
0000
0000
0001
0000
,
0100
0000
0000
0100
0000
0000
0100
0000
0000
0100
0000
0000
0100
0000
0000
0000
,
0001
0000
0100
0000
0010
1000
0001
0000
,
1000
0000
0100
0000
1000
0001
0010
0000
,
0001
0000
0100
0000
0001
0010
1000
0000
,
0100
0000
0010
0000
0001
0100
1000
0000
,
0010
0000
1000
0000
0100
0001
1000
0000
,
0010
0000
0100
0000
0010
1000
0001
0000
,
0010
0000
0001
0000
1000
0100
0001
0000
,
1000
1000
0001
0001
0100
0000
0110
0000
,
1001
0001
0100
0010
,
1000
0001
0010
0100
,
1000
0010
0100
0001
,
0010
0100
1000
0001
,
0101
1000
0010
0100
,
0001
0010
0001
0100
,
1000
0010
1000
0001
,
2200
0000
0000
3300
,
0001
0000
0000
0010
0000
0000
0001
0000
0000
0000
0100
0000
0000
0000
1000
0000
,
0000
0001
0000
2000
0000
0100
3100
0000
,
0010
0000
0000
0001
0000
0000
0010
0000
0000
0000
0100
0000
0000
0000
1000
0000
,
0000
0010
0000
2000
0000
0001
3001
0000
,
0100
0000
0000
0001
0000
0000
1000
0000
0000
0000
0010
1000
0000
0000
0001
0000
,
0000
0010
0000
0200
0000
1000
1300
0000
,
0010
0000
0000
1000
0000
0000
0001
0000
0000
0000
0010
0000
0000
0000
0100
0000
,
0000
1000
0000
0002
0000
0100
0103
0000
,
0020
0000
0000
2030
0000
0000
3002
0000
0000
0000
0023
0000
0000
0000
0230
0000
,
0000
0302
0000
0203
0000
1000
1300
0000
,
2000
0000
0000
3020
0000
0000
0230
0000
0000
0000
2300
0000
0000
0000
3200
0000
,
0000
0302
0000
0023
0000
0100
0130
0000
,
0020
0000
0000
0230
0000
0000
2300
0000
0000
0000
3001
1000
0000
0000
0020
0000
,
0000
0230
0000
0302
0000
1000
1003
0000
,
0020
0000
0000
2030
0000
0000
3200
0000
0000
0000
0320
0000
0000
0000
0032
0000
,
0100
0000
0000
0100
0000
0000
0100
0000
0000
0100
0000
0000
0103
0000
0000
0000
,
0101
0000
1000
0000
0100
0010
0001
0000
,
0100
0000
0010
0000
1000
0100
0001
0000
,
0010
0000
0001
0000
0100
0001
1000
0000
,
0010
0000
0000
0010
0000
0000
1000
0000
0000
0001
0000
0000
1000
0000
0000
0000
,
1100
0000
0001
0010
0001
1000
0100
0000
,
0010
0000
0100
1000
0001
1000
0010
0000
,
0100
0000
0010
0100
0001
1000
0001
0000
,
1000
1000
0001
0001
0100
0000
0110
0000
,
2001
0000
0100
3200
0000
2300
0000
3020
,
0000
0230
0000
0302
0000
0023
0000
0031
,
2000
0000
3001
0200
0002
0000
0003
0000
,
0310
1000
0010
2000
0000
3002
0000
1003
,
0200
0000
0010
0320
0000
0230
0000
0320
,
0000
0031
0100
2000
0000
3010
0200
0002
,
0300
0000
0013
0100
1000
0010
1000
0002
,
0000
1003
0001
0200
0000
0010
0310
1000
,
0002
0000
0003
0000
;

//---------------dance-single - ----------------
#NOTES:
     dance-single:
     :
     Easy:
     7:
     0.260740,0.296180,0.115101,0.073994,0.000000,222.000000,208.000000,14.000000,9.000000,0.000000,0.000000,0.260740,0.296180,0.115101,0.073994,0.000000,222.000000,208.000000,14.000000,9.000000,0.000000,0.000000:
0000
0000
0000
0000
,
0000
0000
0000
0000
,
0000
0000
0000
0000
,
0000
0000
0000
0000
,
0000
0000
0000
0000
,
1001
0000
0010
0000
,
1000
0000
0001
0000
,
1000
0000
0100
0000
,
0220
0000
0000
0330
,
0001
0100
0010
0100
,
0001
0010
0100
1000
,
0100
0001
0010
0100
,
1000
0010
1000
0100
,
1000
0001
0010
0100
,
1000
0010
1000
0001
,
0010
0100
0010
0001
,
0100
0100
0100
0110
,
1001
0010
0100
0000
,
0001
0010
1000
0000
,
0100
0010
0001
0100
,
1000
1000
0001
0100
,
0000
0020
0000
1030
,
0001
0001
0001
0000
,
0100
0010
1000
0001
,
0010
0010
0010
0110
,
1001
0000
0100
0000
,
0001
0000
0010
0000
,
0001
0000
0100
0000
,
1000
0000
0010
0000
,
1000
1000
1000
1000
,
0001
0001
0001
0001
,
0100
0100
0010
0010
,
2002
0000
0000
3003
,
0010
1000
0100
0001
,
0010
0001
0100
0010
,
0001
0100
1000
0010
,
1000
0100
0001
1000
,
0010
1000
0001
0010
,
0001
0100
0010
1000
,
0100
0010
0001
0100
,
1000
1000
1000
0110
,
0010
0100
0010
1000
,
0100
0010
0001
0001
,
0010
0001
0100
0010
,
1000
0001
1000
0100
,
0010
1000
0010
0100
,
1000
0001
0010
0001
,
0100
0010
1000
0001
,
0010
0010
0010
0110
,
1001
0010
1000
0000
,
0100
0010
0001
0000
,
1000
1000
0010
0000
,
0001
0100
0001
0010
,
1000
1000
1000
0000
,
0100
0010
0100
0000
,
1000
0001
0010
0000
,
0001
0100
0010
0110
,
1001
0001
0100
0100
,
0010
0010
1000
0001
,
0010
0100
2000
0000
,
0001
0001
0100
3100
,
0010
0001
1000
1000
,
0001
0100
1000
0002
,
0000
0010
1000
0103
,
1000
0010
0100
0110
,
2002
0000
3003
0000
;

//---------------dance-single - ----------------
#NOTES:
     dance-single:
     :
     Beginner:
     3:
     0.146813,0.187040,0.082215,0.000000,0.000000,125.000000,115.000000,10.000000,0.000000,0.000000,0.000000,0.146813,0.187040,0.082215,0.000000,0.000000,125.000000,115.000000,10.000000,0.000000,0.000000,0.000000:
// measure 0
0000
0000
0000
0000
,  // measure 1
0000
0000
0000
0000
,  // measure 2
0000
0000
0000
0000
,  // measure 3
0000
0000
0000
0000
,  // measure 4
0000
0000
0000
0000
,  // measure 5
1001
0000
0000
0000
,  // measure 6
0000
0000
0000
0000
,  // measure 7
0100
0000
0100
0000
,  // measure 8
0110
0000
0000
0000
,  // measure 9
0010
0000
1000
0000
,  // measure 10
0001
0000
0001
0000
,  // measure 11
0010
0000
0100
0000
,  // measure 12
1000
0000
1000
0000
,  // measure 13
0010
0000
0100
0000
,  // measure 14
0010
0000
1000
0000
,  // measure 15
0001
0000
0100
0000
,  // measure 16
1000
0000
0000
0000
,  // measure 17
0010
0000
1000
0000
,  // measure 18
0100
0000
1000
0000
,  // measure 19
0001
0000
0010
0000
,  // measure 20
0001
0000
0100
0000
,  // measure 21
0000
1001
0000
0000
,  // measure 22
0010
0010
0010
0000
,  // measure 23
0000
0000
1000
0000
,  // measure 24
0100
0100
0100
0000
,  // measure 25
0110
0000
0000
0000
,  // measure 26
0001
0000
0000
0000
,  // measure 27
1000
1000
1000
0000
,  // measure 28
0010
0000
0100
0000
,  // measure 29
0001
0000
0001
0000
,  // measure 30
0010
0000
0010
0000
,  // measure 31
0001
0000
0100
0000
,  // measure 32
1001
0000
0000
0000
,  // measure 33
0010
0000
1000
0000
,  // measure 34
0001
0000
0010
0000
,  // measure 35
0001
0000
0100
0000
,  // measure 36
0010
0000
1000
0000
,  // measure 37
0100
0000
0010
0000
,  // measure 38
0001
0000
0100
0000
,  // measure 39
1000
0000
0010
0000
,  // measure 40
0110
0000
0000
0000
,  // measure 41
0001
0000
0100
0000
,  // measure 42
0010
0010
0010
0000
,  // measure 43
1000
0000
0001
0000
,  // measure 44
0100
0100
0100
0000
,  // measure 45
0010
0000
0100
0000
,  // measure 46
0001
0001
0001
0000
,  // measure 47
0010
0000
0100
0000
,  // measure 48
1000
1000
1000
0000
,  // measure 49
0110
0000
0000
0000
,  // measure 50
0001
0000
0001
0000
,  // measure 51
0100
0000
0010
0000
,  // measure 52
1000
0000
1000
0000
,  // measure 53
1001
0000
0000
0000
,  // measure 54
0010
0000
0100
0000
,  // measure 55
0010
0000
1000
0000
,  // measure 56
0001
0000
0000
0000
,  // measure 57
0010
0000
0100
0000
,  // measure 58
1000
0000
0001
0000
,  // measure 59
0100
0000
0110
0000
,  // measure 60
0001
0001
0001
0000
,  // measure 61
0010
0000
0001
0000
,  // measure 62
0100
0000
1000
0000
,  // measure 63
0000
0000
0010
0000
,  // measure 64
1000
1000
1000
0000
,  // measure 65
1001
0000
0000
0000
;
