#TITLE:Confide in Me;
#SUBTITLE:;
#ARTIST:Kylie Minogue;
#TITLETRANSLIT:;
#SUBTITLETRANSLIT:;
#ARTISTTRANSLIT:;
#GENRE:;
#CREDIT:;
#BANNER:Confide in Me-bn.png;
#BACKGROUND:Confide in Me-bg.png;
#LYRICSPATH:;
#CDTITLE:;
#MUSIC:Confide in Me.ogg;
#OFFSET:-0.012500;
#SAMPLESTART:37.345001;
#SAMPLELENGTH:20.000000;
#SELECTABLE:YES;
#DISPLAYBPM:103.000000;
#BPMS:0.000000=102.860001
;
#STOPS:
;
#BGCHANGES:;
#KEYSOUNDS:;
#ATTACKS:;

//---------------dance-single - ----------------
#NOTES:
     dance-single:
     :
     Hard:
     14:
     0.582730,0.601051,0.214256,0.428513,0.634528,495.000000,469.000000,26.000000,52.000000,0.000000,0.000000,0.582730,0.601051,0.214256,0.428513,0.634528,495.000000,469.000000,26.000000,52.000000,0.000000,0.000000:
// measure 0
0000
0000
0000
0000
,  // measure 1
0000
0000
0000
0000
,  // measure 2
0000
0000
0000
0000
,  // measure 3
0001
0010
0001
0010
0100
1000
0100
1000
0010
0100
0010
0100
0001
1000
0001
1000
,  // measure 4
0100
0000
1000
0001
1000
0000
0010
0000
0100
0001
0100
0001
0020
0000
0000
0000
,  // measure 5
0031
0000
1000
0010
1000
0000
0100
0000
0010
0001
0010
0001
0100
0000
1001
0000
,  // measure 6
0010
0000
0100
0001
0100
0000
0010
0000
1000
0001
1000
0001
2000
0000
0000
0000
,  // measure 7
3100
0010
0100
0010
0001
0100
0001
0100
0010
1000
0010
1000
0001
1000
0001
1000
,  // measure 8
0010
0000
0000
0000
0101
0000
1000
0100
0000
0100
0010
0000
0001
0000
1000
0000
,  // measure 9
0010
0000
0100
0001
0100
0000
0000
0010
1000
0001
1000
0001
1000
0000
0100
0000
,  // measure 10
0110
0000
0001
1000
0001
0000
0000
0010
0100
1000
0100
1000
0100
0000
0010
0000
,  // measure 11
0001
0000
0100
0010
0100
0000
0000
0010
1000
0001
1000
0001
2000
0000
0010
0000
,  // measure 12
3010
0000
0100
0000
0001
0010
0000
0001
0000
1000
0010
0000
0100
0001
1000
0000
,  // measure 13
0100
0000
0010
0001
0010
0000
0000
0001
1000
0100
1000
0100
1000
0000
0001
0000
,  // measure 14
1010
0000
1010
0000
0100
0000
0000
0001
0010
0001
0010
0100
1000
0000
1000
0000
,  // measure 15
0100
0000
1000
0001
1000
0000
0000
0010
0100
0001
0100
0010
1000
0001
0010
0100
,  // measure 16
1000
0000
0010
0100
0001
0000
1000
0000
0000
0000
0102
0000
1000
0000
0103
0000
,  // measure 17
0020
1000
2030
0001
3002
0100
0203
0010
,  // measure 18
0310
0000
1000
0001
0010
0000
0100
0000
0000
0000
2100
0000
0010
0000
3100
0000
,  // measure 19
2000
0000
3001
0100
0001
0000
0010
0000
1001
0000
0100
0000
0010
0000
1000
0000
,  // measure 20
0100
0000
1000
0010
0100
0000
0001
0000
0000
0000
0021
0000
1000
0000
0031
0000
,  // measure 21
2000
0100
3200
0010
0320
0001
0032
1000
,  // measure 22
0103
0000
0010
1000
0001
0000
0010
0000
0000
0000
1200
0000
0001
0000
1300
0000
,  // measure 23
0010
0100
0010
0100
0001
1000
0001
1000
0100
0010
0100
0010
0001
1000
0001
1000
,  // measure 24
0010
0000
1000
0001
0100
0000
0010
0000
1000
0100
1000
0001
0200
0000
0000
0000
,  // measure 25
0310
0000
0100
0001
0010
0000
0100
0000
1000
0010
1000
0001
0200
0000
0000
0000
,  // measure 26
0310
0000
1000
0100
0010
0000
0001
0000
0100
0001
1000
0010
0200
0000
0001
0000
,  // measure 27
0301
0000
0010
0100
1000
0000
0010
0000
1000
0001
1000
0100
0010
0001
0100
0000
,  // measure 28
0001
0000
1000
0010
1000
0000
0100
0010
0001
0100
0001
0100
0020
0000
1000
0000
,  // measure 29
0031
0000
0010
1000
0001
0000
1000
0100
0010
0100
0010
0100
2000
0000
0001
0000
,  // measure 30
3001
0000
0010
0100
1000
0000
0010
1000
0100
0001
0100
0010
0200
0000
0000
0000
,  // measure 31
1300
0001
1000
0001
0010
1000
0010
1000
0010
0100
0010
0100
0001
0100
0001
0100
,  // measure 32
1000
0000
0010
0100
0001
0000
2000
3200
0000
0000
0001
0000
0310
0000
0100
0000
,  // measure 33
1000
0001
0000
1000
0020
0000
0100
0000
0230
0000
0000
0302
0000
0000
0000
0023
,  // measure 34
0001
0000
0000
0031
1000
0000
0000
0010
0100
0000
0001
1000
0010
1000
0010
0100
,  // measure 35
0002
0000
0000
0000
0000
0000
0000
0000
0000
0000
0000
0000
1003
0000
0000
0000
0200
0000
0000
0000
2300
0000
0000
0000
3002
0000
0000
0000
0000
0000
0000
0000
0000
0203
0000
0000
0000
0000
0000
0320
0000
0000
0000
0000
0000
0000
0000
0000
,  // measure 36
2030
0001
0000
3001
1000
0000
0000
0010
0100
0001
0100
0010
0200
0000
1000
0000
,  // measure 37
0310
0000
2000
0000
0100
0000
3002
2003
3020
0000
0000
0230
0000
0320
0000
0000
,  // measure 38
2030
0000
0000
0000
0000
0000
0000
0000
0000
3020
0000
0000
0000
0000
0000
0000
0230
0000
0000
0000
0302
0000
0000
0000
0023
0000
0000
0000
0000
0000
0031
0000
0000
1000
0000
0000
0010
0000
0000
0100
0000
0000
0010
0000
0000
2000
0000
0000
,  // measure 39
0000
0000
3002
0000
0000
0000
0010
0000
0013
0001
1000
0200
0000
0000
1300
0000
,  // measure 40
1001
0000
0000
0010
0100
0000
0101
0000
0101
0000
1000
0001
0010
0000
0100
0000
,  // measure 41
1000
0000
0010
1000
0100
0000
0000
0100
0010
0000
0001
0000
0011
0000
0000
0000
,  // measure 42
0110
0000
1000
0001
1000
0000
1010
0000
1010
0000
0010
0000
0100
0001
1000
0000
,  // measure 43
1100
0000
0000
0001
0100
0000
0010
0000
1000
0000
0001
0000
1010
0000
0000
0000
,  // measure 44
1001
0000
0010
0100
0010
0000
1010
0000
1010
0000
0001
1000
0001
0000
0100
0000
,  // measure 45
0010
0000
1000
0100
1000
0000
0000
0001
0100
0000
0010
0000
0110
0000
0000
0000
,  // measure 46
0101
0000
1000
0001
0010
0000
1100
0000
1100
0000
1000
0000
0100
0010
0001
0000
,  // measure 47
0100
0010
0100
0010
1000
0100
1000
0100
1000
0001
1000
0001
0010
0001
0010
0001
,  // measure 48
0200
0000
0310
2000
0000
3001
0000
0000
;

//---------------dance-single - ----------------
#NOTES:
     dance-single:
     :
     Challenge:
     17:
     0.800518,0.701226,0.032963,0.247219,1.347342,680.000000,676.000000,4.000000,30.000000,0.000000,0.000000,0.800518,0.701226,0.032963,0.247219,1.347342,680.000000,676.000000,4.000000,30.000000,0.000000,0.000000:
0000
0000
0000
0000
,
0000
0000
0000
0000
,
0000
0000
0000
0000
,
0001
0000
0010
0000
0100
0000
1000
0000
0010
0000
0100
0000
0001
1000
0001
0000
1000
0000
0010
0000
0100
0000
0001
0000
0010
0000
0100
0000
1000
0000
0001
0000
,
0100
0000
0000
0000
0010
0000
1000
0000
0001
0000
0000
0000
0010
0000
0100
1000
0100
0000
0010
0000
0001
0000
1000
0000
0001
0000
0100
0000
0010
0000
1000
0000
,
0010
0000
0000
0000
1000
0000
0001
0000
0010
0000
0000
0000
0001
0000
1000
0100
1000
0000
0010
0000
0100
0000
0001
0000
0010
0000
0100
0000
2000
0000
3002
0000
,
0103
0000
0000
0000
0001
0000
0010
0000
0100
0000
0000
0000
1000
0000
0010
1000
0010
0000
0100
0000
0001
0000
1000
0000
0001
0000
0010
0000
0001
0000
0100
0000
,
0010
0000
1000
0000
0010
0000
0100
0000
0001
0000
0010
0000
0100
1000
0100
0000
0010
0000
1000
0000
0010
0000
0001
0000
0100
0000
0010
0000
1000
0000
0100
0000
,
0010
0000
0000
0000
0001
0000
1000
0000
0100
0000
0000
0000
0000
0000
1000
0010
1000
0000
0001
0000
0100
0000
0001
0000
0010
0000
0100
0000
1000
0000
0001
0000
,
1000
0000
0000
0000
0100
0000
0010
0000
0001
0000
0000
0000
0000
0000
1000
0001
1000
0000
0100
0000
0010
0000
0001
0000
0100
0000
0010
0000
1000
0000
0001
0000
,
0010
0000
0000
0000
0100
0000
1000
0000
0001
0000
0000
0000
0000
0000
0010
0001
0010
0000
0100
0000
1000
0000
0010
0000
1000
0000
0001
0000
1000
0000
0100
0000
,
0010
0000
0000
0000
0001
0000
0100
0000
0010
0000
0000
0000
0000
0000
1000
0100
1000
0000
0010
0000
0100
0000
0001
0000
1000
0000
0001
0000
1000
0000
0100
0000
,
0010
0000
0000
0000
0001
0000
0100
0000
1000
0000
0000
0000
0000
0000
0001
0100
0001
0000
0010
0000
0100
0000
1000
0000
0100
0000
1000
0000
0001
0000
1000
0000
,
0010
0000
0000
0000
0100
0000
0001
0000
1000
0000
0000
0000
0000
0000
0010
0100
0010
0000
1000
0000
0001
0000
0010
0000
0100
0000
0001
0000
0100
0000
1000
0000
,
0001
0000
0000
0000
0010
0000
0100
0000
1000
0000
0000
0000
0000
0000
0001
1000
0001
0000
0100
0000
0010
0000
1000
0000
0100
0000
0010
0000
0100
0000
0010
0000
,
0001
0000
0000
0000
1000
0000
0100
0000
0010
0000
0000
0000
0001
0000
0100
0010
0100
0000
1000
0000
0100
0000
0001
0000
1000
0000
0010
0000
0100
0000
0001
0000
,
0020
0000
0000
0000
0031
0000
0100
0000
0020
0000
0000
0000
1030
0000
0001
0010
0100
0000
1000
0000
0010
0000
1000
0000
0100
0000
0010
0000
0001
0000
1000
0000
,
0020
0000
0000
0000
1030
0000
0100
0000
0020
0000
0000
0000
0031
0000
0100
0010
1000
0000
0001
0000
1000
0000
0010
0000
0100
0000
0001
0000
0010
0000
0100
0000
,
2000
0000
0000
0000
3001
0000
0100
0000
0020
0000
0000
0000
1030
0000
0010
0100
0001
0000
1000
0000
0100
0000
0010
0000
0001
0000
1000
0000
0001
0000
0100
0000
,
0020
0000
0000
0000
0130
0000
0001
0000
2000
0000
0000
0000
3100
0000
0010
0001
1000
0000
0010
0000
0100
0000
1000
0000
0100
0000
0010
0000
0100
0000
0001
0000
,
2000
0000
0000
0000
3100
0000
0010
0000
0002
0000
0000
0000
1003
0000
0001
1000
0010
0000
0100
0000
0001
0000
0010
0000
1000
0000
0010
0000
0100
0000
1000
0000
,
0002
0000
0000
0000
0013
0000
0001
0000
0200
0000
0000
0000
0310
0000
1000
0001
0100
0000
1000
0000
0100
0000
0010
0000
1000
0000
0001
0000
0010
0000
0001
0000
,
0200
0000
0000
0000
0310
0000
1000
0000
0200
0000
0000
0000
0301
0000
0100
1000
0001
0000
0010
0000
0001
0000
0100
0000
0010
0000
1000
0000
0001
0000
0100
0000
,
0010
0000
1000
0000
0001
0000
1000
0000
0100
0000
0010
0000
0001
0100
0001
0000
0010
0000
1000
0000
0010
0000
0100
0000
0010
0000
0001
0000
1000
0000
0010
0000
,
0100
0000
0000
0000
0010
0000
1000
0000
0002
0000
0000
0000
0103
0000
1000
0010
1000
0000
0001
0000
0010
0000
0001
0000
0100
0000
0010
0000
1000
0000
0001
0000
,
0100
0000
0000
0000
0001
0000
0010
0000
0200
0000
0000
0000
1300
0000
0010
0100
0001
0000
0010
0000
0001
0000
1000
0000
0100
0000
0001
0000
0100
0000
0010
0000
,
0002
0000
0000
0000
1003
0000
0100
0000
0010
0000
0000
0000
0001
0000
0100
0001
1000
0000
0010
0000
0100
0000
0001
0000
1000
0000
0100
0000
0010
0000
0001
0000
,
2000
0000
0000
0000
3001
0000
0100
0000
0010
0000
0000
0000
0100
0000
0001
1000
0100
0000
0010
0000
0001
0000
0100
0000
1000
0000
0100
0000
0001
0000
0010
0000
,
0100
0000
0000
0000
1000
0000
0010
0000
0200
0000
0000
0000
0301
0000
1000
0100
0001
0000
0100
0000
0010
0000
0001
0000
1000
0000
0010
0000
1000
0000
0000
0000
,
0100
0000
0000
0000
1000
0000
0001
0000
0020
0000
0000
0000
0130
0000
0001
0100
1000
0000
0001
0000
0010
0000
0100
0000
1000
0000
0010
0000
0001
0000
0000
0000
,
0200
0000
0000
0000
0310
0000
1000
0000
0002
0000
0000
0000
0013
0000
0001
0100
0010
0000
1000
0000
0100
0000
1000
0000
0010
0000
0100
0000
0001
0000
1000
0000
,
0100
0000
0010
0000
0001
0000
0100
0000
1000
0000
0100
0000
0001
1000
0001
0000
0010
0000
0100
0000
1000
0000
0010
0000
1000
0000
0001
0000
1000
0000
0100
0000
,
0010
0000
0001
0000
1000
0000
0001
0000
0100
0000
0000
0000
0000
0000
0010
1000
0010
0000
0100
0000
0001
0000
1000
0000
0100
0000
1000
0000
0001
0000
0010
0000
,
0100
0000
1000
0000
0010
0000
1000
0000
0100
0000
0000
0000
0010
0000
0001
1000
0001
0000
0100
0000
0010
0000
0100
0000
0001
0000
1000
0000
0100
0000
0010
0000
,
0100
0000
1000
0000
0001
0000
1000
0000
0100
0000
0000
0000
0000
0000
0010
0001
1000
0000
0010
0000
0100
0000
0010
0000
1000
0000
0001
0000
0010
0000
0100
0000
,
1000
0000
0000
0000
0000
0000
0000
0000
0000
0000
0000
0000
0001
0000
0000
0000
0000
0000
0000
0000
0000
0000
0000
0000
0010
0000
0000
0000
0000
0000
0000
0000
0000
0000
0000
0000
0100
0000
0000
0000
0000
0000
0000
0000
0000
0000
0000
0000
1000
0000
0000
0000
0000
0000
0000
0000
0000
0000
0000
0000
0000
0000
0000
0000
0001
0000
0000
0000
0000
0000
0000
0000
0000
0000
0000
0000
0000
0000
0000
0000
1000
0000
0000
0000
0010
0000
0000
0000
0000
0000
0100
0000
0000
0000
0000
0000
0001
0000
0000
0000
0000
0000
0000
0000
0000
0000
0000
0000
0010
0000
0000
0000
0000
0000
0000
0000
0000
0000
0000
0000
0001
0000
0000
0000
0000
0000
0000
0000
0000
0000
0000
0000
1000
0000
0000
0000
0000
0000
0000
0000
0000
0000
0000
0000
0100
0000
0000
0000
0000
0000
0000
0000
0000
0000
0000
0000
0001
0000
0000
0000
0000
0000
0000
0000
0000
0000
0000
0000
0100
0000
0000
0000
0000
0000
0000
0000
0000
0000
0000
0000
1000
0000
0000
0000
0000
0000
0000
0000
0000
0000
0000
0000
,
0010
0000
1000
0000
0001
0000
1000
0000
0100
0000
0000
0000
0010
0000
0001
0100
0001
0000
1000
0000
0010
0000
1000
0000
0100
0000
0010
0000
0001
0000
1000
0000
,
0010
0000
0100
0000
0001
0000
0100
0000
0010
0000
0000
0000
1000
0000
0001
0010
0100
0000
1000
0000
0010
0000
0100
0000
0001
0000
1000
0000
0001
0000
0010
0000
,
0100
0000
0000
0000
0000
0000
0000
0000
0000
0000
0000
0000
1000
0000
0000
0000
0000
0000
0000
0000
0000
0000
0000
0000
0010
0000
0000
0000
0000
0000
0000
0000
0000
0000
0000
0000
1000
0000
0000
0000
0000
0000
0000
0000
0000
0000
0000
0000
0001
0000
0000
0000
0000
0000
0000
0000
0000
0000
0000
0000
0000
0000
0000
0000
0010
0000
0000
0000
0000
0000
0000
0000
0000
0000
0000
0000
0000
0000
0000
0000
0100
0000
0000
0000
1000
0000
0000
0000
0000
0000
0001
0000
0000
0000
0000
0000
1000
0000
0000
0000
0000
0000
0000
0000
0000
0000
0000
0000
0100
0000
0000
0000
0000
0000
0000
0000
0000
0000
0000
0000
0010
0000
0000
0000
0000
0000
0000
0000
0000
0000
0000
0000
0001
0000
0000
0000
0000
0000
0000
0000
0000
0000
0000
0000
0010
0000
0000
0000
0000
0000
0000
0000
0000
0000
0000
0000
0100
0000
0000
0000
0000
0000
0000
0000
0000
0000
0000
0000
1000
0000
0000
0000
0000
0000
0000
0000
0000
0000
0000
0000
0002
0000
0000
0000
0000
0000
0000
0000
0000
0000
0000
0000
,
0000
0000
2003
0000
0000
0000
0010
0000
3010
1000
0001
0200
0000
0000
0310
0000
,
1001
0000
0000
0000
0000
0000
1000
0000
0000
0100
0000
0000
0001
0000
0000
0000
0000
0000
0011
0000
0000
0000
0001
0000
1000
0000
0000
0010
0000
0000
0100
0000
0000
0001
0000
0000
0010
0000
0000
0100
0000
0000
1000
0000
0000
0001
0000
0000
,
0100
0000
0000
0000
0000
0000
0010
0000
0000
1000
0000
0000
0001
0000
0000
0000
0000
0000
0000
0000
0000
0010
0100
0000
1000
0000
0000
0001
0000
0000
1000
0000
0000
0010
0000
0000
0100
0000
0000
0001
0000
0000
1000
0000
0000
0000
0000
0000
,
1100
0000
0000
0000
0000
0000
0001
0000
0000
0010
0000
0000
1000
0000
0000
0000
0000
0000
0110
0000
0000
0000
0001
0000
1000
0000
0000
0010
0000
0000
0100
0000
0000
0010
0000
0000
1000
0000
0000
0001
0000
0000
0100
0000
0000
0010
0000
0000
,
2000
0000
3100
0010
0001
0000
1000
0001
0010
1000
0010
0100
0010
0001
1000
0100
,
1000
0000
0000
0000
0001
0000
0100
0000
0010
0000
0000
0000
1000
0000
0100
0010
0001
0000
0100
0000
1000
0000
0100
0000
0010
0000
1000
0000
0001
0000
0010
0000
,
0100
0000
0000
0000
1000
0000
0010
0000
1000
0000
0000
0000
0001
0100
0001
0100
0001
0000
0010
0000
1000
0000
0010
0000
0100
0000
0010
0000
0001
0000
1000
0000
,
0010
0000
1000
0000
0001
0000
0010
0000
0100
0000
0000
0000
1000
0000
0001
0010
0100
0000
0001
0000
0100
0000
1000
0000
0010
0000
0100
0000
0001
0000
0010
0000
,
1000
0000
0010
0000
0100
0000
1000
0000
0001
0000
0100
0000
0010
1000
0001
0000
0010
0000
0100
0000
1000
0000
0010
0000
0001
0000
0010
0000
1000
0000
0100
0000
,
0020
0000
0130
2000
0000
3001
0000
0000
;

//---------------dance-single - ----------------
#NOTES:
     dance-single:
     :
     Medium:
     10:
     0.399082,0.420735,0.181294,0.412031,0.280181,339.000000,317.000000,22.000000,50.000000,0.000000,0.000000,0.399082,0.420735,0.181294,0.412031,0.280181,339.000000,317.000000,22.000000,50.000000,0.000000,0.000000:
0000
0000
0000
0000
,
0000
0000
0000
0000
,
0000
0000
0000
0000
,
0001
1000
0001
1000
0001
0000
0200
0000
0010
0000
0000
0000
0320
0000
0000
0000
,
1030
0000
0001
0100
0001
0000
2000
0000
0010
0000
0000
0000
3020
0000
0000
0000
,
0130
0000
0001
0010
0001
0000
0200
0000
0010
0000
0000
0000
2300
0000
0000
0000
,
3100
0000
0010
1000
0010
0000
0200
0000
0001
0000
0000
0000
0302
0000
0000
0000
,
1003
0001
1000
0001
1000
0000
0020
0000
0100
0000
0000
0000
0230
0000
0001
0000
,
0302
0000
0000
0000
1003
0000
0010
0200
0000
0000
0310
0000
0000
0000
0000
0000
,
1000
0000
0000
0100
1000
0000
0000
0001
0100
0000
0001
0000
0010
0000
0010
0000
,
1001
0000
0000
0100
0010
0000
0000
1000
0001
0000
0010
0000
0001
0000
0100
0000
,
1000
0000
0000
0010
0100
0000
0000
0100
0010
0000
1000
0000
0001
0000
0001
0000
,
1000
0000
0010
0000
0100
0001
0000
2000
0000
0000
3100
0000
0000
0000
0000
0000
,
0010
0000
0000
0001
1000
0000
0000
0001
1000
0000
0010
0000
0100
0000
0100
0000
,
0110
0000
0110
0000
0001
0000
0000
1000
0010
0000
1000
0000
0001
0000
0200
0000
,
0010
0000
0000
0310
1000
0000
0000
0001
1000
0000
0001
0000
0100
0000
0100
0000
,
0120
0000
1030
0002
0000
0103
0000
0001
,
2000
0000
3020
0000
0230
0000
0301
1000
,
2001
0000
3010
0200
0000
0301
1000
0100
,
2100
0000
3001
0100
0010
0000
0010
1000
,
1002
0000
1003
0200
0000
0310
0001
1000
,
0002
0000
0203
0000
0320
0000
1030
0001
,
2001
0000
3100
2000
0000
3002
0000
0013
,
0001
0100
0010
1000
0001
0010
0100
1000
,
0010
0000
1000
0001
1000
0000
0200
0000
0001
0000
0000
0000
0320
0000
0000
0000
,
0031
0000
0100
0010
0100
0000
0002
0000
1000
0000
0000
0000
0023
0000
0000
0000
,
0130
0000
1000
0001
1000
0000
0020
0000
0100
0000
0000
0000
0230
0000
0000
0000
,
0301
0000
1000
0100
1000
0000
0020
0000
0100
0000
0000
0000
2030
0000
0000
0000
,
3100
0000
0010
0001
0010
0000
0200
0000
0000
0000
1000
0000
1300
0000
0001
0000
,
1000
0000
0010
0100
0010
0000
2000
0000
0100
0000
0000
0000
3002
0000
0000
0000
,
0013
0000
0100
1000
0100
0000
2000
0000
0001
0000
0000
0000
3001
0000
0010
0000
,
0100
1000
0100
1000
0100
0000
0020
0000
0001
0000
0000
0000
0230
0000
0000
0000
,
1300
0001
0000
1000
0001
0000
0000
0000
0100
0000
0000
0100
0000
0000
0000
0010
,
0000
1000
0000
0001
0100
0000
0000
0000
0001
0010
0000
0100
0000
0000
0000
0000
,
1000
0010
0000
1000
0010
0000
0000
0000
0100
0000
0000
0100
0000
0000
0000
0001
,
0000
1000
0000
0001
0010
0000
0000
0000
0100
0000
0000
0100
0000
0000
0000
1000
,
0000
0010
0000
0100
0001
0000
0000
0000
0010
0000
0000
0001
0000
0000
0000
1000
,
0000
0001
0000
0100
0001
0000
0000
0000
1000
0000
0000
1000
0000
0000
0000
0010
,
0000
1000
0000
0010
0100
0000
0000
0000
0100
0000
0000
0001
0000
0000
0000
1000
,
0000
0010
0000
0100
0001
0000
1000
0000
0010
0100
0010
0200
0000
0000
0301
0000
,
1001
0000
0010
0101
0101
1000
0100
0010
,
0001
0000
0000
0000
0110
0000
0000
1000
0002
0000
0100
0000
0103
0000
0000
0000
,
0110
0000
1000
1010
1010
0001
0010
0100
,
1000
0000
0000
0010
0100
0000
0001
0000
1000
0000
0001
0000
1100
0000
0000
0000
,
1001
0000
0000
0010
0100
0000
0110
0000
0110
0000
0001
0000
1000
0000
0100
0000
,
0010
0000
0000
0001
0100
0000
0000
0001
2000
0000
3200
0000
1300
0000
0000
0000
,
0011
0000
0000
1000
0001
0000
1001
0000
1001
0000
0010
0000
0100
0000
0001
0000
,
1000
0100
0010
0001
1000
0010
0100
0001
,
0020
0000
0130
2000
0000
3001
0000
0000
;

//---------------dance-single - ----------------
#NOTES:
     dance-single:
     :
     Easy:
     7:
     0.248396,0.280490,0.164813,0.263700,0.008241,211.000000,191.000000,20.000000,32.000000,0.000000,0.000000,0.248396,0.280490,0.164813,0.263700,0.008241,211.000000,191.000000,20.000000,32.000000,0.000000,0.000000:
0000
0000
0000
0000
,
0000
0000
0000
0000
,
0000
0000
0000
0000
,
0001
1000
0001
0000
0010
0100
0010
0000
,
0001
0000
0100
0020
0000
0000
1030
0000
,
0100
0000
0010
0002
0000
0000
1003
0000
,
0010
0000
1000
0002
0000
0000
0103
0000
,
0001
0000
1000
0020
0000
0000
0130
0000
,
1001
0010
1000
0100
,
1000
0010
0100
0001
,
0101
0010
1000
0100
,
1100
0010
1000
0001
,
0110
0010
1000
0100
,
1000
0010
0100
0001
,
0011
0000
0100
0000
0001
0000
1000
0010
,
1000
2010
0100
3001
,
0020
0000
0031
1000
0000
0100
0000
0000
,
2000
3002
0203
0320
,
2030
0000
3010
0100
0000
0001
0000
0000
,
0020
0032
0203
2300
,
3020
0000
1030
0100
0000
0001
0000
0000
,
0200
0320
2030
3002
,
0203
0000
0301
1000
0000
0010
0000
0000
,
0002
0000
2003
0000
3010
0100
0000
0001
,
1000
0000
0010
0002
0000
0000
0103
0000
,
0010
0000
1000
0200
0000
0000
0301
0000
,
0100
0000
0010
0002
0000
0000
1003
0000
,
0001
0000
1000
0200
0000
0000
0310
0000
,
0001
0000
0010
0200
0000
0000
1300
0000
,
0100
0000
0010
0002
0000
0000
1003
0000
,
1000
0000
0001
0200
0000
0000
0310
0000
,
1000
0001
1000
0000
0100
0010
0100
0000
,
1000
0001
0010
0100
,
1000
0010
1000
0001
,
0010
1000
0100
0010
,
1000
0001
1000
0100
,
0010
0001
0100
0010
,
1000
0001
1000
0100
,
1000
0010
0100
0001
,
0110
0000
0000
0010
0100
0010
0100
0000
,
1001
0000
0000
0101
0101
0000
0000
0000
,
0000
0000
0000
0000
0000
0000
0000
0001
1000
0000
0010
0000
0100
0000
0000
0000
,
0110
0000
0000
1010
1010
0000
0000
0000
,
1100
0000
0000
0001
0010
0100
1000
0000
,
1001
0000
0000
0011
0011
0000
0000
0000
,
0000
0000
0000
0000
0000
0000
0000
0100
0010
0000
1000
0000
0001
0000
0000
0000
,
0110
0000
0000
1100
1100
0000
0000
0000
,
0001
0010
0100
1000
0100
0010
0001
0000
,
2000
0000
3010
0200
0000
0301
0000
0000
;

//---------------dance-single - ----------------
#NOTES:
     dance-single:
     :
     Beginner:
     3:
     0.122432,0.158220,0.082406,0.032963,0.000000,104.000000,94.000000,10.000000,4.000000,0.000000,0.000000,0.122432,0.158220,0.082406,0.032963,0.000000,104.000000,94.000000,10.000000,4.000000,0.000000,0.000000:
0000
0000
0000
0000
,
0000
0000
0000
0000
,
0000
0000
0000
0000
,
0001
0001
0001
0001
,
0000
1000
0000
0001
,
0000
0100
0000
0010
,
0000
1000
0000
0001
,
0000
0100
0000
0010
,
0010
0010
0010
0000
,
0000
0000
0000
0000
,
1001
0000
0000
0100
,
0100
0000
0000
0001
,
0001
0001
0001
0000
,
0000
0000
0000
1000
,
1000
0000
0000
0010
,
0000
0110
0000
0000
,
0001
0001
0000
0000
,
0010
0000
0100
0000
,
1000
1000
0000
0000
,
0001
0001
0001
0000
,
0100
0100
0000
0010
,
0010
0000
1000
0000
,
0010
0010
0010
0000
,
1000
1000
1000
0000
,
0001
0001
0000
0100
,
0000
0010
0000
1000
,
2000
0000
3000
0000
,
0002
0000
0003
0000
,
0100
0100
0000
0010
,
0000
1000
0000
0010
,
0020
0000
0030
0000
,
0200
0000
0300
0000
,
0001
0001
0000
0010
,
0000
0100
0100
0100
,
0100
0000
0000
1000
,
1000
0000
0001
0001
,
0001
0000
0000
1000
,
0000
0010
0010
0010
,
0010
0000
0100
0100
,
0100
0000
0010
0000
,
1001
0000
1001
0000
,
0000
0000
0010
0000
,
0110
0000
0110
0000
,
0000
0000
0100
0000
,
1001
0000
1001
0000
,
0000
0000
0001
0000
,
0110
0000
0110
0000
,
0000
0000
1000
0000
,
0001
0000
0000
0000
;
