#VERSION:0.83;
#TITLE:Concertino in Blue;
#SUBTITLE:;
#ARTIST:佐々木博史;
#TITLETRANSLIT:;
#SUBTITLETRANSLIT:;
#ARTISTTRANSLIT:Hirofumi Sasaki;
#GENRE:;
#ORIGIN:;
#CREDIT:;
#BANNER:Concertino in Blue-bn.png;
#BACKGROUND:Concertino in Blue-bg.png;
#PREVIEWVID:;
#JACKET:Concertino in Blue-jacket.png;
#CDIMAGE:;
#DISCIMAGE:;
#LYRICSPATH:;
#CDTITLE:;
#MUSIC:Concertino in Blue.ogg;
#OFFSET:0.000000;
#SAMPLESTART:13.934000;
#SAMPLELENGTH:20.000000;
#SELECTABLE:YES;
#DISPLAYBPM:103.000000:155.000000;
#BPMS:0.000=140.023,
4.000=139.996,
28.000=155.004,
51.000=152.866,
53.000=151.038,
61.000=154.994,
79.000=153.061,
81.000=151.007,
90.000=154.998,
154.500=153.061,
154.875=150.000,
155.000=147.059,
155.125=144.231,
155.500=138.889,
155.750=136.364,
155.875=133.929,
156.000=154.999,
217.000=156.250,
217.250=150.000,
217.375=153.061,
217.500=150.000,
217.625=147.059,
217.750=150.000,
217.875=144.231,
218.250=141.509,
218.375=138.889,
218.750=133.929,
218.875=136.364,
219.000=131.579,
219.375=129.310,
219.500=127.119,
219.625=125.000,
219.875=122.951,
220.000=121.910,
226.000=112.045,
228.000=102.975,
231.000=116.995;
#STOPS:;
#DELAYS:;
#WARPS:;
#TIMESIGNATURES:0.000=4=4;
#TICKCOUNTS:0.000=4;
#COMBOS:0.000=1;
#SPEEDS:0.000=1.000=0.000=0;
#SCROLLS:0.000=1.000;
#FAKES:;
#LABELS:0.000=Song Start;
#BGCHANGES:0.000=Concertino in Blue.avi=1.000=0=0=0=StretchNoLoop====,
99999=-nosongbg-=1.000=0=0=0 // don't automatically add -songbackground-
;
#KEYSOUNDS:;
#ATTACKS:
;

//---------------dance-single - ----------------
#NOTEDATA:;
#CHARTNAME:;
#STEPSTYPE:dance-single;
#DESCRIPTION:;
#CHARTSTYLE:;
#DIFFICULTY:Beginner;
#METER:3;
#RADARVALUES:0.104641,0.146967,0.048190,0.048190,0.000000,76.000000,71.000000,5.000000,5.000000,0.000000,0.000000,0.000000,0.000000,0.000000,0.104641,0.146967,0.048190,0.048190,0.000000,76.000000,71.000000,5.000000,5.000000,0.000000,0.000000,0.000000,0.000000,0.000000;
#CREDIT:;
#DISPLAYBPM:103.000000:155.000000;
#NOTES:
0000
0000
0000
0000
,
0000
0000
0000
0000
,
0000
0000
0000
0000
,
0000
0000
0000
0000
,
0000
0000
0000
0000
,
0000
0000
0000
0000
,
0000
0000
0000
0000
,
0000
0000
0000
0000
,
0000
0000
0100
0100
,
0000
0000
0000
0000
,
0010
0000
0000
1000
,
0000
0000
0000
0001
,
0001
0000
0000
0000
,
0000
0020
0000
0000
,
0030
0000
0000
0010
,
0010
0000
0100
0100
,
0000
0000
0000
0000
,
1000
0000
0000
0001
,
0000
0000
0000
0010
,
0010
0000
0000
0000
,
0000
0002
0000
0000
,
0003
0000
0000
0001
,
0001
0000
0100
0000
,
0000
0010
0000
0000
,
1000
0000
0000
0001
,
0000
0000
0010
0000
,
0000
0100
0000
0000
,
1000
0000
0000
0001
,
0000
0000
0100
0000
,
0000
0010
0000
0000
,
0110
0000
0000
1000
,
0000
0000
1001
0000
,
0000
0001
0000
0000
,
1001
0000
0000
1000
,
0000
0000
0010
0000
,
0000
0100
0000
0000
,
0110
0000
0000
0010
,
0000
0000
1000
0000
,
0000
0001
0000
0000
,
1001
0000
0000
0001
,
0000
0000
0010
0000
,
0000
0100
0000
0000
,
1000
0000
0000
0001
,
0000
0000
0100
0000
,
0100
0000
0100
0000
,
0010
0000
0010
0000
,
1000
0000
2000
0000
,
0000
3000
0000
0000
,
0000
0000
0000
0100
,
0000
0000
0010
0010
,
0000
0001
0001
0000
,
0000
0000
0000
0100
,
0000
0000
0010
0000
,
0000
0000
1000
1000
,
0000
0000
0000
0000
,
0200
0000
0000
0300
,
0000
0000
0100
0100
,
0010
0001
0000
0000
,
1000
0000
0000
0001
,
0000
0000
1000
0000
,
0000
0000
0000
0000
0000
0000
0000
0000
0000
0000
0000
0000
0000
0000
0000
0000
0000
0000
0000
0000
0000
0000
0000
0000
0000
0000
0000
0000
0000
0000
0000
0000
0000
0000
0000
0000
0000
0000
0000
0000
0000
0000
0000
0000
0000
0000
0000
0000
0020
0000
0000
0000
0000
0000
0000
0000
0000
0000
0000
0000
0000
0000
0000
0000
0000
0000
0000
0000
0000
0000
0000
0000
0000
0000
0000
0000
0000
0000
0000
0000
0000
0000
0000
0000
0000
0000
0000
0000
0000
0000
0000
0000
0000
0000
0000
0000
0000
0000
0000
0000
0000
0000
0000
0000
0000
0000
0000
0000
0000
0000
0000
0000
0000
0000
0000
0000
0000
0000
0000
0000
0000
0000
0000
0000
0000
0000
0000
0000
0000
0000
0000
0000
0000
0000
0000
0000
0000
0000
0000
0000
0000
0000
0000
0000
0000
0000
0000
0000
0000
0000
0000
0000
0000
0000
0000
0000
0000
0000
0000
0000
0000
0000
0000
0000
0000
0000
0000
0000
0000
0000
0000
0000
0000
0000
0000
0000
0000
0000
0000
0000
0000
0000
0000
0000
0000
0000
0000
0000
0000
0000
0000
0030
,
0000
0000
0000
0000
;

//---------------dance-single - ----------------
#NOTEDATA:;
#CHARTNAME:;
#STEPSTYPE:dance-single;
#DESCRIPTION:;
#CHARTSTYLE:;
#DIFFICULTY:Easy;
#METER:5;
#RADARVALUES:0.207905,0.350763,0.289140,0.038552,0.024095,151.000000,121.000000,30.000000,4.000000,0.000000,0.000000,0.000000,0.000000,0.000000,0.207905,0.350763,0.289140,0.038552,0.024095,151.000000,121.000000,30.000000,4.000000,0.000000,0.000000,0.000000,0.000000,0.000000;
#CREDIT:;
#DISPLAYBPM:103.000000:155.000000;
#NOTES:
0000
0000
0000
0000
,
0000
0000
0000
0000
,
0000
0000
0000
0000
,
0000
0000
0000
0000
,
0000
0000
0000
0000
,
0000
0000
0000
0000
,
1000
0100
0010
0001
,
1000
1000
0010
0110
,
0110
0000
1001
1001
,
0000
0110
0000
0000
,
0001
0010
0100
1000
,
0001
1000
0000
1001
,
1001
0000
0110
0000
,
0000
2000
0000
0000
,
3002
0000
0000
1003
,
0001
0000
0110
0110
,
0000
1001
0000
0001
,
0100
0010
1000
0010
,
0100
0001
0000
0110
,
0110
0000
1001
0000
,
0000
0001
0100
0010
,
1000
0010
0100
0001
,
1000
0001
1001
0000
,
0000
0001
0000
0000
,
0010
0000
0000
0100
,
0000
0000
1000
0000
,
0000
0100
0000
0000
,
0010
0000
0000
0010
,
0000
0000
0100
0000
,
0000
0100
0000
0000
,
1001
0000
0000
0110
,
0000
0000
1001
0000
,
0000
0110
0000
0000
,
0100
0000
0000
0001
,
0000
0000
0010
0000
,
0000
0100
0000
0000
,
1001
0000
1000
0110
,
0000
0001
1001
0000
,
0001
1000
0000
0000
,
0001
0000
0000
0100
,
0000
0000
0010
0000
,
0000
1000
0000
0000
,
0100
0000
0000
0010
,
0000
0000
0001
0001
,
1000
1000
0010
0010
,
0100
0100
0001
0001
,
0010
0010
0200
0000
,
0000
0300
0000
0000
,
0000
0000
0000
1000
,
1000
0010
0010
0100
,
0001
1001
1001
0000
,
0110
0000
0000
0010
,
0100
1000
0001
0100
,
0010
0000
0110
0110
,
0000
1001
0000
0010
,
0200
0000
0000
0300
,
0000
0000
0001
0010
,
0100
1001
0000
0000
,
0001
0000
0000
0000
0000
0000
0000
0000
0000
0000
0000
0000
0000
0000
0000
0000
0000
0000
0000
0000
0000
0010
0000
0000
0000
0000
0000
0000
0000
0000
0000
0000
0000
0000
0000
0000
0000
0000
0000
0000
0000
0000
0000
0000
0100
0000
0000
0000
,
0000
0000
0000
0000
0000
0000
0000
0000
0000
0000
0000
0000
0000
0000
0000
0000
0000
0000
0000
0000
0000
0000
0000
0000
0000
0000
0000
0000
0000
0000
0000
0000
0000
0000
0000
0000
0000
0000
0000
1000
0000
0000
0000
0000
0000
0000
0000
0000
0000
0000
0000
0000
0000
0000
0000
0000
0000
0000
0000
0000
0000
0000
0000
0000
,
0000
0000
0000
0000
0000
0000
0001
0000
0000
0000
0000
0000
0000
0000
0000
0000
0000
0000
0000
0000
0000
1001
0000
0000
0000
0000
0000
0000
0000
0000
0000
0000
,
0000
0000
0000
0000
;

//---------------dance-single - ----------------
#NOTEDATA:;
#CHARTNAME:;
#STEPSTYPE:dance-single;
#DESCRIPTION:;
#CHARTSTYLE:;
#DIFFICULTY:Medium;
#METER:12;
#RADARVALUES:0.481900,0.730756,0.260226,0.115656,0.414434,350.000000,323.000000,27.000000,12.000000,0.000000,0.000000,0.000000,0.000000,0.000000,0.481900,0.730756,0.260226,0.115656,0.414434,350.000000,323.000000,27.000000,12.000000,0.000000,0.000000,0.000000,0.000000,0.000000;
#CREDIT:;
#DISPLAYBPM:103.000000:155.000000;
#NOTES:
0000
0000
0000
0000
,
0000
0000
0000
0000
,
0000
0000
0000
0000
,
0000
0000
0000
0000
,
0000
0000
0000
0000
,
2000
3020
0230
0302
,
0013
0001
0010
0001
0010
0001
1000
0100
1000
0100
1000
0100
,
1000
0000
0000
0001
0000
0000
0100
0000
0010
0000
1000
0000
0001
0000
0000
0000
,
1001
0000
0001
0010
0100
0000
1100
0000
,
0010
0000
0000
0001
0000
0000
1000
0000
0000
0000
0010
0000
1000
0000
0010
0000
,
0100
0000
0000
0001
0000
0000
0010
0000
0100
0000
0010
0000
0001
0000
0000
1000
,
0000
0010
0100
0000
0001
0010
0100
0000
,
1100
0000
0000
0000
0100
0000
0000
1000
0000
0000
0001
0000
0000
0000
0010
0000
,
0001
0000
0010
0000
0100
0000
0000
1100
0000
0000
0000
0101
0000
0000
0000
0220
,
0000
0000
0300
1030
,
1001
0000
1000
0010
0001
0000
0110
0000
,
0010
0000
0000
0100
0000
0000
0010
0000
0000
0000
1000
0000
0010
0000
0100
0000
,
0001
0000
0000
1000
0000
0000
0010
0000
0001
0000
0010
0000
1000
0000
0000
0001
,
0000
0010
0100
0000
1000
0100
0001
0000
,
0110
0000
0000
0000
0010
0000
0000
0001
0000
0000
1000
0000
0000
0000
0010
0000
,
1000
0000
0010
0000
0100
0000
0000
0101
0000
0000
0000
1100
0000
0000
0000
0220
,
0000
0000
0030
0301
,
0110
0000
1000
0100
0020
0000
0000
0000
,
0000
0032
0000
0000
,
1003
0000
0100
0010
0000
0001
0100
0000
,
0010
1000
0001
0100
0010
0000
1000
0100
,
0000
0010
0001
0000
1000
0100
0010
0100
,
0001
0000
0100
0010
0000
0010
0001
0000
,
0001
1000
0000
1000
0010
0100
0001
0010
,
0100
1000
0010
0100
0001
1000
0010
0100
,
0001
1000
1000
0100
0010
0010
0001
1000
,
1000
0100
0010
0010
0001
1000
1000
0010
,
0100
0000
0100
0000
0010
0000
1000
0000
1000
0000
0010
0000
0000
0110
0000
0000
,
1000
0000
0000
0001
0000
0000
0010
0000
0000
0100
0000
0000
1000
0000
0000
0001
,
0000
0000
0100
0000
0000
0010
0000
0000
0110
0000
0000
1000
0000
0000
1001
0000
,
0000
0001
0000
0000
0011
0000
0000
1000
0000
0000
1100
0000
0000
0100
0000
0000
,
0010
0001
0100
0010
1000
1000
1000
0010
,
0100
0001
0010
0010
0010
0100
1000
0001
,
0100
0100
0010
1000
0010
0001
0010
1000
,
0100
0000
0000
0000
0110
0000
0000
0000
0010
0000
0001
0000
0100
0000
0000
0010
,
0000
0000
1000
0000
0000
0100
0000
0000
0010
0000
0000
0000
0110
0000
0000
0000
,
0010
0000
0000
0000
0000
0000
0000
0000
0000
0000
0000
0000
0001
0000
0000
0000
0000
0000
0000
0000
0000
0000
0000
0000
0100
0000
0000
0000
0000
0000
0000
0000
0000
0000
0000
0000
0000
0000
0001
0000
0000
0000
0000
0000
0000
0000
0000
0000
0000
0000
0000
1000
0000
0000
0000
0000
0000
0000
0000
0000
0000
0000
0100
0000
0000
0000
0000
0000
0000
0000
0000
0000
0000
0010
0000
0000
0000
0000
0000
0000
0000
0000
0000
0001
0000
0000
0000
0000
0000
0000
0000
0000
0000
0000
0000
0000
,
1000
0000
0000
0000
0000
0000
0000
0000
1010
0000
0000
0000
0000
0000
0000
0000
1000
0000
0000
0000
0010
0000
0000
0000
0100
0000
0000
0000
0000
0001
0000
0000
,
0000
0000
0000
0000
1000
0000
0000
0000
0000
0000
0000
0000
0000
0000
0000
0010
0000
0000
0000
0000
0000
0000
0000
0000
0000
0100
0000
0000
0000
0000
0000
0000
0000
0000
0000
0000
0001
0000
0000
0000
0000
0000
0000
0000
0000
0000
0000
0000
0010
0000
0000
0000
0000
0000
0000
0000
0100
0000
0000
0000
0000
0000
0000
0000
0010
0000
0000
0000
0000
0000
0000
0000
0100
0000
0000
0000
0000
0000
0000
0000
0010
0000
0000
0000
0000
0000
0000
0000
0100
0000
0000
0000
0000
0000
0000
0000
,
0010
0100
0010
0100
1000
0100
1000
0001
1000
0001
0010
0001
,
1000
0000
0000
0000
0100
0000
0000
0000
1000
0000
0000
0000
0001
0000
0000
0000
0100
0000
0000
0000
0001
0000
0000
0000
0100
0000
0000
0000
0010
0000
0000
0000
0100
0000
0000
0000
0010
0000
0000
0000
1000
0000
0000
0010
0000
0000
0000
0000
,
0100
0001
0010
0100
1000
0010
0200
0000
0000
0000
0000
0000
,
0000
0300
0000
0000
,
0010
0000
0100
0000
0010
0000
0000
0000
0000
0000
0000
0000
0100
0000
0000
0010
,
0000
1000
0001
0010
0100
0000
0110
0000
,
0010
0000
0001
0000
1000
0000
0000
0000
1001
0000
0000
0000
1000
0000
0000
0001
,
0000
0000
0100
0000
0000
0000
0010
0000
0100
0000
0001
0000
0010
0000
0000
0100
,
0000
0000
1000
0000
0010
0000
0100
0000
0001
0000
0000
1000
0000
0000
0010
0000
,
0100
0000
0010
1000
0100
0000
1001
0000
,
0001
0000
0000
1000
0000
0000
0010
0000
0000
0000
0100
0000
0001
0000
0010
0000
,
0100
0000
0000
0010
0000
0000
0000
0001
0000
0000
0000
2000
0000
0000
0000
0000
,
0000
0000
3001
0110
,
0100
0001
1001
0000
0000
0000
0000
0000
,
1000
0000
0000
0000
0000
0000
0000
0100
0000
0000
0000
0000
0000
0000
0010
0000
0000
0000
0000
0000
0000
0001
0000
0000
0000
0000
0000
0000
1000
0000
0000
0000
0000
0000
0000
0010
0000
0000
0000
0000
0000
0000
0000
0000
0100
0000
0000
0000
,
0000
0000
0000
0000
0000
0000
0000
0000
0000
0000
0000
0000
0000
0000
0000
0000
0001
0000
0000
0000
0000
0000
0000
0000
0000
0000
0000
0000
0000
0000
0000
0000
0000
0000
0000
0000
0000
0000
0000
0000
0000
0000
0000
0000
0000
0000
0000
0000
0000
0000
0000
0000
1000
0000
0000
0000
0000
0000
0000
0000
0000
0000
0000
0000
0000
0000
0000
0000
0000
0000
0000
0000
0000
0000
0000
0000
0000
0000
0000
0000
0000
0000
0000
0000
0000
0000
0000
0000
0000
0000
0000
0000
0000
0000
0000
0000
0000
0000
0000
0000
0000
0000
0000
0000
0000
0000
0000
0000
0000
0000
0000
0000
0000
0000
0000
0000
0000
0001
0000
0000
0000
0000
0000
0000
0000
0000
0000
0000
0000
0000
0000
0000
0000
0000
0000
0000
0000
0000
0000
0000
0000
0000
0000
0000
0000
0000
0000
0000
0000
0000
0000
0000
0000
0000
0000
0000
0000
0000
0000
0000
0000
0000
0000
0000
0000
0000
0000
0000
0000
0000
0000
0000
0000
0000
0000
0000
0000
0000
0000
0000
0000
0000
0000
0000
0000
0000
0000
0000
0000
0000
0000
0000
,
0000
0000
0000
0000
0000
0000
0010
0000
0000
0000
0000
0000
0000
0000
0000
0000
0000
0000
0000
0000
0000
0110
0000
0000
0000
0000
0000
0000
0000
0000
0000
0000
,
0000
0000
0000
0000
;

//---------------dance-single - ----------------
#NOTEDATA:;
#CHARTNAME:;
#STEPSTYPE:dance-single;
#DESCRIPTION:;
#CHARTSTYLE:;
#DIFFICULTY:Hard;
#METER:16;
#RADARVALUES:0.775170,0.906137,0.424072,0.115656,1.103551,563.000000,519.000000,44.000000,12.000000,0.000000,0.000000,0.000000,0.000000,0.000000,0.775170,0.906137,0.424072,0.115656,1.103551,563.000000,519.000000,44.000000,12.000000,0.000000,0.000000,0.000000,0.000000,0.000000;
#CREDIT:;
#DISPLAYBPM:103.000000:155.000000;
#NOTES:
0000
0000
0000
0000
,
0000
0000
0000
0000
,
0000
0000
0000
0000
,
0000
0000
0000
0000
,
0000
0000
0000
0000
,
1000
0010
0010
0100
0010
0010
0001
0010
0010
0100
0010
0010
,
1000
0100
1000
0010
0001
0010
1000
0100
1000
0100
0001
0100
,
1000
0001
0000
0100
0000
0001
1000
0000
0010
0000
0010
0000
1001
0000
0000
0000
,
1001
0000
0000
0000
0001
0100
0010
1000
0001
0000
0000
0000
1001
0000
0000
0000
,
1000
0010
0000
0110
0000
0000
1001
0000
0000
0000
0001
0000
0010
0000
1000
0000
,
0010
0000
0001
0010
0000
0001
0100
0000
0100
0000
0100
0000
0100
0010
0000
1000
,
0000
0100
0010
0000
1001
0000
0000
0000
1000
0100
0010
0001
1000
0000
0000
0000
,
1001
0000
0000
0000
0001
0010
0000
0110
0000
0000
1001
0000
0000
0000
1000
0000
,
0010
0000
0001
0000
0010
1000
0010
0001
0000
0010
0100
0001
0000
1000
0010
0001
,
0010
0001
0010
0001
0010
0001
0010
0001
0010
0001
0010
0100
0010
0000
0000
0000
,
0110
0000
0000
0000
0010
1000
0010
0100
0001
0000
0100
0010
1000
0000
0100
0000
,
0010
0000
0001
0000
1000
0000
0010
0000
0100
0000
0001
0000
0010
0100
1000
0001
,
0100
0000
0010
0100
0000
0010
0100
0000
0010
0000
1000
0000
0001
0100
0001
0100
,
0010
1000
0010
1000
0001
0000
1001
0000
0001
0010
0100
1000
0001
0000
1000
0010
,
1000
0000
0100
0000
0010
0000
0001
0000
1000
0000
0010
0000
0100
0010
1000
0000
,
0100
0010
0001
0000
1000
0010
0001
0010
0000
0100
0010
1000
0000
0001
0100
1000
,
0100
1000
0100
1000
0100
1000
0100
1000
0100
1000
0100
0001
0100
0000
0000
0000
,
0110
0000
0000
0010
1000
0000
0100
0000
0110
0000
0000
0010
0000
0001
1000
0000
,
0001
0000
0100
0000
0010
0000
1000
0001
0000
0100
0010
0000
1000
0000
0100
0000
,
0020
0000
0000
0000
0000
0031
0010
0100
1000
0002
0000
0000
0000
0000
0000
0000
,
0023
0000
0000
0000
0000
0000
0000
0130
0010
0001
0000
0100
0000
0010
1000
0010
,
0100
0010
0001
0010
1000
0001
0200
0000
0000
0000
0000
0000
0000
0000
0000
0000
,
0301
0010
0100
1000
0001
1000
0010
0100
0001
0010
0100
1000
0001
0010
0100
1000
,
0001
0200
0000
0000
0000
0000
0310
1000
0010
1000
0100
0010
0001
0100
0001
0100
,
0010
0100
0010
1000
0100
0001
0100
1000
0020
0000
0000
0000
0000
0000
0030
0000
,
0110
0000
0010
1000
0010
1000
0001
0000
0100
0010
0100
0010
1000
0000
0001
0010
,
0001
0010
0100
0000
1000
0100
1000
0100
0010
0000
0001
1000
0001
1000
0010
0000
,
0100
0010
0100
0010
1000
0000
0100
0010
0100
0010
0002
0000
0000
1000
0000
0000
,
0103
0010
1000
0100
0010
0001
0100
0010
1000
0010
0100
0000
0110
0000
0100
0010
,
1000
0000
1001
0000
0001
0010
0100
0000
1000
0100
0010
0001
0100
0010
1000
0001
,
0010
0100
0000
0000
0020
0000
0000
0000
0000
0000
0230
0000
0000
0000
0000
0000
,
1300
0000
0001
0100
0010
1000
0001
0000
0011
0000
1001
0000
1100
0000
1000
0010
,
0100
0001
0010
0000
0110
0000
1100
0000
0011
0000
1000
0010
0001
0010
1000
0000
,
0110
0000
0110
0000
0010
1000
0100
0010
0001
0100
0010
1000
0001
0010
0100
1000
,
0001
0000
0000
0000
0101
0000
0000
0000
0001
0100
0001
0100
0001
0000
0000
1010
,
0000
0000
0011
0000
0000
0101
0000
0000
1100
0000
0000
0000
0110
0000
0000
0000
,
0010
0000
0000
0000
0000
0000
0001
0000
0000
0000
0000
0000
1000
0000
0000
0000
0000
0000
0100
0000
0000
0000
0000
0000
0010
0000
0000
0000
0000
0000
0000
0000
0000
0000
0000
0000
0000
0000
0100
0000
0000
0000
0000
0000
0000
0000
0000
0000
0000
0000
0000
1000
0000
0000
0000
0000
0000
0000
0000
0000
0000
0000
0010
0000
0000
0000
0000
0000
0000
0000
0000
0000
0000
0100
0000
0000
0000
0000
0000
0000
0000
0000
0000
0001
0000
0000
0000
0000
0000
0000
0000
0000
0000
0000
0000
0000
,
1001
0000
0000
0000
0000
0000
0000
0000
0101
0000
0000
0000
0000
0000
0000
0000
0100
0000
0001
0000
1000
0000
0010
0000
0100
0000
0000
0000
0000
0010
0000
0000
,
0000
0000
0000
0000
1000
0000
0000
0000
0000
0000
0000
0000
0000
0000
0000
0100
0000
0000
0000
0000
0000
0000
0000
0000
0000
0010
0000
0000
0000
0000
0000
0000
0000
0000
0000
0000
0001
0000
0000
0000
0000
0000
0000
0000
0000
0000
0000
0000
1000
0000
0000
0000
0000
0000
0000
0000
0010
0000
0000
0000
0000
0000
0000
0000
0100
0000
0000
0000
0000
0000
0000
0000
0001
0000
0000
0000
0000
0000
0000
0000
0010
0000
0000
0000
0000
0000
0000
0000
0100
0000
0000
0000
0000
0000
0000
0000
,
1000
0001
0100
0010
1000
0100
0001
0100
1000
0010
0100
0001
,
1000
0010
0001
0010
1000
0001
0010
1000
0010
0001
1000
0100
,
0001
0100
1000
0001
0100
0001
0220
0000
0000
0000
0000
0000
,
0000
0330
0000
0000
,
0001
0100
0010
1000
0001
0000
0000
0000
0000
0000
0000
0000
1000
0001
0000
0100
,
0000
0001
1000
0000
0010
0000
0010
0000
1001
0000
0000
0000
1001
0000
0000
0000
,
1000
0010
0100
0001
1000
0000
0000
0000
1010
0000
0000
0000
0001
0010
0000
0011
,
0000
0000
1001
0000
0000
0000
1000
0000
0010
0000
0100
0000
0001
0000
0010
0100
,
0000
1000
0001
0000
0100
0000
0100
0000
0100
0001
0000
1000
0000
0100
0010
0000
,
0110
0000
0000
0000
0010
0100
0010
0001
1000
0000
0000
0000
1001
0000
0000
0000
,
0001
0010
0000
0110
0000
0000
0011
0000
0000
0000
1000
0000
0010
0000
0100
0000
,
0001
0010
0100
1000
0000
0010
0100
0001
0000
1000
0100
0010
0100
0010
0100
0010
,
0100
0010
0100
0010
0100
0010
0100
0010
0001
0000
0000
0000
1001
0000
0001
0010
,
0100
1000
0002
0000
0000
0000
0000
0000
,
1003
0000
0000
0000
0000
0000
0000
0010
0000
0000
0000
0000
0000
0000
0100
0000
0000
0000
0000
0000
0000
0010
0000
0000
0000
0000
0000
0000
1000
0000
0000
0000
0000
0000
0000
0001
0000
0000
0000
0000
0000
0000
0000
0000
0010
0000
0000
0000
,
0000
0000
0000
0000
0000
0000
0000
0000
0000
0000
0000
0000
0000
0000
0000
0000
0100
0000
0000
0000
0000
0000
0000
0000
0000
0000
0000
0000
0000
0000
0000
0000
0000
0000
0000
0000
0000
0000
0000
0000
0000
0000
0000
0000
0000
0000
0000
0000
0000
0000
0000
0000
0010
0000
0000
0000
0000
0000
0000
0000
0000
0000
0000
0000
0000
0000
0000
0000
0000
0000
0000
0000
0000
0000
0000
0000
0000
0000
0000
0000
0000
0000
0000
0000
0000
0000
0000
0000
0000
0000
0000
0000
0000
0000
0000
0000
0000
0000
0000
0000
0000
0000
0000
0000
0000
0000
0000
0000
0000
0000
0000
0000
0000
0000
0000
0000
0000
0100
0000
0000
0000
0000
0000
0000
0000
0000
0000
0000
0000
0000
0000
0000
0000
0000
0000
0000
0000
0000
0000
0000
0000
0000
0000
0000
0000
0000
0000
0000
0000
0000
0000
0000
0000
0000
0000
0000
0000
0000
0000
0000
0000
0000
0000
0000
0000
0000
0000
0000
0000
0000
0000
0000
0000
0000
0000
0000
0000
0000
0000
0000
0000
0000
0000
0000
0000
0000
0000
0000
0000
0000
0000
0000
,
0000
0000
0000
0000
0000
0000
1000
0000
0000
0000
0001
0000
0000
0000
0000
0000
0000
0000
0000
0000
0000
1001
0000
0000
0000
0000
0000
0000
0000
0000
0000
0000
,
0000
0000
0000
0000
;

//---------------dance-double - ----------------
#NOTEDATA:;
#CHARTNAME:;
#STEPSTYPE:dance-double;
#DESCRIPTION:;
#CHARTSTYLE:;
#DIFFICULTY:Easy;
#METER:5;
#RADARVALUES:0.209282,0.321533,0.318054,0.038552,0.024095,152.000000,119.000000,33.000000,4.000000,0.000000,0.000000,0.000000,0.000000,0.000000,0.209282,0.321533,0.318054,0.038552,0.024095,152.000000,119.000000,33.000000,4.000000,0.000000,0.000000,0.000000,0.000000,0.000000;
#CREDIT:;
#DISPLAYBPM:103.000000:155.000000;
#NOTES:
00000000
00000000
00000000
00000000
,
00000000
00000000
00000000
00000000
,
00000000
00000000
00000000
00000000
,
00000000
00000000
00000000
00000000
,
00000000
00000000
00000000
00000000
,
00000000
00000000
00000000
00000000
,
00000001
00000100
00000010
00001000
,
00000001
00001000
00000010
00000110
,
00000110
00000000
00001001
00001000
,
00000000
00011000
00000000
00000000
,
00001000
00100000
00010000
01000000
,
00100000
10000000
00000000
10010000
,
10010000
00000000
00011000
00000000
,
00000000
00020000
00000000
00000000
,
00030020
00000000
00000000
00000130
,
00000010
00000000
00000110
00000110
,
00000000
00011000
00000000
00000000
,
00001000
00010000
01000000
10000000
,
00100000
01000000
00000000
01100000
,
01100000
00000000
00011000
00000000
,
00000000
00001000
00000100
00000001
,
00000010
00000100
00001000
00000010
,
00000100
00000010
00001001
00000000
,
00000000
00000001
00000000
00000000
,
00000100
00000000
00000000
00001000
,
00000000
00000000
00010000
00000000
,
00000000
01000000
00000000
00000000
,
10000000
00000000
00000000
00100000
,
00000000
00000000
01000000
00000000
,
00000000
00001000
00000000
00000000
,
00011000
00000000
00000000
00001001
,
00000000
00000000
00000110
00000000
,
00000000
00011000
00000000
00000000
,
00010000
00000000
00000000
00001000
,
00000000
00000000
00100000
00000000
,
00000000
01000000
00000000
00000000
,
00100000
00000000
00100000
00011000
,
00000000
00001000
00011000
00000000
,
00001000
00000100
00000000
00000000
,
00000110
00000000
00000000
00001001
,
00000000
00000000
00000110
00000000
,
00000000
00001000
00000000
00000000
,
00011000
00000000
00000000
00010000
,
00000000
00000000
00001000
00001000
,
00010000
00010000
00001000
00001000
,
01000000
01000000
00010000
00010000
,
00100000
00100000
02000000
00000000
,
00000000
03000000
00000000
00000000
,
00000000
00000000
00000000
10000000
,
00010000
01000000
01100000
01100000
,
00000000
10010000
00010000
00000000
,
00011000
00000000
00000000
00010000
,
00000100
00001000
00000010
00000100
,
00000001
00000000
00001001
00001001
,
00000000
00011000
00000000
00010000
,
00000200
00000000
00000000
00000300
,
00000000
00000000
00010000
00000010
,
00001000
00011000
00000000
00000000
,
00001000
00000000
00000000
00000000
00000000
00000000
00000000
00000000
00000000
00000000
00000000
00000000
00000000
00000000
00000000
00000000
00000000
00000000
00000000
00000000
00000000
00100000
00000000
00000000
00000000
00000000
00000000
00000000
00000000
00000000
00000000
00000000
00000000
00000000
00000000
00000000
00000000
00000000
00000000
00000000
00000000
00000000
00000000
00000000
00010000
00000000
00000000
00000000
,
00000000
00000000
00000000
00000000
00000000
00000000
00000000
00000000
00000000
00000000
00000000
00000000
00000000
00000000
00000000
00000000
00000000
00000000
00000000
00000000
00000000
00000000
00000000
00000000
00000000
00000000
00000000
00000000
00000000
00000000
00000000
00000000
00000000
00000000
00000000
00000000
00000000
00000000
00000000
10000000
00000000
00000000
00000000
00000000
00000000
00000000
00000000
00000000
00000000
00000000
00000000
00000000
00000000
00000000
00000000
00000000
00000000
00000000
00000000
00000000
00000000
00000000
00000000
00000000
,
00000000
00000000
00000000
00000000
00000000
00000000
00010000
00000000
00000000
00000000
00000000
00000000
00000000
00000000
00000000
00000000
00000000
00000000
00000000
00000000
00000000
10010000
00000000
00000000
00000000
00000000
00000000
00000000
00000000
00000000
00000000
00000000
,
00000000
00000000
00000000
00000000
;

//---------------dance-double - ----------------
#NOTEDATA:;
#CHARTNAME:;
#STEPSTYPE:dance-double;
#DESCRIPTION:;
#CHARTSTYLE:;
#DIFFICULTY:Medium;
#METER:12;
#RADARVALUES:0.477769,0.730756,0.221674,0.115656,0.414434,347.000000,324.000000,23.000000,12.000000,0.000000,0.000000,0.000000,0.000000,0.000000,0.477769,0.730756,0.221674,0.115656,0.414434,347.000000,324.000000,23.000000,12.000000,0.000000,0.000000,0.000000,0.000000,0.000000;
#CREDIT:;
#DISPLAYBPM:103.000000:155.000000;
#NOTES:
00000000
00000000
00000000
00000000
,
00000000
00000000
00000000
00000000
,
00000000
00000000
00000000
00000000
,
00000000
00000000
00000000
00000000
,
00000000
00000000
00000000
00000001
,
00000020
00000230
00002300
00003200
,
00000310
00000001
00000010
00000001
00000010
00000001
00001000
00000100
00001000
00000100
00001000
00000100
,
00001000
00000000
00000000
00000100
00000000
00000000
00000010
00000000
00000001
00000000
00000100
00000000
00001000
00000000
00000000
00000000
,
00000110
00000000
00000100
00001000
00010000
00000000
00011000
00000000
,
00010000
00000000
00000000
01000000
00000000
00000000
10000000
00000000
00000000
00000000
00010000
00000000
00100000
00000000
10000000
00000000
,
00100000
00000000
00000000
01000000
00000000
00000000
10000000
00000000
00100000
00000000
01000000
00000000
00010000
00000000
00000000
00100000
,
00000000
00001000
00010000
00000000
00001000
00000100
00000001
00000000
,
00000101
00000000
00000000
00000000
00000100
00000000
00000000
00000010
00000000
00000000
00001000
00000000
00000000
00000000
00000100
00000000
,
00010000
00000000
00001000
00000000
00100000
00000000
00000000
01000000
00000000
00000000
00000000
10000000
00000000
00000000
00000000
02020000
,
00000000
00000000
03000000
10030000
,
10010000
00000000
10000000
01000000
00010000
00000000
00011000
00000000
,
00001000
00000000
00000000
00000100
00000000
00000000
00000001
00000000
00000000
00000000
00001000
00000000
00000100
00000000
00000010
00000000
,
00000001
00000000
00000000
00000010
00000000
00000000
00001000
00000000
00010000
00000000
01000000
00000000
10000000
00000000
00000000
01000000
,
00000000
00010000
00001000
00000000
00010000
00000100
00001000
00000000
,
00001100
00000000
00000000
00000000
00001000
00000000
00000000
00000001
00000000
00000000
00000100
00000000
00000000
00000000
00001000
00000000
,
00010000
00000000
00100000
00000000
10000000
00000000
00000000
01000000
00000000
00000000
00000000
00100000
00000000
00000000
00000000
02200000
,
00000000
00000000
00300000
13000000
,
10010000
00000000
10000000
01000000
00020000
00000000
00000000
00000000
,
00000000
00032000
00000000
00000000
,
00013000
00000000
00001000
00000100
00000000
00000010
00000100
00000000
,
00000001
00000010
00000100
00001000
00000001
00000000
00010000
00000100
,
00000000
00010000
00100000
00000000
01000000
00100000
10000000
01000000
,
00100000
00000000
00010000
00001000
00000000
00001000
00000100
00000000
,
00000100
00000010
00000000
00000010
00000100
00000001
00000010
00000100
,
00010000
00001000
00100000
01000000
10000000
00100000
01000000
00001000
,
00100000
01000000
01000000
10000000
00100000
00100000
00010000
00001000
,
00001000
00000100
00000010
00000010
00001000
00000001
00000001
00000010
,
00000100
00000000
00000100
00000000
00010000
00000000
00001000
00000000
00001000
00000000
01000000
00000000
00000000
01001000
00000000
00000000
,
01000000
00000000
00000000
00100000
00000000
00000000
10000000
00000000
00000000
01000000
00000000
00000000
00010000
00000000
00000000
00000100
,
00000000
00000000
00001000
00000000
00000000
00000010
00000000
00000000
00001010
00000000
00000000
00001000
00000000
00000000
00011000
00000000
,
00000000
00010000
00000000
00000000
00110000
00000000
00000000
00100000
00000000
00000000
10100000
00000000
00000000
10000000
00000000
00000000
,
00010000
01000000
00100000
10000000
01000000
01000000
00100000
00001000
,
00010000
00000100
00010000
00010000
00001000
00000100
00000001
00000010
,
00000100
00000100
00000010
00000001
00000100
00001000
00010000
00001000
,
00010000
00000000
00000000
00000000
00011000
00000000
00000000
00000000
00010000
00000000
00000010
00000000
00001000
00000000
00000000
00000100
,
00000000
00000000
00000010
00000000
00000000
00000001
00000000
00000000
00000100
00000000
00000000
00000000
00000110
00000000
00000000
00000000
,
00000010
00000000
00000000
00000000
00000000
00000000
00000000
00000000
00000000
00000000
00000000
00000000
00001000
00000000
00000000
00000000
00000000
00000000
00000000
00000000
00000000
00000000
00000000
00000000
00000100
00000000
00000000
00000000
00000000
00000000
00000000
00000000
00000000
00000000
00000000
00000000
00000000
00000000
00001000
00000000
00000000
00000000
00000000
00000000
00000000
00000000
00000000
00000000
00000000
00000000
00000000
00000001
00000000
00000000
00000000
00000000
00000000
00000000
00000000
00000000
00000000
00000000
00000100
00000000
00000000
00000000
00000000
00000000
00000000
00000000
00000000
00000000
00000000
00001000
00000000
00000000
00000000
00000000
00000000
00000000
00000000
00000000
00000000
00010000
00000000
00000000
00000000
00000000
00000000
00000000
00000000
00000000
00000000
00000000
00000000
00000000
,
00001000
00000000
00000000
00000000
00000000
00000000
00000000
00000000
00011000
00000000
00000000
00000000
00000000
00000000
00000000
00000000
00001000
00000000
00000000
00000000
00100000
00000000
00000000
00000000
00010000
00000000
00000000
00000000
00000000
00100000
00000000
00000000
,
00000000
00000000
00000000
00000000
01000000
00000000
00000000
00000000
00000000
00000000
00000000
00000000
00000000
00000000
00000000
10000000
00000000
00000000
00000000
00000000
00000000
00000000
00000000
00000000
00000000
00100000
00000000
00000000
00000000
00000000
00000000
00000000
00000000
00000000
00000000
00000000
01000000
00000000
00000000
00000000
00000000
00000000
00000000
00000000
00000000
00000000
00000000
00000000
00010000
00000000
00000000
00000000
00000000
00000000
00000000
00000000
10000000
00000000
00000000
00000000
00000000
00000000
00000000
00000000
00010000
00000000
00000000
00000000
00000000
00000000
00000000
00000000
10000000
00000000
00000000
00000000
00000000
00000000
00000000
00000000
00010000
00000000
00000000
00000000
00000000
00000000
00000000
00000000
10000000
00000000
00000000
00000000
00000000
00000000
00000000
00000000
,
00010000
10000000
00010000
10000000
00010000
01000000
00100000
01000000
00010000
01000000
00010000
00100000
,
00001000
00100000
00001000
00010000
00000010
00010000
00000010
00001000
00000010
00001000
00000001
00000100
,
00000010
00001000
00000100
00000010
00000001
00001000
00000002
00000000
00000000
00000000
00000000
00000000
,
00000000
00000003
00000000
00000000
,
00000001
00000000
00000100
00000000
00000010
00000000
00000000
00000000
00000000
00000000
00000000
00000000
00000100
00000000
00000000
00000010
,
00000000
00010000
00001000
00010000
00001000
00000000
00011000
00000000
,
00010000
00000000
01000000
00000000
10000000
00000000
00000000
00000000
10100000
00000000
00000000
00000000
00100000
00000000
00000000
01000000
,
00000000
00000000
00001000
00000000
00000000
00000000
00010000
00000000
00000100
00000000
00001000
00000000
00000010
00000000
00000000
00000001
,
00000000
00000000
00000010
00000000
00001000
00000000
00000100
00000000
00000010
00000000
00000000
00000100
00000000
00000000
00010000
00000000
,
00001000
00000000
00010000
01000000
10000000
00000000
11000000
00000000
,
00100000
00000000
00000000
10000000
00000000
00000000
01000000
00000000
00000000
00000000
00100000
00000000
01000000
00000000
00010000
00000000
,
00001000
00000000
00000000
00000100
00000000
00000000
00000000
00000001
00000000
00000000
00000000
00000020
00000000
00000000
00000000
00000000
,
00000000
00000000
00000031
00001001
,
00001000
00000100
00000110
00000000
00000000
00000000
00000000
00000000
,
00000010
00000000
00000000
00000000
00000000
00000000
00000000
00000001
00000000
00000000
00000000
00000000
00000000
00000000
00000010
00000000
00000000
00000000
00000000
00000000
00000000
00000100
00000000
00000000
00000000
00000000
00000000
00000000
00010000
00000000
00000000
00000000
00000000
00000000
00000000
00001000
00000000
00000000
00000000
00000000
00000000
00000000
00000000
00000000
00010000
00000000
00000000
00000000
,
00000000
00000000
00000000
00000000
00000000
00000000
00000000
00000000
00000000
00000000
00000000
00000000
00000000
00000000
00000000
00000000
01000000
00000000
00000000
00000000
00000000
00000000
00000000
00000000
00000000
00000000
00000000
00000000
00000000
00000000
00000000
00000000
00000000
00000000
00000000
00000000
00000000
00000000
00000000
00000000
00000000
00000000
00000000
00000000
00000000
00000000
00000000
00000000
00000000
00000000
00000000
00000000
00100000
00000000
00000000
00000000
00000000
00000000
00000000
00000000
00000000
00000000
00000000
00000000
00000000
00000000
00000000
00000000
00000000
00000000
00000000
00000000
00000000
00000000
00000000
00000000
00000000
00000000
00000000
00000000
00000000
00000000
00000000
00000000
00000000
00000000
00000000
00000000
00000000
00000000
00000000
00000000
00000000
00000000
00000000
00000000
00000000
00000000
00000000
00000000
00000000
00000000
00000000
00000000
00000000
00000000
00000000
00000000
00000000
00000000
00000000
00000000
00000000
00000000
00000000
00000000
00000000
00010000
00000000
00000000
00000000
00000000
00000000
00000000
00000000
00000000
00000000
00000000
00000000
00000000
00000000
00000000
00000000
00000000
00000000
00000000
00000000
00000000
00000000
00000000
00000000
00000000
00000000
00000000
00000000
00000000
00000000
00000000
00000000
00000000
00000000
00000000
00000000
00000000
00000000
00000000
00000000
00000000
00000000
00000000
00000000
00000000
00000000
00000000
00000000
00000000
00000000
00000000
00000000
00000000
00000000
00000000
00000000
00000000
00000000
00000000
00000000
00000000
00000000
00000000
00000000
00000000
00000000
00000000
00000000
00000000
00000000
00000000
00000000
00000000
00000000
00000000
,
00000000
00000000
00000000
00000000
00000000
00000000
10000000
00000000
00000000
00000000
00000000
00000000
00000000
00000000
00000000
00000000
00000000
00000000
00000000
00000000
00000000
10010000
00000000
00000000
00000000
00000000
00000000
00000000
00000000
00000000
00000000
00000000
,
00000000
00000000
00000000
00000000
;

//---------------dance-double - ----------------
#NOTEDATA:;
#CHARTNAME:;
#STEPSTYPE:dance-double;
#DESCRIPTION:;
#CHARTSTYLE:;
#DIFFICULTY:Hard;
#METER:16;
#RADARVALUES:0.740749,0.906137,0.452986,0.125294,1.050542,538.000000,491.000000,47.000000,13.000000,0.000000,0.000000,0.000000,0.000000,0.000000,0.740749,0.906137,0.452986,0.125294,1.050542,538.000000,491.000000,47.000000,13.000000,0.000000,0.000000,0.000000,0.000000,0.000000;
#CREDIT:;
#DISPLAYBPM:103.000000:155.000000;
#NOTES:
00000000
00000000
00000000
00000000
,
00000000
00000000
00000000
00000000
,
00000000
00000000
00000000
00000000
,
00000000
00000000
00000000
00000000
,
00000000
00000000
00000000
00000000
,
00000000
00000000
00000000
00000000
,
00010000
00001000
00000010
00001000
00010000
00100000
00010000
00001000
00000100
00000001
00000010
00000100
,
00001000
00000010
00000000
00000100
00000000
00000010
00001000
00000000
00000100
00000000
00000100
00000000
00000110
00000000
00000000
00000000
,
00001001
00000000
00000000
00000000
00000001
00000100
00001000
00010000
00001000
00000000
00000000
00000000
00011000
00000000
00000000
00000000
,
00001000
01000000
00000000
01001000
00000000
00000000
01100000
00000000
00000000
00000000
00100000
00000000
10000000
00000000
00100000
00000000
,
00010000
00000000
00001000
00010000
00000000
00000100
00000010
00000000
00000010
00000000
00000010
00000000
00000010
00000100
00000000
00001000
,
00000000
00000010
00000100
00000000
00000010
00000000
00000000
00000000
00000100
00001000
00010000
00100000
01000000
00000000
00000000
00000000
,
01100000
00000000
00000000
00000000
00100000
10000000
00000000
11000000
00000000
00000000
00110000
00000000
00000000
00000000
00100000
00000000
,
01000000
00000000
00010000
00000000
00001000
00000100
00000010
00001000
00000000
00000001
00000010
00000100
00000000
00001000
00000010
00000100
,
00000010
00000100
00000010
00000100
00000010
00000100
00000010
00000100
00000010
00000100
00000010
00000100
00000001
00000000
00000000
00000000
,
00000110
00000000
00000000
00000000
00000001
00000010
00000100
00001000
00000100
00000000
00000000
00000000
00010100
00000000
00000000
00000000
,
00001000
00100000
00000000
00101000
00000000
00000000
01100000
00000000
00000000
00000000
10000000
00000000
00100000
00000000
00010000
00000000
,
00001000
00000000
00010000
00001000
00000000
00001000
00010000
00000000
00010000
00000000
00010000
00000000
00010000
00000100
00000000
00000010
,
00000000
00000001
00000100
00000000
00000010
00000000
00000000
00000000
00000100
00000010
00000100
00001000
00010000
00000000
00000000
00000000
,
00101000
00000000
00000000
00000000
00010000
00100000
00000000
01100000
00000000
00000000
11000000
00000000
00000000
00000000
01000000
00000000
,
00010000
00000000
00001000
00000000
00000100
00000001
00000100
00000010
00000000
00001000
00000010
00000001
00000000
00000010
00000100
00001000
,
00010000
00001000
00010000
00001000
00010000
00001000
00010000
00001000
00010000
00001000
00010000
00001000
00010000
00000000
00000000
00000000
,
00011000
00000000
00000000
00001000
00010000
00000000
00000010
00000000
00010010
00000000
00000000
00010000
00000000
00001000
00100000
00000000
,
00010000
00000000
01000000
00000000
00100000
00000000
10000000
00010000
00000000
00100000
00001000
00000000
00010000
00000000
00100000
00000000
,
02000000
00000000
00000000
00000000
00000000
03010000
00100000
00001000
00010000
00000200
00000000
00000000
00000000
00000000
00000000
00000000
,
00000320
00000000
00000000
00000000
00000000
00000000
00000000
00000031
00000010
00001000
00000000
00010000
00000000
00001000
00100000
00010000
,
01000000
00100000
10000000
01000000
00100000
00010000
20000000
00000000
00000000
00000000
00000000
00000000
00000000
00000000
00000000
00000000
,
30100000
01000000
00001000
00100000
01000000
00010000
00001000
00000100
00000001
00000010
00000100
00001000
00000010
00000100
00000010
00001000
,
00000001
00000020
00000000
00000000
00000000
00000000
00000130
00000010
00000100
00001000
00000010
00000100
00000001
00000010
00001000
00010000
,
00001000
00010000
00100000
10000000
00100000
00010000
00001000
00010000
00002000
00000000
00000000
00000000
00000000
00000000
00000000
00000000
,
00013000
00000000
00010000
00001000
00010000
00001000
00000100
00000000
00000010
00001000
00000010
00001000
00000001
00000000
00000100
00001000
,
00000100
00001000
00010000
00000000
01000000
10000000
01000000
10000000
00100000
00000000
10000000
00100000
10000000
00100000
01000000
00000000
,
00001000
00010000
00001000
00010000
00000100
00000000
00100000
00010000
00100000
00010000
00200000
00000000
00000000
00001000
00000000
00000000
,
00310000
01000000
00100000
10000000
01000000
00100000
00010000
00001000
00000100
00010000
00000100
00000000
00010100
00000000
00000100
00001000
,
00000010
00000000
00001010
00000000
00000010
00000100
00000001
00000000
00000100
00001000
00010000
00100000
10000000
00010000
00100000
01000000
,
10000000
02000000
00000000
00000000
03200000
00000000
00000000
00000000
00000000
00000000
00302000
00000000
00000000
00000000
00000000
00000000
,
00013000
00000000
00001000
00010000
00000100
00001000
00000010
00000000
00001010
00000000
00001100
00000000
00010100
00000000
00010000
00001000
,
00100000
00010000
01000000
00000000
00110000
00000000
01010000
00000000
10100000
00000000
10000000
01000000
00010000
00001000
00010000
00000000
,
00011000
00000000
00011000
00000000
00001000
00000100
00000001
00000010
00001000
00000010
00000001
00000100
00001000
00010000
00100000
10000000
,
00010000
00000000
00000000
00000000
10010000
00000000
00000000
00000000
10000000
01000000
10000000
01000000
00100000
00000000
00000000
00110000
,
00000000
00000000
00011000
00000000
00000000
00001010
00000000
00000000
00011000
00000000
00000000
00000000
00010100
00000000
00000000
00000000
,
00000001
00000000
00000000
00000000
00000000
00000000
00000100
00000000
00000000
00000000
00000000
00000000
00000010
00000000
00000000
00000000
00000000
00000000
00001000
00000000
00000000
00000000
00000000
00000000
00000010
00000000
00000000
00000000
00000000
00000000
00000000
00000000
00000000
00000000
00000000
00000000
00000000
00000000
00001000
00000000
00000000
00000000
00000000
00000000
00000000
00000000
00000000
00000000
00000000
00000000
00000000
00000100
00000000
00000000
00000000
00000000
00000000
00000000
00000000
00000000
00000000
00000000
00010000
00000000
00000000
00000000
00000000
00000000
00000000
00000000
00000000
00000000
00000000
00001000
00000000
00000000
00000000
00000000
00000000
00000000
00000000
00000000
00000000
00100000
00000000
00000000
00000000
00000000
00000000
00000000
00000000
00000000
00000000
00000000
00000000
00000000
,
00110000
00000000
00000000
00000000
00000000
00000000
00000000
00000000
00110000
00000000
00000000
00000000
00000000
00000000
00000000
00000000
00010000
00000000
01000000
00000000
00100000
00000000
10000000
00000000
00100000
00000000
00000000
00000000
00000000
01000000
00000000
00000000
,
00000000
00000000
00000000
00000000
00001000
00000000
00000000
00000000
00000000
00000000
00000000
00000000
00000000
00000000
00000000
00010000
00000000
00000000
00000000
00000000
00000000
00000000
00000000
00000000
00000000
00001000
00000000
00000000
00000000
00000000
00000000
00000000
00000000
00000000
00000000
00000000
00000100
00000000
00000000
00000000
00000000
00000000
00000000
00000000
00000000
00000000
00000000
00000000
00000010
00000000
00000000
00000000
00000000
00000000
00000000
00000000
00001000
00000000
00000000
00000000
00000000
00000000
00000000
00000000
00000100
00000000
00000000
00000000
00000000
00000000
00000000
00000000
00000001
00000000
00000000
00000000
00000000
00000000
00000000
00000000
00000100
00000000
00000000
00000000
00000000
00000000
00000000
00000000
00001000
00000000
00000000
00000000
00000000
00000000
00000000
00000000
,
00000010
00000001
00000010
00000100
00001000
00010000
01000000
10000000
00100000
00010000
00001000
00010000
,
00001000
00000100
00000010
00000100
00001000
00010000
01000000
00010000
00001000
00000010
00000100
00010000
,
00001000
00010000
00100000
00010000
00001000
00000100
00000220
00000000
00000000
00000000
00000000
00000000
,
00000000
00000330
00000000
00000000
,
00000010
00001000
00000010
00000100
00000001
00000000
00000000
00000000
00000000
00000000
00000000
00000000
00000010
00000100
00000000
00000100
,
00000000
00000100
00000010
00000000
00000001
00000000
00001000
00000000
00001001
00000000
00000000
00000000
00001001
00000000
00000000
00000000
,
00000001
00000100
00001000
00010000
00001000
00000000
00000000
00000000
00011000
00000000
00000000
00000000
00001000
01000000
00000000
01001000
,
00000000
00000000
10010000
00000000
00000000
00000000
10000000
00000000
01000000
00000000
00010000
00000000
01000000
00000000
10000000
01000000
,
00000000
00100000
00001000
00000000
00001000
00000000
00001000
00000000
00001000
00010000
00000000
00000100
00000000
00000010
00000001
00000000
,
00001000
00000000
00000000
00000000
00000001
00000010
00001000
00010000
00001000
00000000
00000000
00000000
00010100
00000000
00000000
00000000
,
00001000
00000010
00000000
00001010
00000000
00000000
00000101
00000000
00000000
00000000
00001000
00000000
00010000
00000000
00100000
00000000
,
10000000
00100000
01000000
00010000
00000000
01000000
00001000
00010000
00000000
00000100
00001000
00000100
00000010
00000100
00000010
00000100
,
00000010
00000100
00000010
00000100
00000010
00000100
00000010
00000100
00001000
00000000
00000000
00000000
00001001
00000000
00000001
00000100
,
00001000
00010000
00021000
00000000
00000000
00000000
00000000
00000000
,
00031000
00000000
00000000
00000000
00000000
00000000
00000000
00000100
00000000
00000000
00000000
00000000
00000000
00000000
00001000
00000000
00000000
00000000
00000000
00000000
00000000
00010000
00000000
00000000
00000000
00000000
00000000
00000000
00000100
00000000
00000000
00000000
00000000
00000000
00000000
00010000
00000000
00000000
00000000
00000000
00000000
00000000
00000000
00000000
00100000
00000000
00000000
00000000
,
00000000
00000000
00000000
00000000
00000000
00000000
00000000
00000000
00000000
00000000
00000000
00000000
00000000
00000000
00000000
00000000
01000000
00000000
00000000
00000000
00000000
00000000
00000000
00000000
00000000
00000000
00000000
00000000
00000000
00000000
00000000
00000000
00000000
00000000
00000000
00000000
00000000
00000000
00000000
00000000
00000000
00000000
00000000
00000000
00000000
00000000
00000000
00000000
00000000
00000000
00000000
00000000
00001000
00000000
00000000
00000000
00000000
00000000
00000000
00000000
00000000
00000000
00000000
00000000
00000000
00000000
00000000
00000000
00000000
00000000
00000000
00000000
00000000
00000000
00000000
00000000
00000000
00000000
00000000
00000000
00000000
00000000
00000000
00000000
00000000
00000000
00000000
00000000
00000000
00000000
00000000
00000000
00000000
00000000
00000000
00000000
00000000
00000000
00000000
00000000
00000000
00000000
00000000
00000000
00000000
00000000
00000000
00000000
00000000
00000000
00000000
00000000
00000000
00000000
00000000
00000000
00000000
00010000
00000000
00000000
00000000
00000000
00000000
00000000
00000000
00000000
00000000
00000000
00000000
00000000
00000000
00000000
00000000
00000000
00000000
00000000
00000000
00000000
00000000
00000000
00000000
00000000
00000000
00000000
00000000
00000000
00000000
00000000
00000000
00000000
00000000
00000000
00000000
00000000
00000000
00000000
00000000
00000000
00000000
00000000
00000000
00000000
00000000
00000000
00000000
00000000
00000000
00000000
00000000
00000000
00000000
00000000
00000000
00000000
00000000
00000000
00000000
00000000
00000000
00000000
00000000
00000000
00000000
00000000
00000000
00000000
00000000
00000000
00000000
00000000
00000000
00000000
,
00000000
00000000
00000000
00000000
00000000
00000000
00000100
00000000
00000000
00000000
00000010
00000000
00000000
00000000
00000000
00000000
00000000
00000000
00000000
00000000
00000000
00001001
00000000
00000000
00000000
00000000
00000000
00000000
00000000
00000000
00000000
00000000
,
00000000
00000000
00000000
00000000
;

//---------------dance-single - ----------------
#NOTEDATA:;
#CHARTNAME:;
#STEPSTYPE:dance-single;
#DESCRIPTION:;
#CHARTSTYLE:;
#DIFFICULTY:Challenge;
#METER:19;
#RADARVALUES:1.120761,1.169209,0.925248,0.019276,1.730021,814.000000,718.000000,96.000000,2.000000,0.000000,0.000000,0.000000,0.000000,0.000000,1.120761,1.169209,0.925248,0.019276,1.730021,814.000000,718.000000,96.000000,2.000000,0.000000,0.000000,0.000000,0.000000,0.000000;
#CREDIT:;
#DISPLAYBPM:103.000000:155.000000;
#NOTES:
// measure 0
0000
0000
0000
0000
,  // measure 1
0000
0000
0000
0000
,  // measure 2
1001
0100
0100
0001
0010
0010
1000
0100
0100
0010
0001
0001
,  // measure 3
0101
0010
0010
0100
0001
0001
0010
0100
0100
1000
0001
0001
,  // measure 4
0110
1000
1000
0100
0010
0010
0100
1000
1000
0001
0100
0100
,  // measure 5
1010
0001
0001
0100
0010
0010
1000
0100
0100
0001
1000
1000
,  // measure 6
0001
0001
0001
0001
0001
0001
0001
0001
0001
0001
0001
0001
,  // measure 7
1000
1000
0000
0010
0000
1000
0100
0000
0001
0000
1000
0000
0101
0000
0000
0000
,  // measure 8
1100
0000
0000
0000
0000
0000
0001
0000
0100
0000
0001
0000
1000
0000
0000
0010
0000
0000
0001
0000
0000
0100
0000
0000
1001
0000
0000
0000
0000
0000
0000
0000
0000
0000
0000
0000
1010
0000
0000
0000
0000
0000
0000
0000
0010
0000
0100
0000
,  // measure 9
0010
1000
0000
1100
0000
0001
0100
0000
0101
0000
1000
0000
0001
0000
0010
0000
,  // measure 10
1000
0000
0100
0010
0001
0100
1000
0000
1000
0000
1000
0000
1000
0100
0010
0001
,  // measure 11
0100
0010
1000
0000
0100
0000
1001
0000
0010
0001
0100
1000
1010
0000
0000
0000
,  // measure 12
0011
0000
0000
0000
0000
0000
0000
0000
1000
0000
0001
0000
1000
0000
0000
0010
0000
0000
0000
0000
0000
0110
0000
0000
0000
0000
0000
0100
0000
0000
0001
0000
0000
0000
0000
0000
1010
0000
0000
0000
0000
0000
1000
0000
0000
0000
0000
0000
,  // measure 13
1100
0000
0011
0000
1000
0100
1000
0001
0100
1000
0010
0001
0010
1000
0100
0001
,  // measure 14
0010
0001
0100
1000
0001
0100
1000
0010
1000
0100
0001
0010
1001
0000
0000
0000
,  // measure 15
0110
0000
0000
0000
0000
0000
0000
0000
1000
0000
0001
0000
1000
0000
0000
0100
0000
0000
0001
0000
0000
0010
0000
0000
0011
0000
0000
0000
0000
0000
1000
0000
0000
0001
0000
0000
1100
0000
0000
0000
0000
0000
0010
0000
0100
0000
0001
0000
,  // measure 16
0100
0010
0000
1001
0000
0100
0001
0000
0010
0100
1000
0000
0001
1000
0010
0100
,  // measure 17
1000
0000
0100
0001
0010
0100
1000
0000
1000
0000
1000
0000
1000
0100
0000
0001
,  // measure 18
0000
0010
0100
0000
0010
0000
1001
0100
0001
0100
1000
0010
0110
0000
1000
0010
,  // measure 19
0101
0000
0000
0000
0000
0000
1000
0000
0010
0000
0100
0000
0001
0000
0000
1000
0000
0000
0000
0000
0000
0011
0000
0000
0000
0000
0000
1000
0000
0000
0010
0000
0000
0000
0000
0000
1000
0000
0000
0100
0000
0000
0001
0000
0000
0000
0000
0000
,  // measure 20
1100
0000
0101
0000
0010
1000
0100
0010
0001
0100
1000
0001
0010
0100
1000
0001
,  // measure 21
0100
0010
0100
0010
0100
0010
0100
0010
0100
0010
0100
0010
0100
0010
0100
0010
0100
0010
1010
0000
0000
0000
0000
0000
,  // measure 22
1001
0000
0000
0000
0000
0000
0010
0100
0001
0000
0010
0000
1000
0000
0000
0000
0101
0000
0000
0000
0000
0000
0010
0000
0000
0000
1000
0000
0100
0000
1000
0000
,  // measure 23
0010
1000
0100
0001
0010
0000
0001
0100
0000
0100
1000
0000
0010
0100
0001
0000
,  // measure 24
0110
0000
0000
0000
1000
0001
0010
1000
0100
0001
0010
0000
0001
0100
0010
0100
,  // measure 25
0001
0010
0100
1000
0001
0000
0100
0010
1000
0100
0001
0010
1000
0001
0100
0010
,  // measure 26
1000
0100
0010
0001
0100
0001
0010
0001
0100
1000
0010
0000
0100
0001
0100
0001
,  // measure 27
1000
0000
0010
0100
1000
0010
0001
1000
0001
0010
1000
0100
0010
0100
1000
0010
,  // measure 28
0001
0100
0001
0000
0010
0001
0100
0010
1000
0100
0010
0001
1000
0001
0010
1000
,  // measure 29
0100
0010
0001
0100
0010
1000
0100
0001
0000
1000
0010
0100
0001
0010
1000
0100
,  // measure 30
0011
0000
1000
0100
0010
0001
1010
0000
0100
0001
0010
1000
0110
0000
0010
0100
,  // measure 31
1000
0001
1010
0000
0001
0010
1000
0100
0101
0000
0001
0010
1000
0100
0010
0001
,  // measure 32
0100
0001
0010
1000
0100
0000
0010
0001
0100
0001
1000
0010
0001
1000
0100
0001
,  // measure 33
1001
0010
1000
0100
0010
0001
0101
0001
0010
1000
0100
0010
0110
1000
0010
1000
,  // measure 34
0100
0001
0011
0100
0010
0001
0100
1000
1100
0010
0100
0010
1000
0001
1010
0001
,  // measure 35
0010
0000
0000
1000
0000
0000
0100
0000
0000
0001
0000
0000
0011
0000
0000
0000
0000
0000
0110
0000
0000
0000
0000
0000
1100
0000
0000
0000
0000
0000
0001
0000
0100
0000
0001
0000
0100
0000
0000
0010
0000
0000
1000
0000
0000
0001
0000
0000
,  // measure 36
0110
0000
0001
0100
1000
0010
0001
1000
1100
0001
0101
1000
1100
0000
0010
1000
,  // measure 37
0100
0001
0010
0100
1001
1000
1010
1000
1100
0000
0001
0000
0010
0000
0101
0000
,  // measure 38
0100
0000
0001
0000
1000
0100
0010
1000
0001
0100
0001
1000
0100
0001
0010
1000
,  // measure 39
0001
0010
0001
0100
1000
0010
0001
1000
0010
0100
0010
1000
0001
0000
0000
1100
,  // measure 40
0000
0000
0101
0000
0000
0011
0000
0000
1010
0010
0100
0001
1000
0100
0001
0010
,  // measure 41
0100
0000
0000
0000
0000
0000
0000
0000
0000
0000
0000
0000
0010
0000
0000
0000
0000
0000
0000
0000
0000
0000
0000
0000
1000
0000
0000
0000
0000
0000
0000
0000
0000
0000
0000
0000
0001
0000
0000
0000
0000
0000
0000
0000
0000
0000
0000
0000
0100
0000
0000
0000
0000
0000
0000
0000
0000
0000
0000
0000
0000
0000
0000
0000
0000
0000
0000
0000
0000
0000
0000
0000
0000
0000
0000
0000
0011
0000
0000
0000
0000
0000
0000
0000
0000
0000
0000
0000
0000
0000
0000
0000
0000
0000
0000
0000
0000
0000
0000
0000
0000
0000
1010
0000
0000
0000
0000
0000
0000
0000
0000
0000
0000
0000
0000
0000
0000
0000
0000
0000
0000
0000
0000
0000
0011
0000
0000
0000
0000
0000
0000
0000
0000
0000
0000
0000
0000
0000
0000
0000
0000
0000
0000
0000
0000
0000
1010
0000
0000
0000
0000
0000
0000
0000
0000
0000
0000
0000
0000
0000
0000
0000
0000
0000
0000
0000
0101
0000
0000
0000
0000
0000
0000
0000
0000
0000
0000
0000
0000
0000
0000
0000
0000
0000
0000
0000
0000
0000
0000
0000
0000
0000
,  // measure 42
1100
0000
0000
0000
0000
0000
0000
0000
0001
0000
0000
0000
0000
0000
0000
0000
1000
0000
0000
0000
0000
0000
0000
0000
0010
0000
0000
0000
0000
0000
0000
0000
0100
0000
0000
0000
0000
0000
0000
0000
0001
0000
0000
0000
0000
0000
0000
0000
0100
0000
0000
0000
0000
0000
0000
0000
0000
0000
0000
0000
0010
0000
0000
0000
0000
0000
0000
0000
0000
0000
0000
0000
0100
0000
0000
0000
0000
0000
0000
0000
0000
0000
0000
0000
1000
0000
0000
0000
0000
0000
0000
0000
0000
0000
0000
0000
0010
0000
0000
0000
0000
0000
0000
0000
0000
0000
0000
0000
1000
0000
0000
0000
0000
0000
0000
0000
0000
0000
0000
0000
0100
0000
0000
0000
0000
0000
0000
0000
0000
0000
0000
0000
0001
0000
0000
0000
0000
0000
0000
0000
0000
0000
0000
0000
1000
0000
0000
0000
0000
0000
0000
0000
0000
0000
0000
0000
0000
0000
0000
0000
0000
0000
0000
0000
0000
0000
0000
0000
0000
0000
0000
0000
0000
0000
0101
0000
0000
0000
0000
0000
0000
0000
0000
0000
0000
0000
0000
0000
0000
0000
0000
0000
,  // measure 43
0000
0000
0000
0000
0000
0000
0000
0000
1010
0000
0000
0000
0000
0000
0000
0000
0000
0000
0000
0000
0000
0000
0000
0000
0000
0000
0000
0000
0000
0000
0011
0000
0000
0000
0000
0000
0000
0000
0000
0000
0000
0000
0000
0000
0000
0000
0000
0000
0000
0000
1100
0000
0000
0000
0000
0000
0000
0000
0000
0000
0000
0000
0000
0000
0000
0000
0000
0000
0000
0000
0000
0000
1001
0000
0000
0000
0000
0000
0000
0000
0000
0000
0000
0000
0000
0000
0000
0000
0000
0000
0000
0000
0000
0000
0000
0000
0010
0000
0000
0000
0000
0000
0000
0000
0000
0000
0000
0000
0000
0000
0000
0000
0010
0000
0000
0000
0000
0000
0000
0000
0000
0000
0000
0000
0000
0000
0000
0000
0010
0000
0000
0000
0000
0000
0000
0000
0000
0000
0000
0000
0000
0000
0000
0000
1000
0000
0000
0000
0000
0000
0000
0000
0000
0000
0000
0000
0000
0000
0000
0000
1000
0000
0000
0000
0000
0000
0000
0000
0000
0000
0000
0000
0000
0000
0000
0000
1000
0000
0000
0000
0000
0000
0000
0000
0000
0000
0000
0000
0000
0000
0000
0000
,  // measure 44
0100
0100
0100
0001
0001
0001
1000
1000
1000
0100
0100
0100
,  // measure 45
0001
0001
0001
0010
0010
0010
0100
0100
0100
0001
0001
0001
,  // measure 46
0010
0000
0000
0000
0010
0000
0000
0000
0010
0000
0000
0000
1000
0000
0000
0000
1000
0000
0000
0000
1000
0000
0000
0000
0110
0000
0000
0000
0000
0000
0000
0000
0000
0000
0000
0000
0100
0000
0000
0001
0000
0000
0100
0000
0000
0001
0000
0000
,  // measure 47
0100
0001
0100
0001
0100
0001
0100
0000
0001
0100
0000
0000
0000
0000
0000
0000
,  // measure 48
0001
0010
1000
0100
1001
0000
0000
0000
0000
0000
0000
0000
0010
0010
0000
0101
,  // measure 49
0000
0000
0000
1000
0000
0000
0001
0000
0000
0000
0000
0000
0100
0000
0000
0000
0000
0000
0010
0000
0000
0000
0000
0000
1001
0000
0000
0000
0000
0000
0000
0000
0000
0000
0000
0000
0110
0000
0000
0000
0000
0000
0010
0000
1000
0000
0100
0000
,  // measure 50
0010
0000
0000
0001
0000
0000
0100
0000
0000
1000
0000
0000
0011
0000
0000
0000
0000
0000
0000
0000
0000
0000
0000
0000
1010
0000
0000
0000
0000
0000
0000
0000
0100
0000
0001
0000
1000
0000
0000
0010
0000
0000
0000
0000
0000
0110
0000
0000
,  // measure 51
0001
0010
1000
0100
0010
0001
0100
1000
0001
0000
0100
0000
0001
0000
0010
1000
,  // measure 52
0100
0010
0001
0000
0001
0000
0001
0000
0001
0100
0010
1000
0100
0001
1000
0000
,  // measure 53
0010
0000
0000
0000
0000
0000
0000
0000
0000
0000
0000
0000
0100
0000
0000
0000
0000
0000
0000
0000
0000
0000
0000
0000
0010
0000
0000
0000
0000
0000
1000
0000
0000
0000
0000
0000
0010
0000
0000
0000
0000
0000
1000
0000
0000
0000
0000
0000
0010
0000
0000
0000
0000
0000
0000
0000
0000
0000
0000
0000
0001
0000
0000
0000
0000
0000
0000
0000
0000
0000
0000
0000
0100
0000
0000
0000
0000
0000
0000
0000
0000
0000
0000
0000
1000
0000
0000
0000
0000
0000
0000
0000
0000
0000
0000
0000
1100
0000
0000
0000
0000
0000
0000
0000
0000
0000
0000
0000
0000
0000
0000
0000
0000
0000
0000
0000
0000
0000
0000
0000
0010
0000
0000
0000
0000
0000
0000
0000
0000
0000
0000
0000
0100
0000
0000
0000
0000
0000
0000
0000
0000
0000
0000
0000
0011
0000
0000
0000
0000
0000
0000
0000
0000
0000
0000
0000
0000
0000
0000
0000
0000
0000
0000
0000
0000
0000
0000
0000
1000
0000
0000
0000
0000
0000
0000
0000
0100
0000
0000
0000
0000
0000
0000
0000
0010
0000
0000
0000
0000
0000
0000
0000
,  // measure 54
0001
0100
0010
1001
0000
0100
1000
0010
0001
0100
0110
0000
1001
0000
1010
0000
,  // measure 55
1000
0000
0000
0100
0000
0000
0001
0000
0000
0010
0000
0000
1000
0000
0000
0001
0000
0000
0010
0000
0000
1000
0000
0000
0100
0000
0000
0010
0000
0000
0001
0000
0000
1000
0000
0000
0010
0000
0100
0000
0010
0000
0100
0000
0010
0000
0100
0000
,  // measure 56
0010
0000
0100
0000
0010
0000
0100
0000
0010
0000
0100
0000
0010
0000
0100
0000
0010
0000
0100
0000
0010
0000
0100
0000
0101
0000
0000
0000
0000
0000
0010
0000
0000
1000
0000
0000
1100
0000
0000
0000
0000
0000
0010
0000
0000
0001
0000
0000
,  // measure 57
1001
0101
2020
0000
0000
0000
3000
0000
,  // measure 58
1030
0000
0000
0000
0000
0000
0000
0011
0000
0000
0000
0000
0000
0000
0101
0000
0000
0000
0000
0000
0000
0100
0000
0000
0000
0000
0000
0000
1010
0000
0000
0000
0000
0000
0000
0110
0000
0000
0000
0000
0000
0000
0000
0000
0010
0000
0000
0000
,  // measure 59
0000
0000
0000
0000
0000
0000
0000
0000
0000
0000
0000
0000
0000
0000
0000
0000
1000
0000
0000
0000
0000
0000
0000
0000
0000
0000
0000
0000
0000
0000
0000
0000
0000
0000
0000
0000
0000
0000
0000
0000
0000
0000
0000
0000
0000
0000
0000
0000
0000
0000
0000
0000
0100
0000
0000
0000
0000
0000
0000
0000
0000
0000
0000
0000
0000
0000
0000
0000
0000
0000
0000
0000
0000
0000
0000
0000
0000
0000
0000
0000
0000
0000
0000
0000
0000
0000
0000
0000
0000
0000
0000
0000
0000
0000
0000
0000
0000
0000
0000
0000
0000
0000
0000
0000
0000
0000
0000
0000
0000
0000
0000
0000
0000
0000
0000
0000
0000
0110
0000
0000
0000
0000
0000
0000
0000
0000
0000
0000
0000
0000
0000
0000
0000
0000
0000
0000
0000
0000
0000
0000
0000
0000
0000
0000
0000
0000
0000
0000
0000
0000
0000
0000
0000
0000
0000
0000
0000
0000
0000
0000
0000
0000
0000
0000
0000
0000
0000
0000
0000
0000
0000
0000
0000
0000
0000
0000
0000
0000
0000
0000
0000
0000
0000
0000
0000
0000
0000
0000
0000
0000
0000
0000
,  // measure 60
0000
0000
0000
0000
0000
0000
1100
0000
0000
0000
0011
0000
0000
0000
0000
0000
0000
0000
0000
0000
0000
1001
0000
0000
0000
0000
0000
0000
0000
0000
0000
0000
;
