#TITLE:Closer;
#ARTIST:Tegan and Sara;
#BANNER:Closer-bn.png;
#BACKGROUND:Closer-bg.png;
#JACKET:Closer-jacket.png;
#MUSIC:Closer.ogg;
#SAMPLESTART:28.029;
#SAMPLELENGTH:20;
#DISPLAYBPM:137;
#BPMS:0=137;
#BGCHANGES:;

//---------------dance-single - ----------------
#NOTES:
     dance-single:
     :
     Beginner:
     4:
     :
0000
0000
0000
0000
,
0000
0000
0000
0000
,
0000
0000
0000
0000
,
0000
0000
0000
0000
,
0000
0000
0000
0000
,
0000
0000
0000
0000
,
0000
0000
0000
0000
,
0000
0000
0000
0000
,
0010
0000
0001
0000
,
0100
0000
0010
0000
,
1000
1000
1000
1000
,
0000
0000
0000
0000
,
0010
0000
0100
0000
,
0001
0000
1000
0000
,
0100
0100
0100
0100
,
0000
0000
0000
0000
,
1000
0000
0001
0000
,
0100
0000
0010
0000
,
1000
1000
0000
0001
,
0001
0000
0100
0000
,
0010
0000
1000
1000
,
0000
0000
0001
0001
,
0001
0000
0000
0100
,
0000
0010
0000
1000
,
0000
0100
0000
1000
,
0000
0000
0001
0001
,
0001
0001
0000
0010
,
0000
0001
0000
0100
,
0100
0000
1000
0000
,
1001
0000
0001
0000
,
1001
0000
0000
0010
,
0000
1000
1000
0000
,
0001
0000
0100
0100
,
0100
0100
0000
0000
,
0000
0000
0001
0001
,
0001
0001
0000
0000
,
0000
0000
0010
0010
,
0010
0010
0000
0000
,
0000
0000
0001
0001
,
0001
0001
0000
0000
,
0000
0000
1000
0000
,
0001
0000
1000
0000
,
0010
0000
0100
0100
,
0100
0100
0000
0000
,
0000
0000
0010
0000
,
1000
0000
0100
0000
,
0010
0000
0001
0001
,
0001
0001
0000
0000
,
0000
0000
1000
1000
,
0000
0000
0010
0000
,
0100
0000
0001
0001
,
0000
0010
0010
0000
,
0001
0000
1000
0000
,
0010
0010
0000
0000
,
1000
1000
1000
1000
,
0000
0001
0000
0010
,
0000
0001
0000
1000
,
0000
0100
0000
0000
,
0010
0010
0010
0010
,
0000
0001
0000
1000
,
0000
0010
0000
0100
,
0000
0001
0001
0001
,
0000
1000
1000
1000
,
0000
0010
0010
0000
,
1000
0000
0001
0000
,
1000
0000
0010
0010
,
0010
0000
1000
1000
,
0000
0001
0001
0000
,
0010
0000
0100
0000
,
0010
0000
0000
0000
;

//---------------dance-single - ----------------
#NOTES:
     dance-single:
     :
     Easy:
     7:
     :
0000
0000
0000
0000
,
0000
0000
0000
0000
,
0000
0000
0000
0000
,
0000
0000
0000
0000
,
0000
0000
0000
0000
,
0000
0000
0000
0000
,
0000
0000
0000
0000
,
0000
0000
0000
0000
,
0010
1000
0010
1000
,
0100
0010
0001
0000
,
1000
0001
0100
0100
,
0010
0010
0010
0010
,
1000
0001
1000
0100
,
0010
0001
0001
0000
,
0100
0010
0100
0010
,
1000
1000
1000
1000
,
0001
0100
0000
0010
,
1000
0100
1000
0001
,
0100
0010
0000
1000
,
0001
0001
0100
0100
,
0010
1000
0001
0011
,
1000
0100
1001
1001
,
0110
1001
0010
1000
,
0100
0001
0100
0100
,
0100
0010
1000
1100
,
0001
0100
0110
0110
,
1001
0110
0001
0010
,
0001
0100
1000
0010
,
1000
0001
0100
0010
,
0200
0300
0010
1000
,
0020
0030
1000
0100
,
1000
0001
0100
0100
,
0100
0010
1000
0100
,
1000
0001
0000
0100
,
0010
1000
0001
0010
,
0001
1000
0000
0010
,
1000
0100
1000
0010
,
0001
0100
0000
0001
,
0010
0100
1000
0010
,
1000
0001
0010
0010
,
0010
0010
0001
0010
,
1000
0100
1000
0001
,
0001
0000
0010
0001
,
0010
0100
1000
0010
,
0100
0001
0010
0001
,
0100
0001
1000
1000
,
1000
0000
0010
1000
,
0010
0100
0001
0010
,
0001
0010
0001
0100
,
0000
1000
0010
0010
,
1000
1000
0100
0010
,
0000
0001
1000
0001
,
0100
0010
1000
0100
,
0001
0011
0100
0010
,
1010
1010
0101
1100
,
0010
1000
0100
0001
,
0010
0001
0100
0010
,
1000
0110
0001
0010
,
0011
0011
1100
0101
,
0100
1000
0010
1000
,
0001
0001
0001
0001
,
0001
1100
0101
1100
,
0001
1100
0101
1100
,
0000
0110
0110
0000
,
0010
1000
0100
0001
,
0010
0011
1010
0011
,
0100
1010
0011
1010
,
0000
1001
1001
0000
,
0010
1000
0100
0001
,
0010
0000
0000
0000
;

//---------------dance-single - ----------------
#NOTES:
     dance-single:
     :
     Medium:
     9:
     :
0000
0000
0000
0000
,
0000
0000
0000
0000
,
0000
0000
0000
0000
,
0000
0000
0000
0000
,
0000
0000
0000
0000
,
0000
0000
0000
0000
,
0000
0000
0000
0000
,
0000
0000
0000
0010
,
0100
0000
0001
1000
0000
0000
1000
0000
,
0010
0000
0100
0001
0000
0000
0000
0010
,
0001
0100
1000
0000
2000
0000
3002
0000
,
0103
0100
0100
0100
,
0001
0000
1000
0010
0000
0000
1000
0000
,
0100
0000
0010
0001
0000
0000
0000
0000
,
1000
0001
1000
0010
0200
0000
0302
0000
,
0013
0010
0010
0010
,
0001
0100
1000
0010
0000
0000
0110
0000
,
1001
0000
0010
0000
1000
0100
0001
0000
,
0011
0000
1100
0000
0000
0010
0200
0000
,
0302
0000
2003
0000
3020
0000
1030
0002
,
0000
0203
0000
0310
0000
0000
1010
0000
,
0000
0101
0000
0000
0010
0000
0010
0000
,
0001
0100
1000
0000
0000
0010
1000
0001
,
0000
1000
0100
0010
0001
0000
0001
0000
,
0001
0100
0010
1000
0100
0000
1100
0000
,
0000
0011
0000
0000
0100
0000
0100
0000
,
0010
1000
0001
0000
0000
1000
0100
0010
,
0000
0001
0100
0010
1000
0000
1000
0000
,
1000
0000
0010
0000
0100
0000
0001
0000
0010
0000
0000
0010
0000
0000
0002
0000
,
2000
0000
0000
0000
3003
0000
0000
0000
0010
0000
0000
0010
0000
0000
2000
0000
,
0002
0000
3003
0000
0000
0100
0010
1000
,
0000
1000
0100
1000
0010
0000
0010
0000
,
0010
1000
0001
1000
0100
0010
0001
0010
,
0002
0000
2003
0000
3000
0010
0100
0000
,
0010
1000
0001
0000
0100
0001
0010
0100
,
2000
0000
3002
0000
0103
0010
1000
0000
,
0100
0010
0001
0000
0010
0001
0010
0100
,
2000
0000
3020
0000
0030
1000
0001
0000
,
1000
0100
0010
0001
0100
0001
0100
0001
,
0020
0230
1300
1000
,
1000
0000
1000
0000
0001
0000
0100
0010
,
0000
0000
0100
0000
0001
0000
1000
0010
,
0000
0000
0000
1000
0100
0010
0001
0000
,
0200
0302
1003
1000
,
0001
0000
0001
0000
0100
0000
0010
1000
,
0000
0000
0100
0000
1000
0000
0010
0001
,
0000
0000
0000
0000
1000
0010
1000
0010
,
0200
0302
0103
0100
,
0010
0000
0010
0000
1000
0010
0001
0100
,
0000
0110
1001
0010
,
1000
0100
0001
0000
0101
0000
1100
0000
,
0010
1000
0002
0000
0023
0000
0230
0000
,
2300
0000
3010
0200
0000
0302
0000
1003
,
0000
0000
1100
0000
0000
0011
0000
0000
,
0100
0000
0100
0000
0010
1000
0001
0000
,
0000
1000
0100
0010
0000
0001
0100
0010
,
1000
0000
1000
0000
1000
0010
0100
0001
,
0010
0000
0101
0000
0000
1100
0000
0000
,
0001
0000
0001
0000
0100
0010
1000
0000
,
0000
0100
1000
0001
0000
0010
0001
0100
,
0010
0000
0010
0000
0010
1000
0001
0000
,
0100
1010
0101
0011
,
1100
0101
1100
0101
,
0010
0000
1001
0000
0110
0000
0000
1001
,
0000
1000
0100
0010
0001
0100
0010
1000
,
0001
0011
1100
0101
,
1010
1001
0110
1001
,
0010
0000
0101
0000
1010
0000
0000
0101
,
0000
0010
1000
0100
1000
0010
0100
0001
,
0010
0000
0000
0000
;

//---------------dance-single - ----------------
#NOTES:
     dance-single:
     :
     Hard:
     12:
     :
0000
0000
0000
0000
,
0000
0000
0000
0000
,
0000
0000
0000
0000
,
0000
0000
0000
0000
,
0000
0000
0000
0000
,
0000
0000
0000
0000
,
0000
0000
0000
0000
,
0000
0000
0000
0010
,
1001
0000
0010
1000
0100
0010
0001
0000
,
0110
0000
0001
0100
0000
0010
1000
0001
,
1000
0000
0100
0000
0001
0000
0000
0000
0010
0001
0000
0000
1000
0100
0000
0000
,
2000
3020
0230
0301
,
0011
0000
0100
0010
0100
0001
1000
0000
,
1100
0000
0010
1000
0000
0100
1000
0001
,
0010
0000
0100
0000
1000
0000
0000
0000
0001
0100
0000
0000
0010
1000
0000
0000
,
0002
2003
3020
0130
,
0010
1000
0100
0001
0000
0010
0001
0100
,
1010
0000
0101
0010
1000
0100
1000
0001
,
0010
0001
0100
1000
0000
0010
0100
0000
,
1000
0010
0001
0000
0100
0010
1000
0001
,
0000
0110
0000
1001
0010
1000
0101
0000
,
0001
1100
0000
0010
1001
0000
1001
0000
,
0010
1000
0100
0000
1000
0010
0100
0010
,
0100
1000
0100
0001
0100
1000
0100
0001
,
0010
1000
0010
0100
0010
0000
0011
0001
,
0100
1010
0000
0100
0110
0000
0110
0000
,
0001
0100
1000
0000
0010
1000
0010
0001
,
0010
1000
0100
0010
1000
0010
0100
0010
,
0001
0000
0100
0000
0010
0000
1000
0000
0001
0000
0100
0010
0000
0100
0010
0000
,
2000
0000
0001
0000
3001
0000
0000
0000
0010
0000
0001
0100
0000
0001
0100
0000
,
0020
0000
1000
0000
1030
0000
0000
0000
0100
0000
0010
0001
0000
0010
0001
0000
,
0100
0010
1000
0001
0010
1000
0010
0100
,
0010
1000
0010
0001
0100
1000
0100
0001
,
0010
0100
1100
0000
0000
0001
0101
0000
,
0100
0010
1000
0001
0010
0001
0010
0100
,
1000
0001
0000
0000
0100
0010
0000
0000
1000
0000
0100
0000
1100
0000
0000
0000
,
0001
0100
1001
0000
0010
0001
0100
0010
,
1000
0100
0011
0000
0000
1000
1010
0000
,
0001
1000
0001
0100
1000
0100
0001
0100
,
0010
1000
0000
0000
0001
0100
0000
0000
0002
0000
0000
0000
2003
0000
0000
0000
,
3020
0000
0130
0000
0101
0000
0010
0001
,
0100
0010
1000
0000
1100
0000
1000
0010
,
0000
0100
0001
1000
0001
0010
1000
0000
,
0100
1000
0000
0000
0001
0100
0000
0000
0020
0000
0000
0000
2030
0000
0000
0000
,
3002
0000
0103
0000
1010
0000
0100
1000
,
0001
1000
0100
0000
0011
0000
0010
0001
,
0000
0100
0010
1000
0100
1000
0001
0000
,
0010
0001
0000
0000
1000
0100
0000
0000
0020
0000
0000
0000
0230
0000
0000
0000
,
2300
0000
3002
0000
0013
0001
0100
1000
,
0000
0010
0100
0010
1010
0000
0110
0001
,
0010
1000
0010
0100
0010
1000
0010
0001
,
0000
0100
0010
0000
1000
0100
0001
0000
,
0010
0001
0100
1000
0000
0110
0000
1001
,
0010
1000
0101
0000
0001
0011
0000
0100
,
0110
0000
0110
0000
0010
0001
1000
0000
,
0010
1000
0010
0001
0010
0100
1000
0100
,
0001
0010
1000
0010
0100
0010
0001
0100
,
0010
0000
1010
0001
1000
1100
0000
0010
,
1001
0000
1001
0000
0100
0001
1000
0000
,
0010
0100
0010
0001
0010
0100
1000
0100
,
0001
0010
0001
1000
0010
0100
0010
1000
,
0001
0000
0000
0000
0010
0001
0000
0000
0010
0100
0000
0000
1000
0010
0000
0000
,
0100
0000
0000
0000
0001
0010
0000
0000
0001
0100
0000
0000
0010
1000
0000
0000
,
0100
0000
1010
0000
0101
0000
0010
1000
,
0100
0001
0100
0010
0001
1000
0001
0100
,
0010
0000
0000
0000
1000
0001
0000
0000
1000
0100
0000
0000
0010
0001
0000
0000
,
0100
0000
0000
0000
0001
1000
0000
0000
0001
0010
0000
0000
0100
1000
0000
0000
,
0010
0000
0101
0000
1100
0000
0010
1000
,
0100
0010
1000
0010
0100
0010
0001
0100
,
0010
0000
0000
0000
;
