#TITLE:Closer to my Heart (jun remix);
#ARTIST:NM feat. Heather Elmer;
#BANNER:Closer to my Heart (jun remix).png;
#BACKGROUND:Closer to my Heart (jun remix)-bg.png;
#JACKET:Closer to my Heart (jun remix)-jacket.png;
#MUSIC:Closer to my Heart (jun remix).ogg;
#SAMPLESTART:41.38;
#SAMPLELENGTH:20;
#DISPLAYBPM:145;
#BPMS:0=145;
#BGCHANGES:;

//---------------dance-single - ----------------
#NOTES:
     dance-single:
     :
     Beginner:
     2:
     :
0000
0000
0000
0000
,
0000
0000
0000
0000
,
0000
0000
0000
0000
,
0000
0000
0000
0000
,
0000
0000
0000
0000
,
0100
0000
0100
0000
,
0001
0000
0001
0000
,
0010
0000
0010
0000
,
1000
0000
0001
0000
,
1000
0000
0000
0000
,
0010
0000
0000
0000
,
1000
0000
0000
0000
,
0001
0000
0000
0000
,
0100
0000
0100
0000
,
0010
0000
0010
0000
,
1000
0000
0001
0000
,
1001
0000
0000
0000
,
1000
0000
1000
0000
,
0100
0000
0000
0000
,
0001
0000
0001
0000
,
0100
0000
0001
0000
,
0010
0000
0010
0000
,
1000
0000
0000
0000
,
0001
0000
1000
0000
,
1001
0000
0000
0000
,
0001
0000
0010
0000
,
0001
0000
0000
0000
,
1000
0000
0100
0000
,
1000
0000
0000
0000
,
0010
0000
0000
0000
,
1000
0000
0000
0000
,
0200
0000
0000
0000
,
0300
0000
0000
0000
,
0010
0000
0001
0000
,
0010
0000
0000
0000
,
0001
0000
0100
0000
,
0001
0000
0000
0000
,
1000
0000
0000
0000
,
0100
0000
0000
0000
,
0020
0000
0000
0000
,
0030
0000
0000
0000
,
0110
0000
0000
0000
,
0002
0000
0000
0000
,
0003
0000
0000
0000
,
1000
0000
1000
0000
,
0001
0000
0001
0000
,
0100
0000
0000
0000
,
0010
0000
0000
0000
,
1000
0000
0000
0000
,
0001
0000
0000
0000
,
0100
0000
0100
0000
,
0001
0000
0000
0000
,
0010
0000
0010
0000
,
0001
0000
0000
0000
,
1000
0000
0010
0000
,
1000
0000
0001
0000
,
0010
0000
0100
0000
,
0010
0000
1000
0000
,
0002
0000
0000
0000
,
0003
0000
0000
0000
,
0000
0000
0000
0000
;

//---------------dance-single - ----------------
#NOTES:
     dance-single:
     :
     Easy:
     7:
     :
0000
0000
0000
0000
,
0000
0000
0000
0000
,
0000
0000
0000
0000
,
0000
0000
0000
0000
,
0000
0000
0000
0000
,
0001
0100
0001
1000
,
0010
1000
0010
0100
,
0001
0010
0001
1000
,
0100
0010
0100
0000
0010
0100
0010
0000
,
0100
1000
0001
0000
,
0020
0030
0200
0300
,
1000
0010
1000
0001
,
0010
0100
0010
0001
,
1000
0100
0010
0001
,
0100
0001
0100
0000
0010
1000
0010
0000
,
1000
0001
0100
0010
,
0110
0000
1000
0001
,
1001
1000
0100
0010
,
0002
0003
2000
3000
,
0010
0100
0010
1000
,
0002
0003
1000
1001
,
0001
0010
0100
1000
,
0001
0000
2000
0000
0000
3010
0000
0010
,
0000
0100
0000
0100
0000
0001
0000
1000
,
0000
0100
0010
0100
0010
0000
1001
0000
,
2000
3200
0310
0100
,
0110
0000
1000
0010
,
2000
3020
0130
0010
,
0110
0000
0001
1000
,
0110
0000
0010
0100
,
1001
0000
1000
0001
,
0220
0000
0330
0001
,
1000
0000
0100
0000
0010
0100
0010
0000
,
0002
0203
0320
2030
,
3001
0010
0100
0010
,
0002
2003
3020
0230
,
0301
0010
0001
1000
,
1001
0000
0100
0010
,
0110
0000
1000
0001
,
0200
0000
0300
0010
,
1000
0000
0100
0000
0010
0001
0010
0000
,
1001
0000
0110
1001
,
0002
0000
0023
0000
,
0230
0000
1300
0000
,
0010
1000
0010
0100
,
0001
0010
0001
0000
1000
0010
1000
0000
,
0010
0110
1000
0001
,
0010
0110
1000
0001
,
2002
0000
3003
1000
,
0010
0100
0001
1000
,
0001
0000
0100
0000
0010
0100
0010
0000
,
2000
0000
0001
3001
,
1000
0000
0100
0000
0010
0100
0010
0000
,
0002
0000
1000
1003
,
0001
0100
0001
0100
,
0010
1000
0010
1000
,
0100
0010
0100
0010
,
0001
0000
1000
0000
0010
0100
0010
0100
,
0020
0000
0000
0000
,
0030
0000
0000
0000
,
0000
0000
0000
0000
;

//---------------dance-single - ----------------
#NOTES:
     dance-single:
     :
     Medium:
     11:
     :
0000
0000
0000
0000
,
0000
0000
0000
0000
,
0000
0000
0000
0000
,
0000
0000
0000
0000
,
0000
0000
0000
0000
,
0010
0100
0010
1000
0001
1000
0010
0000
,
1000
0010
1000
0001
0100
0001
1000
0000
,
0001
0010
0001
1000
0100
1000
0001
0000
,
0100
0010
1000
0100
0010
0001
0100
0001
,
0000
1000
0010
0000
0010
0100
0000
0002
,
0000
1003
0020
0000
1030
0000
0100
0000
,
0010
0000
0001
0000
0100
0020
0000
2030
,
0000
3010
0100
0000
0001
0000
1000
0020
,
0000
1030
0001
0000
0100
0010
0100
0001
,
0000
1000
0100
0000
0010
0001
0010
0001
,
0000
1000
0020
0000
1030
0001
0100
0001
,
0010
0000
0001
0000
1000
0010
1000
0010
,
0100
0000
0001
0000
0010
0100
0010
0002
,
0000
1003
0010
2000
0000
3001
0010
0000
,
0001
0000
1000
0000
0010
0100
0010
2000
,
0000
3001
0100
0000
0010
1000
0200
0000
,
0310
0000
0001
0000
1000
0100
1000
0020
,
0000
0130
0001
0000
0000
0100
0010
1000
,
0000
0001
0000
0100
0000
0010
0000
1000
,
0000
0100
0010
0100
0110
0000
1001
0000
,
0002
0000
2003
0000
3001
0100
0010
0200
,
0000
0310
0100
0000
0010
1000
0100
0000
,
2000
0000
3002
0000
1003
0010
0100
0020
,
0000
0130
0010
0000
0100
0001
0010
0100
,
1000
0000
1010
0000
0010
1000
0100
0010
,
0001
0000
0101
0000
1000
0010
1000
0001
,
0200
0000
0301
0000
1000
0100
0010
0001
,
1000
0000
0001
0000
0100
0010
0100
0010
,
2000
0000
3002
0000
1003
0100
0001
0200
,
0000
0310
0100
0000
1000
0010
0100
0000
,
0002
0000
2003
0000
3001
0010
1000
0020
,
0000
0130
0010
0000
0001
0100
0010
1000
,
0100
0000
0110
0000
1000
0010
0100
0001
,
0010
0000
0110
0000
0001
1000
0010
0100
,
0020
0000
0000
0000
0030
2000
3200
0320
,
0031
0000
0100
0000
0001
0100
0001
0100
,
0010
0000
0000
1000
0000
0000
0100
0000
0000
0010
0000
0000
0001
0000
0010
0000
,
0002
0000
0203
0000
0310
1000
0010
0200
,
0000
0301
0002
1003
,
0001
0000
1000
0000
0010
0100
0001
0100
,
0010
1000
0010
1000
0100
0010
0001
1000
,
0100
0000
0011
0000
1000
0010
0100
0001
,
0010
0000
1100
0000
0001
0100
0010
0000
,
0220
0000
0000
0000
0330
0000
1000
0010
,
1000
0000
0100
0000
0010
0001
0100
0010
,
1000
0000
0001
0020
0000
0032
2003
3200
,
0310
0000
0100
0000
1000
0100
1000
0000
,
0001
0000
1000
0200
0000
2300
3002
0023
,
0130
0000
0010
0000
0001
0010
0001
0000
,
1000
0010
1000
0001
0100
0001
0020
2030
,
3010
0100
0010
0001
0100
0001
0200
2300
,
3100
0001
0100
0010
1000
0010
2000
3200
,
0301
0100
1000
0010
1000
0010
0001
0010
,
0200
0000
0000
0000
,
0300
0000
0000
0000
,
0000
0000
0000
0000
;

//---------------dance-single - ----------------
#NOTES:
     dance-single:
     :
     Hard:
     14:
     :
0000
0000
0000
0000
,
0000
0000
0000
0000
,
0000
0000
0000
0000
,
0000
0000
0000
0000
,
0000
0000
0000
0000
,
1000
0100
1000
0100
0010
0000
0001
0100
0001
0100
0010
0000
1000
0000
0001
0000
,
0010
0100
0010
0100
1000
0000
0010
0100
0010
0100
0001
0000
0010
0000
0100
0000
,
1000
0100
0010
0100
1000
0000
0001
0100
0010
0100
0001
0000
1000
0000
0001
0000
,
1000
0100
0010
0001
0001
0100
0010
1000
,
0000
1000
0100
0001
0100
0010
0000
0002
,
0000
0000
1003
0000
0020
0000
0000
0000
0130
0000
0001
0100
0001
0000
1000
0000
,
0001
0100
1000
0100
0010
2000
0000
3200
,
0000
0310
0100
0000
1000
0010
0100
0002
,
0000
0103
1000
0100
0001
0010
1000
0001
,
0100
0000
1000
0000
0100
0000
0010
0000
0001
0000
0010
0001
0010
0000
0001
0000
,
0100
0010
2000
0000
3001
0100
0010
0100
,
0001
0000
1000
0000
0100
0000
0010
0000
0001
0000
0100
0010
0100
0000
0001
0000
,
1001
0000
1000
0100
0001
0100
1000
0002
,
0000
0103
0002
2000
0003
3010
2000
0000
,
3001
1000
0001
0100
1000
0100
0001
0020
,
0000
0000
1030
0000
0001
0000
0100
0000
1000
0000
0010
0100
0020
0000
0000
0000
,
0031
1000
0100
0001
1000
0100
0001
0200
,
0000
0310
0001
1000
0010
1000
0001
1001
,
0000
0001
0100
0101
0000
1000
0010
1010
,
1000
0000
0100
0000
0100
0000
0100
0000
0110
0000
0000
0000
0001
0010
0001
0010
,
0002
0103
2000
3100
0001
0010
0100
2000
,
0000
3010
0100
0001
1000
0100
0010
0001
,
2000
3100
0002
0103
1000
0010
0100
0002
,
0000
0013
0100
1000
0001
0100
0010
1000
,
0100
0010
0001
0000
1000
0000
0010
1000
0001
0000
0100
0000
0010
0000
1000
0000
,
0001
0010
0100
0000
1000
0000
0010
0100
0001
0000
1000
0000
0100
0000
0010
0000
,
0001
1000
0010
0000
0100
0000
0001
0010
0100
0000
2000
0000
3002
0000
2003
0000
,
3001
0000
0100
0000
1000
0000
0100
0000
0010
0000
1000
0010
1000
0000
0001
0000
,
2000
3010
0002
1003
0100
0010
1000
0200
,
0000
0301
0100
1000
0010
0100
0001
1000
,
0002
0013
2000
3001
0100
0010
0001
0200
,
0000
1300
0100
0001
0010
0100
1000
0001
,
0100
0000
0010
0100
0001
0000
0010
0100
1000
0000
0001
0000
1000
0000
0100
0000
,
1000
0000
0001
0010
0100
0000
1000
0001
0100
0000
0010
0000
0001
0000
0010
0000
,
0200
0000
0001
0000
0310
2000
3200
0302
,
0103
1000
0010
0001
0010
1000
0100
0010
,
0001
0000
1000
0100
0000
0001
0100
0000
0010
0001
0000
0010
1000
0000
0110
0000
,
2000
0000
3020
0000
1030
0001
0010
0200
,
0000
0000
0000
0000
0000
0000
0000
0000
0300
0000
0000
0000
0000
0000
1000
0100
,
1000
0001
0100
0010
1000
0100
0001
0100
,
0010
0100
1000
0000
0001
0100
0010
0000
1000
0100
0010
0000
0001
0100
0010
0000
,
0100
0000
1010
0000
0001
0010
1000
0010
,
0110
0000
0011
0000
1000
0100
0001
0100
,
2000
0000
0020
0000
3030
0000
1000
0001
,
1000
0000
0100
0000
0010
0000
0100
0000
0010
0001
0010
0000
0001
0100
0001
0000
,
1000
0000
0010
1000
0010
0000
0200
0000
0000
0000
0320
0000
2030
0000
3200
0000
,
0310
0001
0100
1000
0100
0001
1000
0010
,
1000
0000
0001
0100
0010
0000
2000
0000
0000
0000
3002
0000
0023
0000
0230
0000
,
1300
0010
1000
0100
0001
0100
1000
0010
,
0100
0001
0100
0001
1000
0000
0100
1000
0100
1000
0001
0000
0100
0000
0001
0000
,
1000
0010
1000
0010
0100
0000
0001
0010
0001
0010
0100
0000
0010
0000
0001
0000
,
0100
0010
0100
0010
1000
0000
0100
0010
0100
0010
0001
0000
2000
0000
3002
0000
,
1003
0100
1000
0000
0001
0100
0001
0000
0100
0000
0010
0100
0010
0000
1000
0000
,
2002
0000
0000
0000
,
3003
0000
0000
0000
;

//---------------dance-single - ----------------
#NOTES:
     dance-single:
     :
     Challenge:
     18:
     :
0000
0000
0000
0000
,
0000
0000
0000
0000
,
0000
0000
0000
0000
,
0000
0000
0000
0000
,
0000
0000
0000
0000
,
1000
0010
0001
0100
1000
0000
1000
0100
0001
0010
1000
0000
0001
0010
0100
1000
,
0001
0010
1000
0100
0001
0000
0001
0100
1000
0010
0001
0000
1000
0100
0010
0001
,
0100
1000
0010
0001
0100
0000
0100
0001
0010
1000
0100
0000
0001
1000
0010
0100
,
0001
0100
0010
1000
0100
0010
1000
0010
0100
0001
1000
0001
1000
0100
0010
0001
,
0100
0000
0010
0000
1000
0000
0001
0000
0010
0000
0001
0100
0000
0100
1000
0000
,
0010
0000
1000
0000
0001
0000
1000
0000
0100
0000
0010
0001
0000
0001
0100
0000
,
1000
0000
0001
0000
1000
0000
0010
0000
0100
0000
0001
0100
0000
0100
0010
0000
,
0100
0000
1000
0000
0100
0000
0001
0000
0100
0000
0010
1000
0000
1000
0001
0000
,
0010
0000
0100
0000
1000
0000
0010
1000
0001
0000
0100
0010
0000
0100
0001
0000
,
1000
0000
0100
0000
0001
0000
0010
0001
1000
0000
0001
0100
0000
0010
1000
0000
,
0100
0000
0010
0000
0100
0000
1000
0010
1000
0000
0001
0100
0000
0001
1000
0000
,
0010
0000
1000
0000
0100
0000
0001
0010
0001
0000
0100
1000
0000
0001
0010
0000
,
0100
1000
0010
1000
0100
0000
0010
0001
1000
0000
0001
0100
0000
0001
0010
0000
,
1000
0010
0100
0001
0010
0000
0001
1000
0010
0000
1000
0100
1000
0010
0100
0001
,
0010
0001
0010
0100
1000
0000
0010
1000
0001
0000
0100
0001
0000
1000
0100
0000
,
1000
0010
0001
0010
1000
0000
0100
0010
0100
1000
0001
0000
0010
0001
0100
1000
,
0001
0000
0010
0100
0010
0000
0001
1000
0100
1000
0010
0100
0000
0001
1000
0000
,
0010
0000
1000
0100
0010
0000
0001
0100
0001
0010
0001
1000
0000
1000
0100
0000
,
1000
0010
0100
0001
0020
0000
0230
0000
1300
0001
1000
0010
0200
0000
0302
0000
,
0013
0000
0011
0000
1100
0000
0011
0000
1100
0000
0001
0100
1000
0100
0010
0001
,
0200
0320
2030
3002
2003
3200
0320
0032
,
0013
1000
0100
0001
0010
0000
0010
0001
0100
1000
0010
0000
0100
0001
0010
1000
,
0001
0010
1000
0100
0001
0000
0001
0100
1000
0010
0001
0000
0100
0010
1000
0001
,
0010
0001
0100
1000
0001
0100
1000
0100
0001
1000
0001
0010
1000
0010
0001
0010
,
0100
0000
1000
0010
0001
0000
0100
0010
1000
0010
0100
0001
1000
0100
1000
0001
,
0010
0000
0001
0100
0001
0000
1000
0010
1000
0100
0001
0100
0010
1000
0010
0001
,
0100
1000
0010
0001
0100
0000
0100
0001
0010
1000
0100
0000
0010
0100
0001
1000
,
0010
1000
0001
0100
1000
0001
1000
0010
0100
1000
0010
0001
0010
0100
0001
0100
,
0010
0001
0100
1000
0010
0000
0010
1000
0100
0001
0010
0000
0100
1000
0010
0001
,
0100
0001
0010
1000
0100
0000
0100
1000
0010
0001
0100
0000
0001
1000
0010
0100
,
0001
0010
1000
0100
0001
0000
0001
0100
1000
0010
0001
0000
0001
1000
0010
0100
,
0001
1000
0010
0100
0010
0001
0100
1000
0100
0010
1000
0001
1000
0001
0100
0010
,
1000
0100
0001
0010
1000
0000
1000
0010
0001
0100
1000
0000
0010
0100
0001
1000
,
0010
1000
0100
0001
0010
0000
0010
0001
0100
1000
0010
0000
1000
0100
0010
0001
,
1000
0100
0010
0001
0100
1000
0100
1000
0001
0010
1000
0010
0100
0001
0010
0001
,
0100
0010
0100
0010
0100
1000
0001
1000
0001
0010
0001
1000
0001
0100
1000
0010
,
0100
0001
1000
0100
0001
1000
0100
0001
1000
0100
0001
1000
0100
0001
1000
0100
,
0010
0001
0010
0001
0010
0000
0010
0100
0010
0100
0010
0000
0010
1000
0010
1000
,
0100
1000
0100
1000
0100
0000
0100
0010
0100
0010
0100
0000
0100
0001
0100
0001
,
1000
0001
1000
0001
1000
0000
0100
0001
0100
0001
0100
0000
0010
0001
0010
0001
,
0010
0001
1000
0001
0100
1000
0001
1000
0010
0100
0001
0100
0010
0100
0010
1000
,
0001
0010
1000
0010
0001
0000
0001
0100
1000
0100
0001
0000
0001
0010
0100
1000
,
0010
1000
0001
1000
0010
0000
0010
0001
1000
0001
0010
0000
0010
0100
0010
0100
,
1000
0010
0001
0010
1000
0000
1000
0100
0001
0100
1000
0000
1000
0001
0100
0010
,
1000
0010
0001
0010
0001
0100
0010
1000
0100
1000
0001
0100
0010
0001
0100
1000
,
0010
1000
0100
0001
1000
0000
0001
0100
0010
0001
1000
0000
0001
0100
1000
0100
,
1000
0001
1000
0010
1000
0000
0001
0100
0010
0100
0001
0000
1000
0001
0010
0001
,
0010
0100
0010
0001
1000
0000
0001
1000
0001
0010
1000
0000
0001
0010
0100
1000
,
0001
0010
1000
0010
0001
1000
0100
1000
0100
1000
0100
0001
0010
0100
0010
0001
,
1000
0001
0010
0001
1000
0000
0100
1000
0001
0100
1000
0000
0010
0100
0010
0100
,
0010
0001
0010
1000
0010
0000
0001
0100
1000
0100
0001
0000
1000
0100
0001
1000
,
0001
0010
1000
0001
1000
0000
0100
0001
1000
0001
0100
0000
0010
0001
0010
0100
,
0001
1000
0100
0001
0010
0100
0010
0001
0010
1000
0001
1000
0100
1000
0100
0020
,
0002
0000
0000
0000
,
0033
0000
0000
0000
;

//---------------dance-double - ----------------
#NOTES:
     dance-double:
     :
     Easy:
     7:
     :
00000000
00000000
00000000
00000000
,
00000000
00000000
00000000
00000000
,
00000000
00000000
00000000
00000000
,
00000000
00000000
00000000
00000000
,
00000000
00000000
00000000
00000000
,
00010000
00001000
00010000
00000100
,
00001000
00000010
00001000
00000001
,
00000100
00000010
00001000
00000010
,
00010000
00001000
00010000
00000000
00001000
00010000
00001000
00000000
,
00100000
00010000
10000000
00000000
,
02000000
03000000
00200000
00300000
,
00010000
01000000
00001000
00010000
,
00000010
00001000
00000001
00000010
,
00000100
00001000
00000100
00010000
,
00001000
00010000
00001000
00000000
00100000
00010000
00100000
00000000
,
00010000
10000000
00100000
01000000
,
01010000
00000000
00001000
00010000
,
00011000
00010000
00000010
00001000
,
00000002
00000003
00002000
00003000
,
00000001
00000100
00001000
00010000
,
00200000
00300000
10000000
10010000
,
10000000
01000000
00010000
00001000
,
00000010
00000000
00000002
00000000
00000000
00000103
00000000
00000010
,
00000000
00001000
00000000
00000100
00000000
00010000
00000000
00001000
,
00000000
01000000
00010000
01000000
00010000
00000000
10010000
00000000
,
20000000
30200000
01300000
00010000
,
00011000
00000000
00001000
00010000
,
00000200
00002300
00003001
00000010
,
00000110
00000000
00001000
00000100
,
00011000
00000000
01000000
00010000
,
10010000
00000000
10000000
01000000
,
00020000
00000000
00030000
00001000
,
00010000
00000000
00001000
00000000
00000100
00000010
00000100
00000000
,
00000002
00000023
00000230
00002300
,
00003100
00010000
00001000
00100000
,
00020000
02030000
03200000
20300000
,
31000000
00010000
00001000
00010000
,
00011000
00000000
00000100
00000010
,
00000110
00000000
00000001
00001000
,
00000200
00000000
00000300
00010000
,
00001000
00000000
00010000
00000000
01000000
00100000
01000000
00000000
,
10010000
00000000
00011000
00001100
,
00000002
00000000
00000023
00000000
,
00002030
00000000
00013000
00000000
,
00001000
00100000
00010000
10000000
,
00100000
01000000
00100000
00000000
01000000
00010000
01000000
00000000
,
00001000
00011000
00010000
00000010
,
00001000
00001001
00000001
00000100
,
00002000
00000000
00003000
00010000
,
00001000
00100000
00010000
10000000
,
01000000
00000000
00100000
00000000
00010000
00100000
00010000
00000000
,
00200000
00000000
00001000
00301000
,
00100000
00000000
00001000
00000000
00010000
00001000
00010000
00000000
,
00000020
00000000
00001000
00001030
,
00000001
00000100
00000001
00000100
,
00000010
00001000
00000010
00001000
,
00000100
00010000
00000100
00010000
,
00001000
00000000
00100000
00000000
00010000
01000000
00010000
01000000
,
00020000
00000000
00000000
00000000
,
00030000
00000000
00000000
00000000
,
00000000
00000000
00000000
00000000
;

//---------------dance-double - ----------------
#NOTES:
     dance-double:
     :
     Medium:
     11:
     :
00000000
00000000
00000000
00000000
,
00000000
00000000
00000000
00000000
,
00000000
00000000
00000000
00000000
,
00000000
00000000
00000000
00000000
,
00000000
00000000
00000000
00000000
,
00100000
00010000
00100000
01000000
10000000
00100000
10000000
00000000
,
00010000
00100000
00001000
00010000
00001000
00010000
00000100
00000000
,
00001000
00000010
00001000
00000001
00000100
00000001
00000010
00000000
,
00000001
00001000
00000100
00010000
00001000
00100000
00010000
01000000
,
00000000
00100000
10000000
00000000
10000000
01000000
00000000
00200000
,
00000000
00310000
02000000
00000000
03001000
00000000
00010000
00000000
,
00000010
00000000
00001000
00000000
00000001
00000020
00000000
00000230
,
00000000
00001300
00000010
00000000
00010000
00000000
00001000
02000000
,
00000000
03010000
00100000
00000000
00010000
10000000
01000000
10000000
,
00000000
00010000
01000000
00000000
00001000
00010000
00001000
00010000
,
00000000
00000100
00002000
00000000
00003001
00000010
00000001
00001000
,
00000100
00000000
00010000
00000000
00001000
00010000
00001000
00010000
,
00001000
00000000
00010000
00000000
00100000
01000000
00100000
20000000
,
00000000
30010000
00100000
00020000
00000000
01030000
00001000
00000000
,
00010000
00000000
00001000
00000000
00000100
00000010
00000100
00000002
,
00000000
00001003
00000100
00000000
00010000
00001000
00020000
00000000
,
00031000
00000000
00010000
00000000
01000000
00100000
01000000
20000000
,
00000000
30100000
01000000
00000000
00000000
00100000
00010000
00001000
,
00000000
00000100
00000000
00000001
00000000
00000010
00000000
00001000
,
00000000
00010000
00001000
00010000
00011000
00000000
10010000
00000000
,
20000000
00000000
32000000
00000000
03010000
00001000
00010000
00002000
,
00000000
00003100
00000001
00000000
00000010
00000001
00000100
00000000
,
00000002
00000000
00000023
00000000
00001030
00010000
00001000
00020000
,
00000000
00130000
10000000
00000000
01000000
00100000
00010000
01000000
,
00001000
00000000
00011000
00000000
00010000
00000100
00001000
00000010
,
00000100
00000000
00000101
00000000
00000001
00001000
00000010
00001000
,
00000200
00000000
00010300
00000000
00001000
00010000
01000000
10000000
,
01000000
00000000
00100000
00000000
00010000
00100000
00001000
00010000
,
00002000
00000000
00023000
00000000
00031000
00000100
00000001
00000020
,
00000000
00000031
00001000
00000000
00000001
00000100
00001000
00000000
,
00020000
00000000
00032000
00000000
00013000
00100000
10000000
02000000
,
00000000
13000000
00010000
00000000
10000000
00010000
00100000
00001000
,
00010000
00000000
00011000
00000000
00010000
00000010
00001000
00000100
,
00000010
00000000
00000011
00000000
00000001
00000100
00000010
00001000
,
00000200
00000000
00000000
00000000
00000300
00020000
00032000
00203000
,
00310000
00000000
10000000
00000000
01000000
00100000
01000000
00100000
,
00010000
00000000
00000000
10000000
00000000
00000000
00100000
00000000
00000000
00010000
00000000
00000000
00001000
00000000
00000100
00000000
,
00000002
00000000
00002003
00000000
00003010
00010000
00001000
00020000
,
00000000
00031000
00002000
00103000
,
00010000
00000000
10000000
00000000
00010000
01000000
00100000
01000000
,
00010000
00100000
00001000
00010000
00000100
00000010
00000100
00001000
,
00000001
00000000
00001001
00000000
00000001
00001000
00000100
00010000
,
00001000
00000000
00011000
00000000
00010000
00001000
00100000
00000000
,
02200000
00000000
00000000
00000000
03300000
00000000
10000000
01000000
,
10000000
00000000
00100000
00000000
01000000
00010000
00100000
00001000
,
00010000
00000000
00001000
00000200
00000000
00000302
00000023
00000230
,
00001300
00000000
00000100
00000000
00010000
00001000
00010000
00000000
,
00001000
00000000
00010000
02000000
00000000
23000000
30200000
02300000
,
03010000
00000000
00100000
00000000
00001000
00010000
00001000
00000000
,
00010000
00000100
00010000
00000100
00001000
00000010
00002000
00003002
,
00000103
00000010
00001000
00000010
00010000
00100000
02000000
03020000
,
10030000
00100000
10000000
00010000
00100000
00001000
00020000
00030200
,
00000310
00000001
00000100
00001000
00010000
01000000
10000000
00010000
,
02000000
00000000
00000000
00000000
,
03000000
00000000
00000000
00000000
,
00000000
00000000
00000000
00000000
;

//---------------dance-double - ----------------
#NOTES:
     dance-double:
     :
     Hard:
     14:
     :
00000000
00000000
00000000
00000000
,
00000000
00000000
00000000
00000000
,
00000000
00000000
00000000
00000000
,
00000000
00000000
00000000
00000000
,
00000000
00000000
00000000
00000000
,
00000001
00000100
00000001
00000000
00000100
00000000
00000010
00001000
00000010
00000000
00010000
00000000
00000100
00000000
00000100
00000000
,
00010000
00001000
00010000
00000000
00001000
00000000
00100000
00010000
00100000
00000000
01000000
00000000
10000000
00000000
10000000
00000000
,
00010000
00100000
00010000
00000000
01000000
00000000
00010000
01000000
00010000
00000000
00100000
00000000
00001000
00000000
00001000
00000000
,
00010000
00001000
00000100
00000001
00000010
00001000
00000010
00000100
,
00000010
00000001
00000100
00001000
00010000
00100000
00000000
02000000
,
00000000
00000000
03010000
00000000
20000000
00000000
00000000
00000000
31000000
00000000
00100000
00010000
00100000
00000000
00010000
00000000
,
10000000
01000000
00010000
00001000
00000010
00000200
00000000
00002300
,
00000000
00003001
00000010
00000000
00000100
00001000
00000010
00020000
,
00000000
00031000
00010000
00100000
10000000
00100000
00010000
00001000
,
00000010
00000001
00001000
00000010
00000100
00000001
00001000
00000100
,
00010000
00001000
00200000
00000000
00310000
10000000
01000000
00100000
,
01000000
00000000
10000000
00000000
00100000
00000000
01000000
00000000
00010000
00000000
00100000
00001000
00100000
00000000
00001000
00000000
,
00011000
00000000
00010000
00001000
00000100
00000001
00000100
00000020
,
00000000
00001030
00000020
00020000
00000030
00031000
00020000
00000000
,
00031000
00100000
00001000
00010000
01000000
10000000
01000000
00200000
,
00000000
00000000
00310000
00000000
01000000
00000000
00010000
00000000
10000000
00000000
00100000
01000000
00200000
00000000
00000000
00000000
,
01300000
00001000
00010000
00000100
00001000
00000001
00000010
00000200
,
00000000
00010300
00001000
00010000
00000000
00001000
00100000
00101000
,
00000000
00010000
01000000
01010000
00000000
00010000
00100000
00001000
,
00010000
00000000
00001000
00000000
00000100
00000000
00000010
00000000
00000110
00000000
00000000
00000000
00001000
00000100
00001000
00000100
,
00002000
00003010
00000002
00000013
00001000
00000100
00010000
00002000
,
00000000
00013000
00001000
01000000
00010000
00100000
01000000
10000000
,
00020000
01030000
20000000
31000000
00010000
00100000
00001000
00020000
,
00000000
00031000
00010000
00000010
00001000
00000100
00000010
00000001
,
00001000
00000100
00001000
00000000
00001100
00000000
00000000
00000000
00010000
00000000
00001000
00000000
01000000
00000000
00010000
00000000
,
00100000
00010000
00100000
00000000
00110000
00000000
00000000
00000000
00010000
00000000
00100000
00000000
00001000
00000000
00000010
00000000
,
00000001
00000100
00000001
00000000
00001000
00000000
00000010
00001000
00000010
00000000
00020000
00000000
00032000
00000000
00023000
00000000
,
00031000
00000000
00010000
00000000
01000000
00000000
10000000
00000000
01000000
00000000
00100000
00010000
00100000
00000000
00001000
00000000
,
00020000
00031000
00000200
00000301
00000010
00000100
00001000
00000200
,
00000000
00010300
00001000
00100000
00010000
01000000
00100000
10000000
,
00200000
00310000
00002000
00003100
00000010
00001000
00000100
00000020
,
00000000
00000031
00000100
00001000
00010000
01000000
10000000
00010000
,
00100000
00010000
00100000
00000000
00110000
00000000
00000000
00000000
00001000
00000000
00010000
00000000
00000100
00000000
00000001
00000000
,
00000100
00001000
00000100
00000000
00001100
00000000
00000000
00000000
00001000
00000000
00000100
00000000
00010000
00000000
01000000
00000000
,
20000000
00000000
01000000
00000000
30100000
02000000
03020000
00230000
,
01300000
10000000
00100000
00010000
00001000
00000100
00000010
00001000
,
00000001
00000000
00000010
00000100
00000000
00010000
00001000
00000000
00001000
00010000
00000000
00001000
01000000
00000000
01010000
00000000
,
00020000
00000000
20030000
00000000
30100000
01000000
00001000
00020000
,
00000000
00000000
00000000
00000000
00030100
00000000
00000000
00000000
00002000
00000000
00000000
00000000
00003001
00000000
00000100
00000010
,
00000100
00000001
00001000
00000100
00000010
00000001
00001000
00000100
,
00010000
00001000
00010000
00000000
00001000
00100000
00001000
00000000
00100000
00010000
00100000
00000000
00010000
10000000
00010000
00000000
,
10000000
00000000
01100000
00000000
00010000
01000000
10000000
01000000
,
00010000
00000000
00011000
00000000
00001000
00000100
00000001
00000100
,
00002000
00000000
00020000
00000000
00033000
00000000
00001000
00010000
,
00100000
00000000
01000000
00000000
00100000
00000000
01000000
00000000
00010000
10000000
00010000
00000000
00100000
01000000
00100000
00000000
,
00010000
00100000
00001000
00020000
00000000
00032000
00003200
00000302
,
00001003
00000001
00000010
00001000
00010000
01000000
10000000
00010000
,
00100000
01000000
00100000
00020000
00000000
20030000
30200000
00320000
,
00031000
00000100
00000001
00000010
00000001
00001000
00000100
00010000
,
00001000
00010000
00001000
00000000
00100000
00000000
00010000
01000000
00010000
00000000
00100000
00000000
00020000
00000000
20030000
00000000
,
30100000
01000000
00100000
00000000
10000000
00000000
00010000
01000000
00010000
00000000
00100000
00000000
00002000
00000000
00023000
00000000
,
00031000
00010000
00001000
00000000
00010000
00000000
00000010
00001000
00000010
00000000
00000100
00000000
00000002
00000000
00002003
00000000
,
00003100
00001000
00000100
00000000
00010000
00001000
00010000
00000000
00001000
00000000
00100000
00010000
00100000
00000000
01000000
00000000
,
02200000
00000000
00000000
00000000
,
03300000
00000000
00000000
00000000
,
00000000
00000000
00000000
00000000
;
