#TITLE:Clint Eastwood;
#ARTIST:Gorillaz;
#BANNER:Clint Eastwood-bn.png;
#BACKGROUND:Clint Eastwood-bg.png;
#JACKET:Clint Eastwood-jacket.png;
#MUSIC:Clint Eastwood.ogg;
#SAMPLESTART:12.333;
#SAMPLELENGTH:20;
#DISPLAYBPM:168;
#BPMS:0=168;
#BGCHANGES:;

//---------------dance-single - ----------------
#NOTES:
     dance-single:
     :
     Beginner:
     3:
     :
0000
0000
0000
0000
,
0000
0000
0000
0000
,
0000
0000
0000
0000
,
0000
0000
0000
0000
,
0000
0000
0000
0000
,
0100
0000
0000
0000
,
0001
0000
1000
0000
,
0100
0000
0000
0000
,
1000
0000
0001
0000
,
1001
0000
0000
0000
,
0010
0000
0100
0000
,
0110
0000
0000
0000
,
0001
0000
1000
0000
,
1001
0000
0000
0000
,
1000
0000
0100
0000
,
0110
0000
0000
0000
,
0010
0000
0001
0000
,
1001
0000
0000
0000
,
0001
0000
0100
0000
,
0110
0000
0000
0000
,
0010
0000
1000
0000
,
1001
0000
0000
0000
,
0010
0000
0010
0000
,
0110
0000
0000
0000
,
1000
0000
1000
0000
,
0001
0000
0000
0000
,
1000
0000
0000
0000
,
0001
0000
0000
0000
,
0100
0100
0100
0100
,
0100
0000
0010
0000
,
1000
0000
0001
0000
,
0010
0000
0001
0000
,
0100
0000
0010
0000
,
1000
0000
0000
0000
,
0001
0000
0000
0000
,
0010
0000
0000
0000
,
0100
0000
0000
0000
,
1000
0000
0000
0000
,
0001
0000
0100
0000
,
0010
0000
0010
0000
,
1000
0000
0001
0000
,
0000
0000
1001
0000
,
1000
0000
0001
0000
,
0000
0000
0110
0000
,
0100
0000
0010
0000
,
0000
0000
1000
0000
,
0100
0000
1000
0000
,
0000
0000
0001
0001
,
0000
0000
0100
0000
,
0010
0000
1000
0000
,
0001
0000
0010
0000
,
0001
0000
0100
0000
,
1000
1000
1000
0000
,
1001
0000
0010
0000
,
1000
0000
0001
0000
,
0110
0000
0001
0000
,
1000
0000
0100
0000
,
1000
0000
1000
0000
,
0001
0000
0001
0000
,
1000
0000
0001
0000
,
0100
0100
0100
0100
,
0100
0000
0000
0000
,
0010
0000
1000
0000
,
0110
0000
0000
0000
,
0100
0000
0001
0000
,
1001
0000
0000
0000
,
1000
0000
0100
0000
,
0110
0000
0000
0000
,
0001
0000
0010
0000
,
1001
0000
0000
0000
,
1000
0000
0001
0000
,
0110
0000
0000
0000
,
0100
0000
0010
0000
,
1001
0000
0000
0000
,
0001
0000
0001
0000
,
0110
0000
0000
0000
,
1000
0000
1000
0000
,
0110
0000
0000
0000
,
1001
0000
0000
0000
,
0110
0000
0000
0000
,
0100
0100
0100
0100
,
0100
0000
0000
0000
;

//---------------dance-single - ----------------
#NOTES:
     dance-single:
     :
     Easy:
     7:
     :
0000
0000
0000
0000
,
0000
0000
0000
0000
,
0000
0000
0000
0000
,
0000
0000
0000
0000
,
0000
0000
0000
0000
,
0200
0000
0301
1000
,
0002
0000
0103
0000
,
0020
0000
1030
0001
,
2000
0000
3010
0000
,
0110
1001
0000
0000
,
0001
0100
1000
0000
,
1100
0011
0000
0000
,
0010
0001
0100
0000
,
1010
0101
0000
0000
,
1000
0001
0010
0000
,
1001
1001
0000
0000
,
1000
0010
0001
0100
,
0110
0101
0000
0000
,
1000
0001
1000
0000
,
1100
0011
0000
0000
,
0100
0001
1000
0000
,
1010
1001
0000
0000
,
0010
1000
0100
0000
,
0110
0110
0000
0000
,
0001
0100
1000
0000
,
0010
0100
0001
0000
,
0010
0100
1000
0000
,
0001
0100
0010
0000
,
1001
0110
1001
0110
,
1001
0000
1000
0001
,
0100
0010
1000
0000
,
0010
0100
0010
1000
,
0100
0010
0001
0000
,
0100
0001
1000
0000
,
0010
1000
0001
0000
,
0010
0001
0100
0000
,
0010
1000
0001
0000
,
0100
0110
0001
0100
,
1000
1000
0001
0100
,
0010
1000
0001
0100
,
0010
1000
0100
0100
,
0000
1100
0101
0010
,
1000
0001
1010
1010
,
0000
0011
1010
0100
,
1000
0001
0101
0101
,
0000
0010
1001
1000
,
0100
1000
0110
0011
,
0000
0100
0110
0001
,
0000
0010
0001
1000
,
0010
0010
1010
0101
,
0100
0001
1000
0001
,
0010
0001
1000
0010
,
0110
0001
1100
0000
,
1001
0000
1000
0100
,
1000
0010
0100
0001
,
0011
0000
1000
0010
,
1000
0001
0010
0100
,
2200
0300
0010
3010
,
0001
1000
0010
0010
,
0202
0300
1000
1003
,
1001
0110
1001
0110
,
1000
0001
0000
0000
,
0010
0001
0100
0000
,
1010
0101
0000
0000
,
0010
0001
0100
0000
,
0011
1100
0000
0000
,
1000
0001
0100
0000
,
0011
0011
0000
0000
,
0100
0010
1000
0000
,
0110
1001
0000
0000
,
0010
1000
0001
0000
,
1100
0101
0000
0000
,
0001
0010
1000
0000
,
1010
0011
0000
0000
,
0100
0001
0010
0000
,
1100
1100
0000
0000
,
0010
1000
0001
0000
,
0011
0001
0100
0000
,
1100
1000
0001
0000
,
0101
0100
0010
0000
,
1001
0110
1001
0110
,
1001
0000
0000
0000
;

//---------------dance-single - ----------------
#NOTES:
     dance-single:
     :
     Medium:
     9:
     :
0000
0000
0000
0000
,
0000
0000
0000
0000
,
0000
0000
0000
0000
,
0000
0000
0000
0000
,
0000
0000
0000
0000
,
0200
0300
0101
0101
,
2000
0000
3000
0001
0100
0000
0010
0000
,
2000
3001
1100
1100
,
0020
0030
0100
0001
,
0101
1100
0000
0000
,
1000
0001
0000
0100
0000
0001
1000
0000
,
1010
0011
0000
0000
,
0010
0001
0000
0100
0000
0001
0010
0000
,
1001
0000
0110
0000
0000
0000
0000
0001
,
1000
0000
0100
0010
0000
0000
0001
0000
,
0011
1100
0000
0010
,
1000
0000
0100
1000
0000
0001
0100
0000
,
0110
1001
0000
0000
,
1000
0010
0000
0100
0000
0001
1000
0000
,
1010
0101
0000
0000
,
0010
0001
0000
1000
0000
0001
0100
0000
,
1010
0000
1010
0000
0000
0000
0000
0100
,
1000
0000
0001
0010
0000
0000
0100
0000
,
0011
0011
0000
0100
,
0010
0000
1000
0001
0000
0000
0100
0000
,
0001
0000
0010
0100
0000
0000
1000
0000
,
0010
0000
1000
0001
0000
0000
0100
0000
,
0001
0000
1000
0100
0000
0000
0010
0000
,
1100
0011
1100
0011
,
1001
0100
0110
1000
,
0010
0100
0001
1000
0000
0000
0100
0000
,
0010
0001
1000
0000
1010
0000
0101
0000
,
1000
0100
1000
0001
0000
0000
0020
0000
,
0031
1000
0001
0100
0000
0000
0020
0000
,
1030
0010
1000
0001
0000
0000
0200
0000
,
0310
1000
0010
1000
0000
0000
0002
0000
,
0013
0001
0100
0010
0000
0000
1000
0001
,
0000
1000
0001
0000
0101
0000
1100
0000
,
0001
0000
0100
0000
0010
1000
0001
0000
,
1000
0100
0001
0100
1000
0000
0110
0000
,
0001
0000
0101
0000
0100
0010
1000
0001
,
0000
1010
0000
1000
0001
0000
0100
0000
,
0110
0000
0001
0000
1000
0100
1000
0000
,
0000
0011
0000
0001
1000
0000
0100
0000
,
1000
0001
0010
0000
1001
0000
0110
0000
,
0000
1100
0000
0100
1000
0000
0001
0000
,
0200
0301
0011
1010
,
0000
0000
1000
0001
0100
0001
1000
0000
,
0000
0000
0010
1000
0100
1000
0010
0000
,
0101
0110
2000
3001
,
1100
0000
0011
0000
0100
0001
0100
0000
,
0010
0000
1000
0000
0100
0010
0001
0000
,
2000
3002
0103
0100
,
0110
1001
0100
0001
,
1000
0100
1000
0100
0010
0000
0001
0000
,
0101
0000
0011
0000
1000
0100
1000
0000
,
0010
0100
0010
1000
0001
0000
0100
0000
,
2010
3100
0012
0103
,
0002
1003
1100
0110
,
0200
0000
0310
0001
1000
0000
0001
0000
,
1100
0011
1100
0011
,
1001
0110
0000
0000
,
1000
0100
0000
1000
0000
0001
0010
0000
,
0011
1100
0000
0000
,
0010
0100
0000
0001
0000
0010
0100
0000
,
1100
0000
0101
0000
0000
0000
0000
1000
,
0001
0000
1000
0100
0000
0000
0010
0000
,
0011
1010
0000
0010
,
1000
0000
0001
1000
0000
0100
0010
0000
,
0110
1001
0000
0000
,
1000
0010
0000
1000
0000
0001
0100
0000
,
0101
1010
0000
0000
,
0100
1000
0000
0010
0000
0100
0001
0000
,
1001
0000
1001
0000
0000
0000
0000
1000
,
0100
0000
1000
0001
0000
0100
0010
0000
,
0110
0110
0000
1000
,
0010
0000
1000
0002
0000
0000
0103
0000
,
0101
0000
0010
0002
0000
0000
1003
0000
,
1010
0000
1000
0200
0000
0000
0310
0000
,
0011
0000
0001
2000
0000
0000
3100
0000
,
1100
0011
1100
0011
,
1001
0000
0000
0000
;

//---------------dance-single - ----------------
#NOTES:
     dance-single:
     :
     Hard:
     11:
     :
0000
0000
0000
0000
,
0000
0000
0000
0000
,
0000
0000
0000
0000
,
0000
0000
0000
0000
,
0000
0000
0000
0000
,
0200
0301
0011
1100
,
0002
0000
1003
0010
1000
0000
0001
0000
,
0110
1001
1000
0001
,
2000
0000
3001
0000
0010
0001
0100
0000
,
1010
0101
0001
1000
,
0010
1000
0000
0002
0000
1003
0100
0000
,
1100
0011
0100
0010
,
1000
0100
0000
0020
0000
0031
0100
0000
,
0101
1001
0010
1000
,
0100
0000
0010
0002
0000
1003
0100
0000
,
1010
1100
0001
1000
,
0010
0000
1000
0002
0000
0013
0100
0000
,
1100
0101
0010
0001
,
0100
0010
0000
2000
0000
3001
0100
0000
,
0110
1010
0001
0010
,
0001
1000
0000
0200
0000
0310
0100
0000
,
1100
0011
0100
0010
,
1000
0000
0001
0020
0000
0031
1000
0000
,
0101
1010
0010
0100
,
0001
0000
0010
0002
0000
1003
0100
0000
,
1001
0000
0010
0001
0100
0000
1000
0000
,
0110
0000
0010
1000
0002
0000
0103
0000
,
0020
0000
1030
0002
0000
1003
0100
0000
,
1100
0011
1100
0011
,
0001
0100
1000
0000
0010
1000
0001
1000
,
0100
0010
0001
1000
0000
0000
0110
0000
,
0001
0010
0001
0100
0010
1000
0100
0010
,
0001
0100
0001
1000
0000
0000
0010
1000
,
0100
0010
0100
1000
0000
0000
0001
0100
,
0001
0010
0100
1000
0000
0000
1010
0000
,
0001
0100
0010
1000
0000
0000
0100
0010
,
0001
0100
0001
1000
0000
0000
0010
0200
,
0000
0001
0301
0000
1000
0100
1000
0001
,
1000
0010
0100
0010
1000
0001
0100
0000
,
0010
1000
0001
1000
0010
0000
0100
0001
,
0010
0001
2000
0000
3001
1000
0010
0100
,
0000
0101
0000
1000
0002
0000
0013
0100
,
2000
0000
3001
1000
0001
0100
0010
0000
,
0000
1001
0000
1000
0001
0000
0010
0001
,
1000
0010
1000
0001
1000
0100
0010
0000
,
0000
0011
0000
1000
0100
0000
0010
0001
,
0200
0000
0301
0010
0001
0100
1000
0000
,
2100
0000
3010
1000
0100
0010
0001
0000
,
0100
0001
0100
0001
1000
0100
0001
0000
,
0010
0001
0100
0000
0110
0000
1001
0000
,
1000
0100
0010
0000
0001
1000
0001
0100
,
0010
1000
0001
1000
0001
0010
0001
0100
,
0010
1000
0101
1100
,
1001
0000
0010
1000
1000
0001
0010
0001
,
0100
0010
1000
0001
0020
0000
0130
0000
,
0011
0000
1000
0001
0001
0100
0010
0100
,
0001
1000
0010
1000
0002
0000
0013
0100
,
1000
0000
0001
0000
1010
0000
0010
0100
,
0001
0000
0010
0100
1000
0000
1000
0001
,
0100
0000
0010
1000
0001
0000
1000
0100
,
0010
0000
0001
1000
0001
0000
0011
0000
,
1010
0101
1000
0010
,
1000
0100
0000
0020
0000
0031
1000
0000
,
0101
0110
0010
1000
,
0100
1000
0000
0002
0000
0013
0100
0000
,
0011
1100
0001
0010
,
0001
0000
0100
0020
0000
1030
0001
0000
,
1001
0110
1000
0100
,
0020
0000
0031
1000
0000
0010
0100
0000
,
0001
0010
1000
0000
0101
0000
0100
0000
,
0010
1000
0000
0200
0000
1300
0001
0000
,
0011
1001
0100
0010
,
1000
0100
0000
0020
0000
0031
1000
0000
,
0010
1000
0100
0000
1001
0000
0001
0000
,
0010
0000
0001
0200
0000
0310
1000
0000
,
0110
1001
1000
0100
,
2000
0000
3001
0010
0000
0001
0100
0000
,
0010
1000
0100
0000
1100
0000
0001
0000
,
0020
0000
0031
1000
0000
0001
0100
0000
,
0020
0000
1030
0100
0000
1000
0001
0000
,
1100
0011
1100
0011
,
1001
0000
0000
0000
;
