#TITLE:Changes;
#ARTIST:TaQ;
#BANNER:Changes-bn.png;
#BACKGROUND:Changes-bg.png;
#JACKET:Changes-jacket.png;
#MUSIC:Changes.ogg;
#OFFSET:1.125;
#SAMPLESTART:63.907;
#SAMPLELENGTH:20;
#LASTBEATHINT:0.302;
#DISPLAYBPM:155;
#BPMS:0=155;
#BGCHANGES:;

//---------------dance-single - ----------------
#NOTES:
     dance-single:
     :
     Beginner:
     4:
     :
0000
0000
0000
0000
,
0000
0000
0000
0000
,
0000
0000
0000
0000
,
0000
0000
0000
0000
,
0000
0000
0000
0000
,
0000
0000
0000
0000
,
0000
0000
0000
0000
,
0000
0000
0000
0000
,
0000
0000
0000
0000
,
0000
0000
0000
0000
,
1001
0000
0000
0000
,
0010
0000
0000
0000
,
1000
0000
0000
0000
,
0100
0000
0000
0000
,
0010
0000
0000
0000
,
0001
0000
0000
0000
,
1000
0000
0000
0000
,
0100
0000
0000
0000
,
0010
0010
0000
0000
,
0001
0001
0000
0000
,
0100
0100
0000
0000
,
0010
0010
0000
0000
,
1000
1000
0000
0000
,
0001
0001
0000
0000
,
0100
0100
0000
0000
,
0010
0000
0000
0000
,
1001
0000
1000
0000
,
0010
0000
0100
0000
,
0001
0000
0010
0000
,
0001
0000
0100
0000
,
0010
0000
1000
0000
,
0010
0000
0100
0000
,
0001
0000
1000
0000
,
0100
0000
1000
0000
,
1001
0000
0000
0000
,
0001
0000
0000
1000
,
1000
0000
0000
0000
,
0010
0000
0000
0100
,
0100
0000
0000
0001
,
0001
0000
0000
0010
,
0010
0000
0000
0001
,
0001
0000
0000
0000
,
1001
0000
1000
0000
,
0100
0000
1000
0000
,
0010
0000
0100
0000
,
0001
0000
0100
0000
,
0001
0000
0001
0000
,
1000
0000
1000
0000
,
0010
0000
0010
0000
,
0010
0000
0000
0000
,
1000
1000
1000
0000
,
0001
0001
0001
0000
,
0100
0100
0100
0000
,
0010
0010
0010
0000
,
1000
1000
1000
0000
,
0100
0100
0100
0000
,
0010
0010
0010
0000
,
0001
0001
0001
0000
,
1000
0001
0000
1000
,
0100
1000
0000
0010
,
0100
0010
0000
0100
,
0001
0100
0000
0010
,
1000
0000
0001
0000
,
1000
0000
0001
0000
,
0100
0000
0010
0000
,
0100
0100
0000
0000
,
1001
0000
0001
0000
,
0010
0000
0001
0000
,
0100
0000
0010
0000
,
1000
0000
0001
0000
,
1000
0100
1000
0000
,
0001
0100
0001
0000
,
0100
0010
0100
0010
,
1001
0000
0000
0000
;

//---------------dance-single - ----------------
#NOTES:
     dance-single:
     :
     Easy:
     9:
     :
0000
0000
0000
0000
,
0000
0000
0000
0000
,
0000
0000
0000
0000
,
0000
0000
0000
0000
,
0000
0000
0000
0000
,
0000
0000
0000
0000
,
0000
0000
0000
0000
,
0000
0000
0000
0000
,
0000
0000
0000
0000
,
0000
0000
0000
0000
,
1001
0000
0100
1000
,
0001
0000
0100
0010
,
1000
0000
0010
0100
,
0010
0000
1000
0001
,
0100
0000
0010
1000
,
0001
0000
1000
0100
,
0010
0000
0001
0100
,
0110
0000
0000
0000
0000
1000
0001
1000
,
0001
0010
0001
1000
,
0010
0100
0001
0010
,
0100
0010
0001
0100
,
0010
1000
0100
1000
,
0001
1000
0010
1000
,
0100
0010
0001
0100
,
0010
0100
0010
1000
,
0002
0000
0000
0000
0000
0000
1003
0100
,
1000
0010
0100
0100
,
0001
0010
0100
0100
,
1000
0001
1000
1000
,
0010
1000
0001
0001
,
0010
0100
1000
0010
,
0100
0001
0010
0001
,
0100
1000
0010
1000
,
0001
0100
0010
1000
,
1001
0000
0000
0000
0000
0000
0000
0100
,
0010
0000
0000
0010
0000
0000
0000
0000
0000
0000
0000
0000
0000
1000
0000
0000
,
1000
0000
0000
1000
0000
0000
0000
0000
0000
0000
0000
0000
0000
0000
0001
0000
,
1000
0000
0000
1000
0000
0000
0000
0000
0000
0000
0010
0000
0000
0100
0010
0000
,
1000
0000
0000
1000
0000
0000
0000
0000
0000
0000
0001
0100
0000
0000
0001
0000
,
0010
0000
0000
0010
0000
0000
0000
0000
0000
0000
0100
1000
0000
0001
0000
0000
,
0100
0000
0000
0100
0000
0000
0000
0000
0000
0000
0001
1000
0001
0000
0100
0000
,
0010
0000
0000
0010
0000
0000
0000
0000
0000
0000
1000
0001
0000
1000
0000
0000
,
0010
0000
0000
0010
0000
0000
0010
0000
0000
0000
1000
0000
0000
0100
0000
0000
,
1000
0000
0000
1000
0000
0000
1000
0000
0000
0000
0001
0000
0000
0100
0000
0000
,
0001
0000
0000
0001
0000
0000
0001
0000
0000
0000
1000
0010
0000
0000
0100
0000
,
0001
0000
0000
0000
1000
0000
0100
0000
0000
0000
0010
0001
0000
0010
0001
0000
,
0100
0000
0000
0010
0000
0000
1000
0000
0000
0000
0001
0000
1000
0000
0001
0000
,
0100
0000
0000
0010
0000
0000
1000
0000
0000
0000
0001
0000
0010
0000
0001
0000
,
0100
0001
0010
0000
0100
1000
0001
0000
,
1000
0000
1010
0000
0001
1000
0001
1000
,
0010
0000
0100
0000
0001
0010
0001
0000
,
1000
0000
0100
0000
1000
0010
1000
0000
,
0100
0000
0010
0000
0001
1000
0001
0000
,
1000
0000
0010
0000
0100
0001
0100
0000
,
0001
0000
1000
0000
0100
1000
0100
1000
,
0010
0000
0100
0000
0001
0010
0001
0010
,
0100
0000
1000
0000
0001
0100
0001
0100
,
0010
0000
1000
0000
0100
0010
0100
0010
,
0001
0000
0100
0010
0000
1000
0001
0000
,
0010
0000
0001
0100
0000
0010
1000
0000
,
0100
0000
0010
0000
0001
0100
0001
1000
,
0100
0000
0010
0000
0001
1000
0010
1000
,
0100
0000
0010
0000
0001
0000
1000
0100
,
1000
0000
0010
0000
1000
0000
0001
0010
,
0001
0000
0100
0000
0010
1000
0001
1000
,
0100
0010
0002
0000
0000
0000
0003
0000
,
1000
0000
0000
0010
0000
0000
0110
0000
0000
0000
0000
0000
0000
0000
0000
0000
,
0001
0000
0000
1000
0000
0000
0001
0000
0000
0000
1100
0000
0000
0000
0000
0000
,
0010
0000
0000
0100
0000
0000
0001
0000
0000
0000
0011
0000
0000
0000
0000
0000
,
1000
0000
0000
0001
0000
0000
1000
0000
0000
0000
0010
0000
0000
0000
0100
0000
,
0001
0000
0010
0000
0001
0000
1000
0001
,
1000
0000
0100
0000
0010
0000
0001
1000
,
0001
0000
0100
0000
0010
0000
1000
0001
,
1001
0000
0000
0000
;

//---------------dance-single - ----------------
#NOTES:
     dance-single:
     :
     Medium:
     11:
     :
0000
0000
0000
0000
,
0000
0000
0000
0000
,
0000
0000
0000
0000
,
0000
0000
0000
0000
,
0000
0000
0000
0000
,
0000
0000
0000
0000
,
0000
0000
0000
0000
,
0000
0000
0000
0000
,
0000
0000
0000
0000
,
0000
0000
0000
0000
,
1001
0010
1000
0100
,
0010
0001
1000
0010
,
1000
0100
0010
0001
,
0100
0001
0010
0100
,
1000
0010
1000
0100
,
0010
0001
0100
0010
,
1000
0001
0010
0100
,
1000
0000
0010
0000
1000
0001
1000
0001
,
0100
0000
0010
1000
0100
0000
1100
0000
,
0101
0000
0010
1000
0001
0000
0010
0100
,
1000
0000
0001
1000
0010
0000
1010
0000
,
0011
0000
1000
0001
0100
0000
0010
1000
,
0001
0000
1000
0100
1000
0000
0010
0100
,
0001
0000
0010
0100
0010
0000
0001
1000
,
0010
0000
1000
0100
1000
0000
0010
0100
,
0002
0000
0000
0000
0000
1003
0010
0100
,
0001
0000
0010
0000
0000
0001
0000
0000
1000
0000
0000
1000
0000
0000
1000
0000
,
0000
0000
0100
0000
0000
0010
0000
0000
0001
0000
0000
0001
0000
0000
0001
0000
,
0000
0000
1000
0000
0000
0001
0000
0000
0100
0000
0000
0100
0000
0000
0100
0000
,
0000
0000
0001
0000
0000
0100
0000
0000
0010
0000
0000
0010
0000
0000
0010
0000
,
1000
0000
0100
0000
1000
0000
0000
0000
0001
0000
0000
0001
0000
0000
0001
0000
,
0010
0000
0100
0000
0010
0000
0000
0000
0001
0000
0000
0001
0000
0000
0001
0000
,
0100
0000
0010
0000
0100
0000
0000
0000
0001
0000
0000
0001
0000
0000
0001
0000
,
1000
0010
1000
0100
1000
0000
0010
0100
,
0002
0000
1000
0000
1000
0000
1003
0100
,
2000
0000
0010
0000
0010
0000
3010
0100
,
0002
0000
0010
0000
0010
0000
0013
0100
,
2000
0000
0100
0000
0100
0000
3100
0010
,
0200
0000
1000
0000
1300
0010
0100
0001
,
0020
0000
0100
0000
0130
0010
0001
1000
,
0002
0000
0100
0000
0103
0010
1000
0001
,
0010
0000
0000
0000
0110
0000
0000
0000
0000
0000
0001
1000
0000
0001
1000
0000
,
0010
0000
0000
0000
0100
0000
0001
0000
0000
0000
0010
0100
0000
0000
1000
0000
,
0010
0000
0000
1000
0000
0000
0001
0000
0000
0000
0100
0010
0000
0000
1000
0000
,
0100
0000
0000
1000
0000
0000
0001
0000
0000
0000
1000
0010
0000
0000
0100
0000
,
0001
0000
0000
0010
0000
0000
0100
0000
0000
0000
1000
0001
0000
1000
0001
0000
,
0100
0000
0000
0010
0000
0000
1000
0000
0001
0000
0000
0010
0000
0000
0001
0000
,
1000
0000
0000
0001
0000
0000
0100
0000
0010
0000
0000
1000
0000
0000
0010
0000
,
1000
0000
0000
0100
0000
0000
0010
0000
0001
0000
0000
1000
0000
0000
0010
0000
,
1000
0100
1000
0100
0010
0001
0010
0001
,
0100
0000
0000
0010
0000
0000
1000
0000
0001
0000
0010
0000
0100
0000
1000
0000
,
0100
0000
0000
0010
0000
0000
0100
0000
1000
0000
0001
0000
0100
0000
0010
0000
,
0100
0000
0000
0001
0000
0000
0010
0000
0001
0000
1000
0000
0100
0000
0010
0000
,
0100
0000
0000
1000
0000
0000
0010
0000
0100
0000
0001
0000
1000
0000
0010
0000
,
1000
0000
0000
0010
0000
0000
0100
0000
0001
0000
1000
0001
0000
0000
0100
0000
,
0010
0000
0000
1000
0000
0000
0100
0000
1000
0000
0001
0010
0000
0000
0100
0000
,
1000
0000
0000
0001
0000
0000
0010
0000
0001
0000
1000
0100
0000
0000
1000
0000
,
0001
0100
0001
0100
0010
1000
0010
1000
,
0100
0000
0000
0010
0000
0000
0001
0000
1000
0000
0010
0100
0000
0010
0100
0000
,
0001
0000
0000
1000
0000
0000
0001
0000
0010
0000
0100
1000
0000
0100
1000
0000
,
0001
0000
0000
1000
0000
0000
0010
0000
0100
0000
0001
0010
0000
0001
0010
0000
,
0100
0000
0000
1000
0000
0000
0001
0000
1000
0000
0010
0000
0100
0000
0001
0000
,
0010
0000
0001
0100
0000
0000
0010
0000
1000
0000
0100
0000
0000
1000
0001
0000
,
0100
0000
0010
1000
0000
0000
0001
0000
1000
0000
0100
0000
0000
0010
0001
0000
,
0100
0010
1000
0001
0010
0100
1000
0001
,
1000
0000
0020
0000
0200
0000
0000
0000
0030
0000
0000
0000
0301
1000
0001
0000
,
0100
0000
0000
0000
0010
0000
1010
0000
0000
0000
0001
1000
0000
0000
0100
0000
,
0010
0000
0000
0001
0000
0000
1000
0000
0000
0000
0101
0000
0000
0000
1000
0100
,
1000
0000
0000
0000
0001
0000
0011
0000
0000
0000
0100
0010
0000
0000
1000
0000
,
0100
0000
0000
1000
0000
0000
0001
0000
0000
0000
0100
0010
0000
0100
0010
0000
,
1000
0100
0010
0001
0000
0100
0010
0000
,
1000
0001
1000
0100
0000
0010
0001
0000
,
0100
0001
0010
0100
1000
0010
1000
0001
,
1001
0000
0000
0000
;

//---------------dance-single - ----------------
#NOTES:
     dance-single:
     :
     Hard:
     13:
     :
0000
0000
0000
0000
,
0000
0000
0000
0000
,
0000
0000
0000
0000
,
0000
0000
0000
0000
,
0000
0000
0000
0000
,
0000
0000
0000
0000
,
0000
0000
0000
0000
,
0000
0000
0000
0000
,
0000
0000
0000
0000
,
0000
0000
0000
0000
,
1001
0000
0000
0000
0010
0000
0000
0100
0001
0000
0000
0000
0110
0000
0000
0000
,
0010
0000
0000
0000
1000
0000
0000
0001
0100
0000
0000
0000
0101
0000
0000
0000
,
1000
0000
0000
0000
0100
0000
0000
0010
0001
0000
0000
0000
1100
0000
0000
0000
,
0010
0000
0000
0000
1000
0000
0000
0001
0100
0000
0000
0000
1010
0000
0000
0000
,
0100
0000
0000
0000
0010
0000
0000
0001
1000
0000
0000
0000
0011
0000
0000
0000
,
0100
0000
0000
0000
0010
1000
0000
0010
1000
0000
0000
0000
0110
0000
0000
0000
,
0001
0000
0000
0000
0100
0010
0000
0100
0010
0000
0000
0000
1010
0000
0000
0000
,
0100
0000
0000
0000
1000
0000
0010
0100
0000
0010
0100
0000
0001
1000
0001
1000
,
0001
0000
0010
0000
0001
1000
0000
1000
0100
0000
0000
0000
1100
0000
0000
0000
,
0101
0000
0000
0000
0010
1000
0000
1000
0100
0000
0010
0000
0001
0000
1000
0000
,
0001
0000
0000
0000
0100
0010
0000
0010
1000
0000
0000
0000
1010
0000
0000
0000
,
0011
0000
0000
0000
1000
0010
0000
0010
0100
0000
0001
0000
1000
0000
0001
0000
,
0010
0000
0000
0000
0100
1000
0000
0100
1000
0000
0010
0000
0100
0000
0001
0000
,
1000
0000
0000
0000
0001
0010
0000
0001
0010
0000
0100
0000
1000
0000
0001
0000
,
0100
0000
0000
0000
0010
1000
0000
0010
1000
0000
0100
0000
0010
0000
0001
0000
,
0200
0000
0310
1000
0100
1000
0001
0100
,
1001
0000
1000
0000
0001
0100
0000
0001
0010
0000
0000
0100
0000
0000
1000
0000
,
0010
0000
0100
0000
0001
1000
0000
0001
1000
0000
0000
0010
0000
0000
0100
0000
,
0001
0000
0010
0000
0100
1000
0000
0001
0100
0000
0000
0010
0000
0000
1000
0000
,
0100
0000
0010
0000
0001
1000
0000
0001
1000
0000
0010
0100
0000
0010
0100
0000
,
0010
0000
1000
0000
0100
1000
0000
0001
0100
0000
0000
0010
0000
0000
1000
0000
,
0100
0000
0010
0000
0001
1000
0000
0001
0010
0000
0000
0100
0000
0000
1000
0000
,
0100
0000
1000
0000
0010
0100
0000
0001
0010
0000
0000
0001
0000
0000
1000
0000
,
0010
0000
1000
0000
0100
0010
0000
0100
0010
0000
0001
1000
0000
0001
1000
0000
,
1002
0000
0100
0000
0100
0000
0103
0010
,
1010
0000
0000
0002
0100
0000
0000
0000
0100
0000
0000
0000
0103
0010
0000
0010
,
1000
0000
0000
0002
0100
0000
0000
0000
0100
0000
0000
0000
0103
0000
0010
0000
,
0101
0000
0000
2000
0100
0000
0000
0000
3100
0000
1000
0001
0000
1000
0001
0000
,
0011
0000
0000
0200
0010
0000
0000
0000
0310
0000
1000
0001
0000
1000
0001
0000
,
1100
0000
0000
0020
0100
0000
0000
0000
0130
0000
0001
0010
0000
0001
0010
0000
,
1001
0000
0000
0002
0100
0000
0000
0000
0103
0000
0001
1000
0001
0000
0100
0000
,
0120
0000
0000
0000
2000
0000
0000
0000
3030
0000
0001
1000
0000
0001
1000
0000
,
0010
0000
1000
0000
0100
0000
0020
0000
0000
0000
0031
1000
0000
0001
1000
0000
,
0100
0000
0010
0000
0001
0000
0200
0000
0000
0000
0310
1000
0000
0010
1000
0000
,
0001
0000
1000
0000
0010
0000
2000
0000
0000
0000
3100
0010
0000
0100
0010
0000
,
0001
0000
1000
0000
0001
0000
0020
0000
0000
0000
0130
1000
0000
0100
1000
0000
,
0001
1000
0010
1000
0100
0001
0010
0100
,
0001
0100
1000
1000
0100
0010
0001
0010
,
1000
0001
1000
0100
0001
0010
0010
0100
,
0001
0010
0100
1000
0001
0100
0010
1000
,
0100
0000
1000
0001
0000
0000
0010
0000
0000
0000
0001
0100
0000
0010
1000
0000
,
0100
0000
0010
0001
0010
0000
0100
0000
0000
0000
1000
0010
0000
0100
0001
0000
,
1000
0000
0010
0100
0000
0000
1000
0000
0000
0000
0100
0010
0000
0001
1000
0000
,
0001
0000
1000
0100
1000
0000
0010
0000
0000
0000
0100
0001
0000
0010
1000
0000
,
0100
0000
1000
0001
0000
0000
0100
0000
0000
0000
0010
1000
0000
0100
0001
0000
,
0010
0000
0100
1000
0100
0000
0010
0000
0000
0000
0001
1000
0000
0010
0100
0000
,
0001
0000
1000
0100
0000
0000
0010
0000
0000
0000
0100
0010
0000
0001
1000
0000
,
0010
0000
1000
0100
0000
1000
0100
0000
0010
0000
0001
0100
0000
0001
0100
0000
,
0010
0000
1000
0000
0001
0000
1000
0000
0100
0000
0010
0001
0000
0001
1000
0000
,
0010
0000
0100
0000
1000
0000
0100
0000
0001
0000
0010
0100
0000
0100
1000
0000
,
0001
0000
1000
0000
0010
0000
0100
0000
0001
0000
1000
0010
0000
0010
0100
0000
,
1000
0000
0100
0000
0001
0000
0010
0000
0100
0000
1000
0001
0000
0001
0100
0000
,
0010
0000
1000
0001
0000
0000
0010
0000
0100
0000
1000
0001
0000
1000
0010
0000
,
0100
0000
0010
1000
0000
0000
0100
0000
0010
0000
0001
1000
0000
0001
0100
0000
,
0010
1000
0100
0010
0001
0100
0001
1000
,
0010
0100
0020
0200
0000
0000
0000
0000
0030
0000
0000
0000
0301
0000
0001
0000
,
0011
0000
0000
0001
1000
0000
1100
0000
0000
0000
0010
0100
0000
0000
0001
0000
,
0010
0000
0100
0000
1000
0001
1000
0000
0000
0000
0101
0000
0100
0000
0010
0000
,
1000
0000
0001
0100
0001
0000
0011
0000
0000
0000
1000
0100
0000
1000
0100
0000
,
0010
0001
1000
0001
0100
1000
0100
0010
,
1000
0000
0100
0000
0010
0000
0001
0000
0100
0000
0000
0010
0000
0000
0100
0000
,
0001
0000
1000
0000
0100
0000
0010
0000
0001
0000
0000
1000
0000
0000
0001
0000
,
1000
0000
0010
0000
1000
0000
0100
0000
0010
0000
0000
0001
0000
0000
0110
0000
,
1001
0000
0000
0000
;

//---------------dance-single - ----------------
#NOTES:
     dance-single:
     :
     Challenge:
     16:
     :
0000
0000
0000
0000
,
0000
0000
0000
0000
,
0000
0000
0000
0000
,
0000
0000
0000
0000
,
0000
0000
0000
0000
,
0000
0000
0000
0000
,
0000
0000
0000
0000
,
0000
0000
0000
0000
,
0000
0000
0000
0000
,
0000
0000
0000
0000
,
1001
0000
0000
0000
1000
0010
0000
0010
0100
0000
0000
0000
0110
0000
0000
0000
,
0001
0000
0000
0000
0010
0001
0000
0001
0100
0000
0000
0000
1010
0000
0000
1000
,
0001
0000
0000
0000
1000
0001
0000
0001
0100
0000
0000
0000
0101
0000
0000
0000
,
0010
0000
0000
0000
1000
0001
0000
0001
0010
0000
0000
0000
0011
0000
0000
0000
,
1100
0000
0000
0000
0010
1000
0000
0001
0100
0000
0000
0000
0001
0010
0000
0100
,
1000
0000
0000
0000
0100
1000
0000
0001
0010
0000
0000
0000
1000
0001
0000
0100
,
0010
0000
0000
0000
1000
0010
0000
0001
0100
0000
0000
0000
0010
1000
0000
0100
,
0001
0000
0000
0000
0100
0010
0000
1000
0001
0000
1000
0100
1000
0100
1000
0100
,
1000
0000
0010
0000
0100
0001
0000
0001
1000
0000
0100
0000
0010
0000
0001
0000
,
0100
0000
0010
0000
1000
0001
0000
0001
0010
0000
0100
0000
1000
0000
0010
0000
,
0100
0000
0001
0000
0010
0100
0000
0100
1000
0000
0001
0000
1000
0000
0010
0000
,
0100
0000
0010
0000
1000
0001
0000
0001
0010
0000
0100
0000
1000
0000
0001
0000
,
0100
0000
0010
0000
1000
0100
0000
1000
0001
0000
0100
0010
0100
0000
0001
0000
,
0010
0000
0100
0000
1000
0010
0000
1000
0100
0000
0010
0001
0010
0000
0100
0000
,
1000
0000
0001
0000
0010
0100
0000
1000
0100
0000
1000
0001
1000
0000
0010
0000
,
0100
0001
0100
0001
0100
0001
0100
0000
0020
0000
1030
0001
1000
0000
0100
0000
,
1001
0000
0010
0000
1000
0100
0000
0100
0010
0000
0010
0001
0000
0001
1000
0000
,
0010
0000
0100
0000
0001
1000
0000
1000
0100
0000
0010
0001
0010
0000
0100
0000
,
1000
0000
0010
0000
1000
0001
0000
0001
0100
0000
0100
0010
0000
0010
0100
0000
,
0001
0000
0010
0000
0001
1000
0000
1000
0010
0000
0100
0001
0100
0000
0010
0000
,
1000
0000
0100
0000
0010
0001
0000
0001
1000
0000
1000
0001
0000
0001
0100
0000
,
0010
0000
1000
0000
0100
1000
0000
1000
0001
0000
0100
0010
0100
0000
0001
0000
,
0010
0000
0100
0000
1000
0010
0000
0010
0100
0000
0100
0001
0000
0001
1000
0001
,
1000
0000
0010
0000
0100
0001
0000
0001
0010
0000
0100
1000
0100
1000
0100
1000
,
0200
0000
0001
0000
1000
0000
0310
0110
,
1002
0000
0000
0000
0100
0000
0000
0000
0010
0000
0000
0000
1003
0001
0000
1000
,
0200
0000
0001
0000
1000
0000
0310
0110
,
2001
0000
0000
0000
0100
0000
0000
0000
3001
0000
1000
0010
0000
1000
0010
0000
,
0201
0000
1000
0000
0301
0000
0100
0101
,
1100
0000
0000
1000
0010
0000
0000
0010
0100
0000
0001
1000
0000
0001
1000
0000
,
1010
0000
0000
0010
0100
0000
0000
0100
0001
0000
0000
0001
1000
0000
1100
0000
,
0012
0000
0000
0000
0200
0000
0000
0000
0303
0000
0010
1000
0000
0010
1000
0000
,
1001
0010
1000
0100
0001
0100
0010
0100
,
1000
0010
1000
0001
0100
1000
0100
0010
,
0100
0001
1000
0100
0001
0100
0010
0100
,
0001
0000
0100
0000
1000
0000
0010
0000
1000
0000
0001
0100
0000
0010
1000
0000
,
0100
0001
0100
0010
0001
1000
0010
0100
,
1000
0100
0010
0100
0001
0100
1000
0100
,
0001
0010
1000
0010
0100
1000
0001
0100
,
0010
1000
0010
1000
0010
1000
0010
1000
0010
1000
0010
1000
0010
1000
0010
1000
,
0001
0000
0100
0010
0000
0100
0001
0000
1000
0100
1000
0010
0000
0010
0100
0001
,
0100
0000
0010
1000
0000
1000
0001
0000
0010
0100
0010
0001
0000
1000
0100
1000
,
0010
0100
0010
1000
0000
1000
0001
0000
0010
0100
1000
0001
0000
0001
0100
0010
,
0100
0001
1000
0001
0000
0010
0100
0000
1000
0001
1000
0001
1000
0001
1000
0001
,
0100
0000
0010
1000
0001
1000
0100
0000
0010
0001
0010
0001
1000
0010
1000
0100
,
0010
0000
0001
0100
0010
0100
0001
0000
1000
0100
1000
0001
0000
0001
1000
0010
,
0100
0010
0100
0001
0100
0010
1000
0010
1000
0100
1000
0001
0000
0010
0100
0010
,
0100
1000
0100
1000
0001
1000
0010
0100
0001
0010
0001
0010
0000
0001
0100
0010
,
1000
0000
0100
1000
0000
1000
0001
0000
0100
0010
0100
0001
0000
0010
0100
1000
,
0100
0000
1000
0001
0000
0001
0010
0100
1000
0010
1000
0001
0000
1000
0100
1000
,
0010
0100
0010
0100
0001
1000
0100
0000
1000
0010
1000
0001
0000
0100
0010
0100
,
0010
0000
1000
0001
1000
0010
0100
0001
0010
0100
1000
0001
0000
1000
0001
0100
,
0010
0000
1000
0000
0100
0010
0001
0000
1000
0001
0100
0001
1000
0010
0100
0010
,
1000
0000
0100
0010
0000
0100
1000
0001
0010
0001
0100
0010
0000
0010
1000
0100
,
1000
0000
0010
1000
0100
0010
0001
0100
0001
0010
0100
1000
0000
0010
1000
0001
,
1000
0100
0010
0002
0000
0000
0100
0000
0000
0100
0000
0000
0103
0010
1000
0000
,
1001
0000
0010
0000
0100
0000
1000
0000
0001
0000
0100
0010
0000
0100
0010
0000
,
1000
0000
0100
0000
0010
0000
0001
0000
0100
0000
0010
0000
1000
0000
0001
0100
,
0001
0000
0010
0000
0100
0000
1000
0000
0001
0000
0100
0010
0000
0100
0010
0000
,
1000
0000
0100
0000
1000
0001
1000
0000
0010
0000
0100
0001
0000
0100
0001
0000
,
0010
0000
0100
0000
1000
0001
0000
0001
0100
0000
0100
0010
0000
0010
1000
0000
,
0100
0000
0010
0000
0001
1000
0100
0000
1000
0000
0010
0100
0000
0100
0001
1000
,
0100
0000
0010
0001
0010
0100
1000
0000
0010
0000
1000
0001
0000
0001
0100
0000
,
1001
0000
0000
0000
;
