#TITLE:Chance and Dice;
#ARTIST:日本少年;
#ARTISTTRANSLIT:NIPPON SHOUNEN;
#BANNER:Chance and Dice-bn.png;
#BACKGROUND:Chance and Dice-bg.png;
#JACKET:Chance and Dice-jacket.png;
#MUSIC:Chance and Dice.ogg;
#SAMPLESTART:57.53;
#SAMPLELENGTH:20;
#DISPLAYBPM:150;
#BPMS:0=150;
#BGCHANGES:;

//---------------dance-single - ----------------
#NOTES:
     dance-single:
     :
     Beginner:
     3:
     :
0000
0000
0000
0000
,
0000
0000
0000
0000
,
0000
0000
0000
0000
,
1000
0000
0000
0000
,
0001
0000
0000
0000
,
1000
0000
1000
0000
,
0001
0000
0001
0000
,
0010
0000
0000
0000
,
0100
0000
0000
0000
,
0010
0000
0010
0000
,
0100
0000
0100
0000
,
1000
0000
0000
0000
,
0001
0000
0000
0000
,
0100
0000
0000
0000
,
0010
0000
0000
0000
,
1000
0000
1000
0000
,
0001
0000
0001
0000
,
0100
0000
0100
0000
,
0000
0000
0000
0000
,
0001
0000
0001
0000
,
0100
0000
0100
0000
,
1000
0000
1000
0000
,
0001
0000
0001
0000
,
1000
0000
1000
0000
,
0100
0000
0100
0000
,
0001
0000
0001
0000
,
0100
0000
0000
0000
,
1000
0000
0100
0000
,
1000
0000
0000
0000
,
0001
0000
0100
0000
,
0001
0000
0000
0000
,
0001
0000
0000
0000
,
1000
0000
0000
0000
,
0100
0000
0000
0000
,
0010
0000
0000
0000
,
1000
1000
1000
0000
,
0001
0000
0100
0000
,
0001
0000
0001
0000
,
1000
0000
0100
0000
,
1000
0000
1000
0000
,
0010
0000
0000
0000
,
0100
0000
0000
0000
,
1000
0000
0000
0000
,
0001
0000
0001
0000
,
1000
0000
0100
0000
,
1000
0000
0100
0000
,
0001
0000
0100
0000
,
0001
0000
0100
0000
,
1000
1000
1000
0000
,
0001
0001
0001
0000
,
1000
0000
0000
0000
,
1001
0000
0000
0000
,
0001
0000
0001
0000
,
1000
0000
1000
0000
,
0001
0000
0100
0000
,
1000
0000
0100
0000
,
0001
0001
0001
0000
,
0100
0100
0100
0000
,
1000
1000
1000
0000
,
0001
0000
1000
0000
,
1001
0000
0000
0000
,
0000
0000
0000
0000
;

//---------------dance-single - ----------------
#NOTES:
     dance-single:
     :
     Easy:
     5:
     :
0000
0000
0000
0000
,
0000
0000
0000
0000
,
0000
0000
0000
0000
,
0001
1000
1000
0000
,
0010
0001
0001
0000
,
0001
0010
0010
0000
,
0100
0010
0010
0000
,
1000
0001
0001
0000
,
0100
1000
1000
0000
,
1000
0100
0100
0000
,
0010
0100
0100
0000
,
0001
0000
0001
0000
,
1000
0000
1000
0000
,
0010
0000
0100
0000
,
0020
0000
0000
0030
,
0100
0000
0001
0000
,
0010
0000
1000
0000
,
0100
0000
1001
0000
,
0000
0000
0000
0000
,
1000
0100
0001
0000
,
1000
0100
0001
0000
,
1000
0100
0001
0100
,
1000
0100
0001
0000
,
0001
1000
0001
0000
,
0100
1000
0100
0000
,
0001
1000
0010
1000
,
1001
0000
0010
0010
,
0010
0000
0001
0001
,
1000
0000
0100
0100
,
0100
0000
1000
1000
,
0001
0000
0010
1000
,
1010
0000
0100
0001
,
0101
0000
1000
0001
,
1001
0000
0100
0100
,
1001
0000
1001
0000
,
0110
0000
1001
0000
,
1001
0000
0001
0010
,
0100
0100
1000
0000
,
1001
0000
1000
0010
,
0100
0100
0001
0000
,
2000
3000
1000
0001
,
0002
0003
0001
1000
,
2000
3000
1000
0001
,
0001
1000
0010
0100
,
1001
0000
1000
0100
,
0010
0010
0001
0000
,
1001
0000
0001
0100
,
0010
0010
1000
0000
,
0002
0003
0100
0100
,
2000
3000
0100
0100
,
0002
0003
0100
0100
,
1001
0000
0010
0010
,
1001
1000
1000
0000
,
0010
0001
0001
0000
,
0010
1000
1000
0000
,
0100
0010
0100
0010
,
1001
0001
0001
0000
,
0100
1000
1000
0000
,
0100
0001
0001
0000
,
1000
0001
1000
0001
,
2002
0000
0000
0000
,
0000
0000
0000
0000
,
3003
0000
0000
0000
,
0000
0000
0000
0000
;

//---------------dance-single - ----------------
#NOTES:
     dance-single:
     :
     Medium:
     7:
     :
0000
0000
0000
0000
,
0000
0000
0000
0000
,
0000
0000
0000
0000
,
1000
0001
2001
3100
,
0010
1000
1002
0103
,
1000
0010
2010
3001
,
0100
0010
0012
0103
,
0001
1000
1002
0013
,
0100
0001
2001
3010
,
0001
0100
0102
1003
,
0010
0100
2100
3010
,
0200
0000
0000
0300
,
0020
0000
0000
0030
,
2000
0000
0000
3000
,
0002
0000
0000
0003
,
0100
1000
0010
0001
,
0100
1000
0010
0001
,
0100
0000
1001
0000
,
0000
0000
0000
0000
,
0001
0100
1000
0100
,
0001
0000
0100
0000
1000
0100
0001
0000
,
0100
1000
0010
0001
,
0010
0000
1000
0000
1000
0010
0001
0000
,
0100
0000
0100
0000
0010
0100
0010
0000
,
0100
0000
0100
0000
0010
0100
0010
0000
,
1000
1000
0001
0001
,
1001
0000
0010
0010
,
0020
0000
0000
0000
1030
0000
0001
1000
,
0001
0000
0100
0100
,
0200
0000
0000
0000
0301
0000
1000
0001
,
1000
0000
0010
0001
,
0022
0033
0100
1000
,
2200
3300
0001
1000
,
2002
3003
0100
0100
,
1100
0101
1001
0000
,
0010
0000
0000
0010
0000
0000
0010
0000
0100
0000
0000
0000
0000
0000
0000
0000
,
1001
0000
1000
0010
,
0100
0001
0100
0000
0010
0000
1000
0000
,
1001
0000
0001
0010
,
0100
1000
0100
0000
0011
0000
0000
0000
,
0002
0000
0100
1000
,
2003
0000
0010
0001
,
3002
0000
0100
1003
,
1001
0000
0110
0000
1000
0001
1000
0000
,
1001
0000
0001
0010
,
0100
1000
0100
0000
0010
0000
0001
0000
,
1001
0000
1000
0010
,
0100
0001
0100
0000
1010
0000
0000
0000
,
2000
0000
0100
0001
,
3002
0000
0010
1000
,
2003
0000
0100
3001
,
1001
0000
1001
0110
,
1001
1000
1002
0013
,
0100
0001
2001
3010
,
0001
0100
0102
1003
,
0010
0100
2100
3010
,
1000
0000
0001
0000
0001
1000
0100
0000
,
0010
0000
1000
0000
1000
0001
0100
0000
,
1000
0000
0010
0000
0010
1000
0001
0000
,
0100
0010
0011
1100
,
2002
0000
0000
0000
,
0000
0000
0000
0000
,
3003
0000
0000
0000
,
0000
0000
0000
0000
;

//---------------dance-single - ----------------
#NOTES:
     dance-single:
     :
     Hard:
     9:
     :
0000
0000
0000
0000
,
0000
0000
0000
0000
,
0000
0000
0000
0000
,
1100
0000
0000
0000
0101
0000
0000
0000
0010
0000
0000
1000
0000
0000
0100
0000
,
0010
0000
0010
0000
0100
0000
0000
0000
1000
0000
0000
0001
0000
0000
0100
0000
,
0010
0000
0000
0000
1001
0000
0000
0000
0100
0000
0000
0010
0000
0000
0100
0000
,
0001
0000
1000
0000
0010
0000
0100
0000
0010
0000
0000
0010
0000
0000
0100
0000
,
1100
0000
0000
0000
0101
0000
0000
0000
0010
0000
0000
0001
0000
0000
0100
0000
,
0010
0000
0010
0000
0100
0000
0000
0000
0001
0000
0000
1000
0000
0000
0100
0000
,
0010
0000
0000
0000
1001
0000
0000
0000
0100
0000
0000
0010
0000
0000
0100
0000
,
1000
0000
0001
0000
0010
0000
0100
0000
0010
0000
0000
0010
0000
0000
0100
0000
,
2000
0000
0000
3000
,
0002
0000
0000
0003
,
0200
0000
0020
0300
,
2000
0030
0002
3000
,
0103
1000
0010
0001
,
0100
1000
0010
0001
,
0100
0010
1001
0000
,
0000
0000
0100
0100
,
1000
0000
0001
0000
0100
0010
1000
0000
,
0001
0000
1000
0000
0100
0010
0001
0000
,
0100
0000
0010
0000
1000
0001
0100
0000
,
0010
1000
0100
0010
0001
0000
1001
0000
,
0100
0000
0010
0000
1000
0001
0100
0000
,
0010
0000
0100
0000
0001
1000
0100
0000
,
1000
0000
0001
0000
0100
0010
1000
0001
,
0010
0000
0100
0100
,
2001
3100
1002
0103
,
0100
0001
0010
0000
1000
0100
0001
0000
,
2010
3100
0012
0103
,
0100
1000
0010
0000
0001
0100
1000
0000
,
2001
0000
0010
0000
0100
0100
3100
0000
,
1002
0000
0010
0000
0100
0100
0103
0000
,
1100
0101
1100
0101
,
0020
0130
0110
0000
,
1000
0000
0000
0001
0000
0000
0110
0000
1001
0000
0000
0000
0000
0000
0000
0000
,
1100
0000
0011
0000
1000
0001
0010
0000
,
1000
0010
0100
0010
0001
0010
0100
0000
,
0011
0000
1100
0000
0001
1000
0010
0000
,
1000
0100
0010
0100
0001
0000
0110
0000
,
2001
0000
0000
0000
3000
0000
0001
0000
0100
0000
0000
0010
0000
0000
1000
0000
,
1002
0000
0000
0000
0003
0000
1000
0000
0100
0000
0000
0010
0000
0000
0001
0000
,
2002
0000
0000
0000
3003
0000
0010
0000
0010
0000
0000
0100
0000
0000
0010
0000
,
0001
1000
0010
0100
0001
0010
0100
1000
,
1010
0000
0101
0000
1000
0001
0100
0000
,
1000
0100
0010
0100
0001
0100
0010
0000
,
0101
0000
1010
0000
0001
1000
0100
0000
,
1000
0010
0100
0010
0001
0000
0110
0000
,
2001
0000
0000
0000
3000
0000
0001
0000
0010
0000
0000
0100
0000
0000
1000
0000
,
1002
0000
0000
0000
0003
0000
1000
0000
0010
0000
0000
0100
0000
0000
0001
0000
,
2002
0000
0000
0000
3003
0000
0100
0000
0100
0000
0000
0010
0000
0000
0100
0000
,
1001
0000
1001
0110
,
1010
0000
0000
0000
0011
0000
0000
0000
0100
0000
0000
1000
0000
0000
0010
0000
,
0100
0000
0100
0000
0010
0000
0000
0000
1000
0000
0000
0001
0000
0000
0100
0000
,
0010
0000
0000
0000
1001
0000
0000
0000
0010
0000
0000
0100
0000
0000
0010
0000
,
0001
0000
1000
0000
0100
0000
0010
0000
0100
0000
0000
0100
0000
0000
0010
0000
,
1010
0000
0000
0000
0011
0000
0000
0000
0100
0000
0000
0001
0000
0000
0010
0000
,
0100
0000
0100
0000
0010
0000
0000
0000
0001
0000
0000
1000
0000
0000
0010
0000
,
0100
0000
0000
0000
1001
0000
0000
0000
0010
0000
0000
0100
0000
0000
0010
0000
,
1000
0000
0001
0000
0100
0000
0010
0000
0100
0000
0000
0001
0000
0000
1000
0000
,
2002
0000
0000
0000
,
0000
0000
0000
0000
,
3003
0000
0000
0000
,
0000
0000
0000
0000
;

//---------------dance-single - ----------------
#NOTES:
     dance-single:
     :
     Challenge:
     13:
     :
0000
0000
0000
0000
,
0000
0000
0000
0000
,
0000
0000
0000
0000
,
1010
0000
0000
0000
0101
0000
0000
0000
1000
0010
0000
0100
0001
0000
1000
0000
,
0100
0000
0100
0000
0100
0000
0000
0000
1000
0001
0000
0010
0100
0000
1000
0000
,
1100
0000
0000
0000
0011
0000
0000
0000
0100
0010
0000
1000
0001
0000
0100
0000
,
0010
0000
0010
0000
1000
0000
1000
0000
0100
0000
0010
0001
0000
0001
0100
0000
,
0110
0000
0000
0000
1001
0000
0000
0000
0001
0010
0000
0100
1000
0000
0010
0000
,
1000
0000
1000
0000
1000
0000
0000
0000
0001
0100
0000
0010
1000
0000
0001
0000
,
0101
0000
0000
0000
1100
0000
0000
0000
0010
0001
0000
1000
0100
0000
1000
0000
,
0001
0000
0001
0000
1000
0000
1000
0000
0010
0000
0000
0100
0000
0000
0001
0010
,
0001
0000
0000
0100
0000
0000
0010
0000
2020
0000
0000
0000
3030
0000
1000
0100
,
1000
0000
0000
0001
0000
0000
0010
0000
0022
0000
0000
0000
0033
0000
0100
0010
,
0100
0000
0000
0001
0000
0000
1000
0000
0010
0000
0000
1000
0000
0000
0100
0000
,
1000
0000
0000
0001
0000
0000
0020
0000
0200
0000
0000
0000
0330
0000
1000
0010
,
1000
0000
0000
0001
0000
0000
0010
0000
0001
1000
0000
0000
0000
0000
0100
0001
,
0100
0000
0000
0010
0000
0000
1000
0000
0110
0000
0000
0000
1001
0000
0000
0000
,
2000
0000
0100
0001
0002
0000
3003
0020
,
0032
0203
2300
3200
0302
0023
2030
3020
,
0031
0000
0000
1000
0000
0000
0010
0000
1000
0100
1000
0000
0001
0000
0100
0010
,
0100
0000
0000
0001
0000
0000
0010
0000
0100
1000
0100
0000
1000
0000
0001
0010
,
0001
0000
0000
0100
0000
0000
0010
0000
1000
0000
0000
0100
0000
0000
0001
0000
,
0010
0000
0000
0001
0000
0000
1000
0000
0100
0000
0000
0010
0001
0000
1000
0100
,
1000
0000
0000
0010
0000
0000
0100
0000
0001
1000
0001
0000
0010
0000
0001
0100
,
0001
0000
0000
0010
0000
0000
0100
0000
1000
0000
0010
0000
1000
0000
0001
0000
,
0200
0000
0010
0000
0301
0000
1000
0000
0001
0000
0000
1000
0000
0000
0010
0000
,
0100
0001
0010
1000
0010
0100
0010
0001
,
0011
0000
0000
0000
1000
0000
0100
0000
0101
0000
0000
0010
0001
0000
1000
0000
,
1001
0000
0000
0000
0010
0100
0010
0100
0010
0000
1000
0000
0001
0000
1000
0000
,
1010
0000
0000
0000
0001
0000
1000
0000
1100
0000
0000
0010
1000
0000
0100
0000
,
0110
0000
0000
0000
0001
1000
0001
1000
0001
0000
0000
0010
0000
0000
0100
0000
,
1000
0000
0010
0000
1000
0000
0001
0000
0100
0010
0000
0010
1000
0000
0001
0000
,
0010
0000
0100
0000
1000
0000
0010
0000
1000
0001
0000
0001
0100
0000
0010
0000
,
1000
0000
0100
0000
0001
0000
0100
0000
0010
0000
0001
1000
0000
1000
0010
0000
,
0100
0000
0000
0001
0000
0000
1000
0000
0100
0000
0010
0001
0010
0000
0001
1000
,
0001
0000
0000
0100
0000
0000
1001
0000
0220
0000
0000
0000
0330
0000
0000
0000
,
1001
0000
0010
0000
1000
0000
0100
0000
0010
0001
0000
0001
0100
0000
0010
0000
,
2000
0001
3001
0100
0010
1000
0100
0010
,
0011
0000
0000
0000
1000
0000
0001
0000
1000
0010
0000
0100
0001
0000
1000
0000
,
0100
0000
1000
0010
0000
1000
0001
0000
0200
0000
0000
0000
0320
0000
0000
0000
,
1030
0000
0000
0100
1000
0000
0001
0000
0010
0000
0000
0001
0100
0000
0010
0000
,
1000
0000
0000
0100
0010
0000
0001
0000
0100
0000
0000
0010
1000
0000
0001
0000
,
0010
0000
0000
0001
1000
0000
0010
0000
1000
0000
0000
0001
0000
0000
0100
0000
,
0001
0000
0000
1000
0000
0000
0100
0000
1100
0000
0000
0000
0101
0000
0000
0000
,
1010
0000
0000
0000
1000
0000
0001
0000
0010
0100
0000
0010
0001
0000
1000
0000
,
0010
1000
0000
1000
0100
0000
0010
0000
0001
0000
1000
0000
0100
0000
0000
0000
,
0011
0000
0000
0000
1100
0000
0001
0000
0010
0001
0000
1000
0010
0000
0100
0000
,
0001
0010
0000
0100
1000
0000
0010
0000
0101
0000
0000
0000
0011
0000
0000
0000
,
1010
0000
0000
0100
1000
0000
0001
0000
0010
0000
0000
0001
0100
0000
0010
0000
,
1000
0000
0000
0100
1000
0000
0001
0000
0010
0000
0000
0010
0001
0000
0100
0000
,
0010
0000
0000
1000
0001
0000
1000
0000
0100
0000
0000
0010
0001
0000
0100
0000
,
2020
3030
1001
0011
,
0110
0000
0000
0000
1100
0000
0000
0000
0001
1000
0000
0010
0100
0000
0001
0000
,
0010
0000
0010
0000
0010
0000
0000
0000
0001
1000
0000
0010
0100
0000
0001
0000
,
0101
0000
0000
0000
0110
0000
0000
0000
0010
1000
0000
0100
0001
0000
1000
0000
,
0100
0000
0100
0000
0010
0000
0010
0000
0001
0000
1000
0001
0000
1000
0001
0000
,
0011
0000
0000
0000
1100
0000
0000
0000
0010
0001
0000
1000
0100
0000
0001
0000
,
1000
0000
1000
0000
1000
0000
0000
0000
0010
0100
0000
0001
1000
0000
0010
0000
,
1001
0000
0000
0000
1010
0000
0000
0000
1000
0100
0000
0010
0001
0000
0100
0000
,
0001
0000
0001
0000
1000
0000
1000
0000
0010
0000
0100
0010
0000
1000
0001
0000
,
0202
0000
0000
0000
,
0000
0000
0000
0000
,
0303
0000
0000
0000
;

//---------------dance-double - ----------------
#NOTES:
     dance-double:
     :
     Easy:
     4:
     :
00000000
00000000
00000000
00000000
,
00000000
00000000
00000000
00000000
,
00000000
00000000
00000000
00000000
,
00100000
10000000
10000000
00000000
,
00010000
01000000
01000000
00000000
,
00001000
00010000
00010000
00000000
,
00000010
00001000
00001000
00000000
,
00000100
00000001
00000001
00000000
,
00001000
00000010
00000010
00000000
,
00010000
00001000
00001000
00000000
,
00100000
01000000
01000000
00000000
,
10000000
00000000
00000000
00000000
,
00010000
00000000
00000000
00000000
,
00001000
00000000
00000000
00000000
,
00000001
00000000
00000000
00000000
,
00000010
00000010
00000010
00000000
,
00001000
00001000
00001000
00000000
,
00020000
00000000
00002000
00033000
,
00000000
00000000
00000000
00000000
,
00010000
00000000
00000000
00000000
,
00001000
00000000
00000000
00000000
,
00010000
00000000
00010000
00000000
,
01000000
01000000
10000000
00000000
,
00100000
00100000
00100000
00000000
,
00001000
00001000
00001000
00000000
,
00000010
00000010
00000010
00000010
,
00000002
00000000
00000103
00000100
,
00000100
00000000
00000001
00001000
,
00000001
00000000
00001000
00001000
,
00001000
00000000
00000100
00010000
,
00000100
00000000
00010000
00001000
,
00010000
00000000
00100000
01000000
,
00100000
00000000
10000000
00010000
,
10000000
00000000
00100000
00001000
,
00010000
00001000
00010000
00000000
,
00011000
00000000
00011000
00000000
,
00000010
00000000
00000001
00000001
,
00000010
00000100
00000100
00000000
,
00010000
00000000
00001000
00001000
,
00010000
00001000
00001000
00010000
,
00010000
00000000
01000000
00100000
,
01000000
00000000
10000000
01000000
,
10000000
00000000
00010000
01000000
,
00010000
00100000
01000000
10000000
,
00100000
00000000
10000000
10000000
,
00100000
01000000
01000000
00000000
,
00001000
00000000
00010000
00010000
,
00001000
00010000
00010000
00001000
,
00001000
00000000
00000100
00000010
,
00000100
00000000
00000001
00000100
,
00000001
00000000
00001000
00000100
,
00001000
00000000
00000010
00000010
,
00000010
00000001
00000001
00000000
,
00001000
00000100
00000100
00000000
,
00010000
00001000
00001000
00000000
,
00100000
00010000
00010000
00000000
,
01000000
10000000
10000000
00000000
,
00010000
00100000
00100000
00000000
,
00001000
00010000
00010000
00000000
,
00000010
00000100
00000010
00000100
,
00000020
00000000
00000000
00000000
,
00000000
00000000
00000000
00000000
,
00000030
00000000
00000000
00000000
,
00000000
00000000
00000000
00000000
;

//---------------dance-double - ----------------
#NOTES:
     dance-double:
     :
     Medium:
     7:
     :
00000000
00000000
00000000
00000000
,
00000000
00000000
00000000
00000000
,
00000000
00000000
00000000
00000000
,
11000000
00000000
11000000
00000000
10000000
01000000
00010000
00000000
,
00001000
00010000
00000010
00000100
,
00000101
00000000
00000101
00000000
00000001
00000100
00001000
00000000
,
00010000
00001000
01000000
00100000
,
10100000
00000000
10100000
00000000
10000000
01000000
00010000
00000000
,
00001000
00010000
00000100
00000010
,
00000011
00000000
00000011
00000000
00000001
00000100
00001000
00000000
,
00010000
00001000
00010000
00001000
,
00020000
00000000
00000000
00030000
,
00002000
00000000
00000000
00003000
,
02000000
00000000
00000000
03000000
,
00200000
00000000
00000000
00300000
,
20000000
00000000
00010000
30000000
,
00002000
00000000
00100000
00003000
,
00020000
00000000
00000100
00030000
,
00000010
00000010
00000010
00000010
,
00001000
00000001
00001000
00000100
,
00010000
00001000
00100000
00010000
,
01000000
00100000
10000000
01000000
,
00010000
00001000
00000100
00000000
,
00000001
00001000
00000001
00000100
,
00000010
00010000
00001000
00010000
,
01000000
00100000
00010000
10000000
,
10010000
00000000
00100000
00100000
,
00200000
00000000
00000000
00000000
00301000
00000000
01000000
00010000
,
00100000
00000000
00001000
00001000
,
00002000
00000000
00000000
00000000
00013000
00000000
00000010
00000100
,
00000001
00000000
00000100
00000100
,
00000200
00000000
00000310
00000010
,
00000020
00000000
00010030
00010000
,
00020000
00000000
00031000
00001000
,
00002000
00010000
00013000
00000000
,
00012000
00100000
01003000
00000000
,
01100000
00000000
10000000
01000000
,
00010000
00001000
00000100
00000000
,
00000110
00000000
00000001
00000100
,
00001000
00010000
01000000
00000000
,
10010000
00000000
00000000
00000000
00001000
00000000
00100000
00100000
,
00001000
00000000
00000000
00000000
00010000
00000000
00000010
00000010
,
00010000
00000000
00001000
00010000
,
00001000
00000000
00000100
00000000
00000001
00001000
00000001
00000000
,
00001001
00000000
00000001
00000100
,
00001000
00010000
01000000
00000000
,
10010000
00000000
10000000
01000000
,
00010000
00001000
00000100
00000000
,
00000110
00000000
00000000
00000000
00010000
00000000
00000100
00000100
,
00010000
00000000
00000000
00000000
00001000
00000000
01000000
01000000
,
00001000
00000000
00000100
00000001
,
00001000
00000000
00100000
01000000
,
10100000
00000000
10100000
00000000
10000000
00100000
00010000
00000000
,
00001000
00010000
00000100
00000010
,
00000011
00000000
00000011
00000000
00000001
00000010
00001000
00000000
,
00010000
00001000
00100000
01000000
,
11000000
00000000
11000000
00000000
10000000
00100000
00010000
00000000
,
00001000
00010000
00000010
00000100
,
00000101
00000000
00000101
00000000
00000001
00000010
00001000
00000000
,
00010000
00001000
00010000
00001000
,
00022000
00000000
00000000
00000000
,
00000000
00000000
00000000
00000000
,
00033000
00000000
00000000
00000000
,
00000000
00000000
00000000
00000000
;

//---------------dance-double - ----------------
#NOTES:
     dance-double:
     :
     Hard:
     10:
     :
00000000
00000000
00000000
00000000
,
00000000
00000000
00000000
00000000
,
00000000
00000000
00000000
00000000
,
00000011
00000000
00000000
00000000
00001100
00000000
00000000
00000000
00000010
00000000
00000000
00001000
00000000
00000000
00000100
00000000
,
00010000
00000000
00001000
00000000
00010000
00000000
00000000
00000000
00100000
00000000
00000000
01000000
00000000
00000000
10000000
00000000
,
10100000
00000000
00000000
00000000
01010000
00000000
00000000
00000000
00100000
00000000
00000000
10000000
00000000
00000000
01000000
00000000
,
00010000
00000000
00001000
00000000
00010000
00000000
00001000
00000000
00000010
00000000
00000000
00000001
00000000
00000000
00000100
00000000
,
00000101
00000000
00000000
00000000
00001010
00000000
00000000
00000000
00000001
00000000
00000000
00000100
00000000
00000000
00001000
00000000
,
00000100
00000000
00010000
00000000
01000000
00000000
00000000
00000000
00100000
00000000
00000000
10000000
00000000
00000000
01000000
00000000
,
11000000
00000000
00000000
00000000
00110000
00000000
00000000
00000000
10000000
00000000
00000000
01000000
00000000
00000000
00010000
00000000
,
01000000
00000000
00001000
00000000
00000100
00000000
00000010
00000000
00000001
00000000
00000000
00001000
00000000
00000000
00000010
00000000
,
00000200
00000000
00000000
00000300
,
00000020
00000000
00000000
00000030
,
00020000
00000000
00002000
00030000
,
02000000
00003000
00200000
03000000
,
10300000
00000000
01000000
00000000
00010000
00000010
00001000
00000000
,
00000001
00000000
00000100
00000000
00001000
01000000
00010000
00000000
,
00100000
00000000
10000000
00000000
00100000
00001000
00010000
00000000
,
00000010
00000001
00000010
00001000
,
00000001
00000010
00000100
00000000
00001000
00000000
00000010
00000000
,
00010000
00001000
00010000
00000000
00100000
00000000
01000000
00000000
,
10000000
01000000
00100000
00000000
10000000
00000000
01000000
00000000
,
00010000
00001000
00010000
00000000
00000010
00000000
00000100
00000000
,
00000001
00001000
00000001
00001000
00000010
00001000
00000010
00001000
,
00000100
00010000
00000100
00010000
00001000
00100000
00001000
00100000
,
00010000
01000000
00010000
01000000
00010000
10000000
00010000
10000000
,
00100000
10000000
00100000
10000000
00010000
00000000
01000000
00000000
,
20100000
00000000
00000000
00000000
30010000
00000000
01000000
00100000
,
00001000
00000000
00010000
00000100
,
00000012
00000000
00000000
00000000
00001003
00000000
00000010
00000100
,
00010000
00000000
00000000
00000000
00000000
00000000
00001000
00000000
00001000
00000000
00000000
00010000
00000000
00000000
00100000
00000000
,
02000000
00000000
00000000
00000000
00000000
00000000
10000000
00000000
13000000
00000000
00000000
00010000
00000000
00000000
00100000
00000000
,
00002000
00000000
00000000
00000000
00000000
00000000
00010000
00000000
00013000
00000000
00000000
00000010
00000000
00000000
00000100
00000000
,
00000002
00000000
00000000
00000000
00000000
00000000
00001000
00000000
00001003
00000000
00000000
00000010
00000000
00000000
00010000
00000000
,
00001000
00000000
00000000
00001000
00000000
00000000
00001000
00000000
00011000
00000000
00000000
00000000
00000000
00000000
00000000
00000000
,
00011000
00000000
00000000
00011000
00000000
00000000
00110000
00000000
21000000
00000000
00000000
00000000
00000000
00000000
00000000
00000000
,
30010000
00000000
00101000
00000000
10000000
00010000
00100000
01000000
,
10000000
00100000
01000000
00001000
00010000
00000010
00001000
00000000
,
00001000
00000000
00010010
00000000
00000001
00001000
00000010
00000100
,
00000001
00000010
00000100
00010000
00001000
00100000
00010000
00000000
,
00020000
01000000
10000000
00100000
,
00032000
00000100
00000001
00000010
,
00023000
00100000
10000000
01000000
,
00032000
00000010
00000001
00000100
,
00003001
00000000
00010100
00000000
00000001
00001000
00000100
00000010
,
00000001
00000100
00000010
00010000
00001000
01000000
00010000
00000000
,
10000000
00000000
01001000
00000000
10000000
00010000
01000000
00100000
,
10000000
01000000
00100000
00001000
00010000
00000100
00001000
00000000
,
00002000
00000100
00000001
00000010
,
00023000
01000000
10000000
00100000
,
00032000
00003200
00020300
00032000
,
00013000
00000000
00011000
00101000
,
11000000
00000000
00000000
00000000
00110000
00000000
00000000
00000000
01000000
00000000
00000000
00010000
00000000
00000000
00100000
00000000
,
00001000
00000000
00010000
00000000
00001000
00000000
00000000
00000000
00000100
00000000
00000000
00000010
00000000
00000000
00000001
00000000
,
00000101
00000000
00000000
00000000
00001010
00000000
00000000
00000000
00000100
00000000
00000000
00000001
00000000
00000000
00000010
00000000
,
00001000
00000000
00010000
00000000
00001000
00000000
00010000
00000000
01000000
00000000
00000000
10000000
00000000
00000000
00100000
00000000
,
10100000
00000000
00000000
00000000
01010000
00000000
00000000
00000000
10000000
00000000
00000000
00100000
00000000
00000000
00010000
00000000
,
00100000
00000000
00001000
00000000
00000010
00000000
00000000
00000000
00000100
00000000
00000000
00000001
00000000
00000000
00000010
00000000
,
00000011
00000000
00000000
00000000
00001100
00000000
00000000
00000000
00000001
00000000
00000000
00000010
00000000
00000000
00001000
00000000
,
00000010
00000000
00010000
00000000
00100000
00000000
01000000
00000000
10000000
00000000
00000000
00010000
00000000
00000000
01000000
00000000
,
02200000
00000000
00000000
00000000
,
00000000
00000000
00000000
00000000
,
03300000
00000000
00000000
00000000
,
00000000
00000000
00000000
00000000
;
