#TITLE:Chaise Longue;
#SUBTITLE:;
#ARTIST:Wet Leg;
#TITLETRANSLIT:;
#SUBTITLETRANSLIT:;
#ARTISTTRANSLIT:;
#GENRE:;
#CREDIT:;
#BANNER:Chaise Longue-bn.png;
#BACKGROUND:Chaise Longue-bg.png;
#LYRICSPATH:;
#CDTITLE:;
#MUSIC:Chaise Longue.ogg;
#OFFSET:-0.018750;
#SAMPLESTART:84.018997;
#SAMPLELENGTH:20.000000;
#SELECTABLE:YES;
#DISPLAYBPM:160.000000;
#BPMS:0.000000=160.000000
;
#STOPS:
;
#BGCHANGES:;
#KEYSOUNDS:;
#ATTACKS:;

//---------------dance-single - ----------------
#NOTES:
     dance-single:
     :
     Hard:
     12:
     0.531469,0.528248,0.177156,0.177156,0.000000,462.000000,440.000000,22.000000,22.000000,0.000000,0.000000,0.531469,0.528248,0.177156,0.177156,0.000000,462.000000,440.000000,22.000000,22.000000,0.000000,0.000000:
0000
0000
0000
0000
,
0000
0000
0000
0000
,
0000
0000
0000
0000
,
0000
0000
0000
0000
,
0000
0000
0000
0000
,
0000
0000
0000
0000
,
1000
0100
0000
0000
0001
0100
0000
0000
,
0110
0000
0010
1000
0000
0000
0000
0001
,
1000
0000
0010
0010
0000
0000
1000
0001
,
0010
0001
0100
0100
0000
0000
0000
0000
,
0002
0023
0230
2300
,
3010
0100
0010
0100
0000
0000
0000
0001
,
0010
0000
0001
0001
0000
0000
0100
0010
,
1000
1000
1000
0000
1001
0000
0000
0000
,
0010
0000
1000
0100
1000
0000
0001
0010
,
0100
0100
0100
0000
1000
0010
0001
0000
,
0100
0000
0001
0010
0001
0000
1000
0001
,
0100
0100
0100
0000
0001
1000
0010
0000
,
1000
0000
0100
0010
0100
0000
0010
0001
,
1000
1000
1000
0000
1001
0000
0000
0001
,
0100
0000
0100
0010
0000
0010
1000
0001
,
0010
0010
0010
0000
0001
0100
1000
0000
,
0010
1000
0000
1000
0100
0010
0000
0010
,
0001
0100
0000
0100
0001
1000
0001
0000
,
0020
0000
0230
0000
1300
1000
0000
0001
,
0100
0000
0000
0000
0000
0000
0010
0100
,
0001
0010
0100
1000
0001
0010
0100
1000
,
0010
0100
0001
1000
2000
0000
3000
0100
,
0010
0002
0100
0000
0100
0000
0103
0000
,
1010
0000
0001
0000
0100
0000
0100
0010
,
1000
0002
0100
0000
0100
0000
0103
0000
,
1010
1000
0100
0100
,
1000
0020
0230
0301
,
0012
0000
1000
1003
0000
0000
0000
0000
,
0010
0100
0002
0000
2003
0000
3100
0010
,
0002
0000
0100
0103
0010
0000
1000
0000
,
1000
0100
0001
0000
1000
0010
0001
0000
,
0100
0010
0000
0200
0000
0000
0300
0000
,
0110
0000
1000
0002
0000
0023
0000
0130
,
1000
1000
1100
0000
,
0010
0001
0010
0001
0100
0010
0100
0010
,
1000
0100
0010
0001
0000
0001
1000
0000
,
0010
1000
0010
1000
0001
0010
0001
0010
,
0100
1000
0001
1000
0010
0100
0100
0000
,
1000
0001
1000
0001
0100
1000
0100
1000
,
0100
0001
1000
0010
0000
0010
0100
0000
,
0001
0100
0001
0100
0010
0001
0010
0001
,
0010
1000
0001
1000
0100
0010
0010
0000
,
0001
0100
1000
0000
0010
0000
1000
0100
,
0001
0000
0010
0000
0100
0010
0001
0000
,
1000
1100
0110
0011
,
0100
0001
1000
0000
1001
0000
1001
0000
,
0010
1000
0001
0000
0100
0000
0001
0010
,
0100
0000
1000
0000
0010
1000
0100
0000
,
0001
0101
1001
1100
,
1000
0100
0010
0000
0110
0000
0110
0000
,
0001
1000
0001
1000
0100
0010
0100
0010
,
0001
0100
0010
1000
0000
1000
0100
0000
,
1000
0010
1000
0010
0100
0001
0100
0001
,
0010
0100
1000
0001
1000
0100
0100
0000
,
1000
0010
0100
0001
0010
0100
1000
0001
,
1000
0100
0010
0001
0000
0001
0100
0000
,
0001
0010
0100
1000
0010
0100
0001
1000
,
0100
0010
0001
0100
0010
1000
1000
0000
,
0010
1000
0010
1000
0100
0010
0100
0010
,
0001
0100
0010
1000
0000
1000
0001
0000
,
0010
0001
0010
0001
1000
0100
1000
0100
,
1000
0001
1000
0010
0200
0001
0301
0000
,
0010
0001
0100
0001
0010
0100
1000
0100
,
0010
0100
1000
0001
0000
0001
0100
0000
,
0010
0100
0001
1000
0100
0010
0001
1000
,
0010
1000
0100
0010
0002
1000
1003
0000
,
1000
0100
1000
0100
0001
0100
0001
0100
,
1000
0010
0100
0001
0010
0100
1000
0000
,
0001
0010
0001
0010
1000
0010
1000
0010
,
0001
0100
0010
0100
0001
1000
0100
0000
,
1000
0010
1000
0010
0001
0010
0001
0010
,
1000
0001
1000
0100
0010
0001
0100
0000
,
0001
0010
1000
0000
0100
0000
1100
0000
,
0101
0000
1100
0000
0010
0100
0001
0000
,
2002
0000
0000
0000
,
0000
0000
0000
0000
,
3003
0000
0000
0000
;

//---------------dance-single - ----------------
#NOTES:
     dance-single:
     :
     Medium:
     10:
     0.409531,0.495233,0.193262,0.297945,0.000000,356.000000,332.000000,24.000000,37.000000,0.000000,0.000000,0.409531,0.495233,0.193262,0.297945,0.000000,356.000000,332.000000,24.000000,37.000000,0.000000,0.000000:
0000
0000
0000
0000
,
0000
0000
0000
0000
,
0000
0000
0000
0000
,
0000
0000
0000
0000
,
0000
0000
0000
0000
,
0000
0000
0000
0000
,
1000
0100
0000
0000
0001
0100
0000
0000
,
0110
0000
0000
1001
0000
0000
0000
0000
,
0010
0000
0000
1000
0000
0000
0001
0100
,
0001
0000
0010
0100
0000
0000
0000
0000
,
2000
3200
0320
0032
,
0103
0010
0100
0010
0000
0000
0000
0000
,
1000
0000
0000
0001
0000
0000
0010
0100
,
1000
0001
1000
0000
1001
0000
0000
0000
,
0010
0000
0100
0000
0001
0000
1000
0010
,
0100
0010
0100
0000
0110
0000
0000
0000
,
0001
0000
0010
0000
0100
0000
1000
0010
,
0100
0010
0100
0000
0110
0000
0000
0000
,
0001
0000
0010
0000
0001
0000
0100
0010
,
1000
0010
1000
0000
1001
0000
0000
0000
,
1000
0000
0000
0100
0000
0000
0010
0001
,
1000
0100
1000
0000
1001
0000
0000
0000
,
0010
0100
0001
1000
,
0100
0000
0010
0000
0001
1000
0001
0000
,
0020
0000
0230
0000
1300
0001
0000
0101
,
0000
0000
0000
0000
0000
0000
1000
0001
,
1000
0100
0010
0000
0001
0100
0010
0000
,
1000
0001
1000
0010
0000
0000
0000
0100
,
0001
2000
0100
0000
0100
0000
3100
0000
,
1010
0000
0000
0000
0000
0000
0000
0100
,
1000
0002
0100
0000
0100
0000
0103
0000
,
1010
0000
0000
0000
,
0000
0002
2000
3003
,
0010
0000
1000
0100
0000
0000
0000
0000
,
1000
0100
0001
0000
0001
0000
0001
0010
,
0100
0000
1000
0010
0000
0000
0000
0000
,
1000
0001
1000
0000
0100
0020
0000
0000
,
0031
0100
0000
0200
0000
0000
0300
0000
,
0110
0000
0000
1000
0000
0001
0000
1000
,
0100
0100
1100
0000
,
2000
0000
3002
0000
0013
0100
0010
0100
,
1000
0000
0001
0100
0000
0100
0010
0000
,
0200
0000
0302
0000
1003
0010
1000
0010
,
0000
0010
0100
0000
0001
0010
1000
0000
,
0200
0000
0320
0000
0031
1000
0001
1000
,
0010
0000
1000
0001
0000
0001
0100
0000
,
0020
0000
2030
0000
3001
0100
0001
0100
,
0000
0100
0010
1000
0002
0000
0023
0000
,
0031
0100
0010
1000
,
0100
0010
0001
1000
,
0010
0010
0100
0100
,
0010
1000
0100
0001
,
0010
0001
0100
1000
,
0001
0010
0100
1000
,
0001
0001
1000
1000
,
0010
1000
0001
0100
,
0002
0000
0023
0000
0130
1000
0100
1000
,
0010
0000
1000
0100
0000
0001
0100
0000
,
0020
0000
0230
0000
0301
1000
0001
1000
,
0000
1000
0100
0000
1000
0001
0010
0000
,
0200
0000
2300
0000
3001
0010
0001
0010
,
0100
0000
0010
0001
0000
1000
0010
0000
,
2000
0000
3200
0000
0310
0001
0010
0001
,
0000
0001
1000
0000
0010
1000
0100
0000
,
0001
0010
1000
0000
0100
0000
0010
0100
,
1000
0000
0001
0000
1000
0010
0100
0000
,
0001
0011
0110
1100
,
0010
1000
0001
0000
1001
0000
0000
0000
,
0100
1000
0001
0000
0010
0000
0100
0010
,
0001
0000
1000
0000
0001
0100
1000
0000
,
0010
1010
0110
0101
,
0010
0100
1000
0000
1001
0000
0000
0000
,
0001
0010
1000
0000
0001
0100
1000
0000
,
0010
0100
0001
0000
0011
0000
0000
0000
,
1000
0100
0001
0000
1000
0010
0001
0000
,
0100
0010
1000
0000
1010
0000
0000
0000
,
0001
1000
0100
0000
1000
0001
0010
0000
,
0100
1000
0010
0000
0101
0000
0000
0000
,
0001
0010
0200
0000
2300
0000
3002
0000
,
0203
0000
0320
0000
1030
0001
1000
0000
,
2002
0000
0000
0000
,
0000
0000
0000
0000
,
3003
0000
0000
0000
;

//---------------dance-single - ----------------
#NOTES:
     dance-single:
     :
     Easy:
     6:
     0.279539,0.363171,0.128841,0.096631,0.000000,243.000000,227.000000,16.000000,12.000000,0.000000,0.000000,0.279539,0.363171,0.128841,0.096631,0.000000,243.000000,227.000000,16.000000,12.000000,0.000000,0.000000:
0000
0000
0000
0000
,
0000
0000
0000
0000
,
0000
0000
0000
0000
,
0000
0000
0000
0000
,
0000
0000
0000
0000
,
0000
0000
0000
0000
,
1000
0000
0001
0000
,
0100
0100
0100
0000
,
0010
1000
0001
0000
,
0010
0100
1000
0000
,
0001
0001
1000
1000
,
0010
1000
0001
0000
,
0010
0001
0100
0000
,
0010
1000
0100
0000
,
1000
0000
0001
0000
,
0100
0100
0110
0000
,
0010
0000
1000
0000
,
0001
0001
1001
0000
,
1000
0000
0100
0000
,
0010
0010
0110
0000
,
0001
0001
1000
1000
,
0010
0100
1001
0000
,
1000
0000
0010
0000
,
0001
0000
0100
0100
,
0010
0010
0010
0000
,
1001
0000
0000
0010
,
1000
0100
1000
0100
,
0001
0001
0110
0000
,
2000
0100
0100
3100
,
1001
0000
0000
0000
,
0002
0100
0100
0103
,
1001
0000
0000
0000
,
0000
0010
0100
0000
,
0110
0001
1000
0000
,
0100
0100
0100
0100
,
1000
0010
0001
0000
,
0010
0001
1000
0000
,
0100
0000
0100
0000
,
1000
1000
0010
0100
,
0001
1000
0110
0000
,
1000
0001
0200
0000
,
0000
0010
0000
0310
,
0100
0001
2000
0000
,
0000
3010
0100
0100
,
1000
0010
0002
0000
,
0000
0100
0000
0103
,
0001
1000
0020
0000
,
0000
1030
0001
0001
,
0100
0010
0100
0000
,
0001
0010
0001
0000
,
1000
1000
0001
0001
,
0010
0100
1000
0000
,
0010
1000
0010
0000
,
1000
0001
1000
0000
,
0010
0010
0100
0100
,
0001
1000
0100
0000
,
0010
0001
2000
0000
,
0000
0100
0000
3100
,
0010
0001
0200
0000
,
0000
0310
1000
0001
,
1000
0100
0020
0000
,
0000
0001
0000
0031
,
1000
0100
0002
0000
,
0000
0013
0100
1000
,
0001
0001
0001
0100
,
0010
0010
0010
0100
,
0001
0001
1000
1000
,
0010
0100
0110
0000
,
1000
1000
1000
0001
,
0100
0100
0100
0001
,
0010
0010
0100
0100
,
1000
0001
1001
0000
,
0010
0100
0010
0100
,
0001
1000
0100
0000
,
1000
0001
1000
0001
,
0100
0010
1000
0000
,
0001
0010
0100
1000
,
0110
1001
0110
0000
,
0001
0001
1000
1000
,
0010
0100
0010
0100
,
2002
0000
0000
0000
,
0000
0000
0000
0000
,
3003
0000
0000
0000
;

//---------------dance-single - ----------------
#NOTES:
     dance-single:
     :
     Beginner:
     3:
     0.159901,0.225472,0.048315,0.000000,0.000000,139.000000,133.000000,6.000000,0.000000,0.000000,0.000000,0.159901,0.225472,0.048315,0.000000,0.000000,139.000000,133.000000,6.000000,0.000000,0.000000,0.000000:
// measure 0
0000
0000
0000
0000
,  // measure 1
0000
0000
0000
0000
,  // measure 2
0000
0000
0000
0000
,  // measure 3
0000
0000
0000
0000
,  // measure 4
0000
0000
0000
0000
,  // measure 5
0000
0000
0000
0000
,  // measure 6
1000
0000
0001
0000
,  // measure 7
0100
0000
0000
0000
,  // measure 8
0010
0000
1000
0000
,  // measure 9
0001
0000
0000
0000
,  // measure 10
0010
0000
0010
0000
,  // measure 11
0100
0000
0000
0000
,  // measure 12
1000
0000
1000
0000
,  // measure 13
0001
0000
1001
0000
,  // measure 14
0010
0000
0000
0000
,  // measure 15
1000
1000
1000
0000
,  // measure 16
0100
0000
0000
0000
,  // measure 17
0010
0010
0010
0000
,  // measure 18
0001
0000
0000
0000
,  // measure 19
0100
0100
0100
0000
,  // measure 20
0010
0000
1000
0000
,  // measure 21
0001
0000
1001
0000
,  // measure 22
0010
0000
0010
0000
,  // measure 23
0010
0000
0100
0000
,  // measure 24
0001
0000
1000
0000
,  // measure 25
0001
0000
0000
0000
,  // measure 26
0010
0000
0010
0000
,  // measure 27
0100
0000
0100
0000
,  // measure 28
1000
0000
0000
0000
,  // measure 29
1001
0000
0000
0000
,  // measure 30
0001
0000
0000
0000
,  // measure 31
1001
0000
0000
0000
,  // measure 32
0000
0010
0010
0000
,  // measure 33
1000
0000
0000
0000
,  // measure 34
0001
0000
1000
0000
,  // measure 35
0100
0000
0000
0000
,  // measure 36
0010
0000
0001
0000
,  // measure 37
0100
0000
0100
0000
,  // measure 38
1000
0000
1000
0000
,  // measure 39
0001
0000
1001
0000
,  // measure 40
0010
0010
0010
0000
,  // measure 41
0000
0000
1000
0000
,  // measure 42
0100
0100
0100
0000
,  // measure 43
0000
0000
0010
0000
,  // measure 44
0001
0001
0001
0000
,  // measure 45
0000
0000
0100
0000
,  // measure 46
1000
1000
1000
0000
,  // measure 47
0000
0000
0001
0000
,  // measure 48
0010
0000
0000
0010
,  // measure 49
0000
0000
0010
0000
,  // measure 50
0000
0000
0100
0000
,  // measure 51
0010
0000
0000
0000
,  // measure 52
1000
0000
0000
1000
,  // measure 53
0000
0000
1000
0000
,  // measure 54
0000
0000
0001
0000
,  // measure 55
1000
0000
0000
0000
,  // measure 56
0100
0100
0100
0000
,  // measure 57
0000
0000
0010
0000
,  // measure 58
0001
0001
0001
0000
,  // measure 59
0000
0000
0100
0000
,  // measure 60
0010
0010
0010
0000
,  // measure 61
0000
0000
0100
0000
,  // measure 62
1000
1000
1000
0000
,  // measure 63
0000
0000
0001
0000
,  // measure 64
0010
0010
0010
0000
,  // measure 65
0000
0000
0001
0000
,  // measure 66
0100
0100
0100
0000
,  // measure 67
0000
0000
0010
0000
,  // measure 68
1000
1000
1000
0000
,  // measure 69
0000
0000
0100
0000
,  // measure 70
0001
0001
0001
0000
,  // measure 71
0000
0000
1000
0000
,  // measure 72
0010
0000
0010
0000
,  // measure 73
0100
0000
0100
0000
,  // measure 74
0001
0000
0001
0000
,  // measure 75
1000
0000
1000
0000
,  // measure 76
0100
0000
0100
0000
,  // measure 77
0010
0000
0010
0000
,  // measure 78
0001
0000
0100
0000
,  // measure 79
0010
0000
1000
0000
,  // measure 80
1001
0000
0000
0000
;
