#TITLE:Capitalism Cannon;
#ARTIST:O2i3;
#BANNER:Capitalism Cannon-bn.png;
#BACKGROUND:Capitalism Cannon-bg.png;
#JACKET:Capitalism Cannon-jacket.png;
#MUSIC:Capitalism Cannon.ogg;
#OFFSET:0.556;
#SAMPLESTART:68.938;
#SAMPLELENGTH:20;
#DISPLAYBPM:190;
#BPMS:0=190;
#BGCHANGES:;

//---------------dance-single - ----------------
#NOTES:
     dance-single:
     :
     Beginner:
     5:
     :
0000
0000
0000
0000
,
0000
0000
0000
0000
,
0000
0000
0000
0000
,
0000
0000
0000
0000
,
0000
0000
0000
0000
,
0000
0000
0000
0000
,
0000
0000
0000
0000
,
1000
0000
0001
0000
,
1001
0000
0000
0000
,
0010
0000
0001
0000
,
0100
0000
1000
0000
,
0010
0000
1000
0000
,
0001
0001
0001
0000
,
0100
0000
0001
0000
,
0010
0000
1000
0000
,
0100
0000
1000
0000
,
0110
0000
0000
0000
,
0001
0000
0000
0000
,
0100
0000
0000
0000
,
0010
0000
1001
0000
,
0001
0001
0001
0000
,
1000
1000
1000
0000
,
0010
0000
0100
0000
,
0110
0000
0000
0000
,
1001
0000
0001
0000
,
0010
0000
0110
0000
,
0001
0000
0100
0000
,
1000
0000
0010
0000
,
0110
0000
0000
1001
,
0000
0000
0010
0000
,
1000
1000
1000
0000
,
0001
0000
0110
0000
,
1001
0000
0010
0010
,
0010
0000
0110
0000
,
0001
0001
0001
0001
,
0001
0000
1000
0000
,
1001
0000
0100
0000
,
1000
0000
0001
0000
,
0010
0000
0001
0000
,
2000
0000
3000
0000
,
0010
0010
0000
0000
,
0000
0000
1000
0000
,
0100
0100
0000
0000
,
0010
0000
1001
0000
,
0001
0001
0000
0000
,
1000
0000
0010
0000
,
1000
1000
0000
0000
,
0100
0100
0100
0000
,
0010
0010
0000
0000
,
0010
0010
0000
0000
,
0100
0100
0000
0000
,
0100
0100
0000
0000
,
1000
0000
0001
0000
,
0010
0000
0100
0000
,
0110
0000
0000
0000
,
0001
0001
0001
0001
,
0001
0000
1000
0000
,
0010
0010
0010
0000
,
0100
0000
0001
0000
,
0010
0000
0100
0100
,
0100
0000
1000
0000
,
0001
0001
0001
0000
,
0010
0010
0010
0010
,
0010
0000
0100
0000
,
1001
0000
0110
0000
,
0001
0001
0001
0000
,
1000
0000
0010
0000
,
0100
0000
0001
0001
,
0001
0000
1000
0000
,
0010
0010
0010
0000
,
0100
0000
0010
0000
,
1000
0000
0000
0000
,
1001
0000
0110
0000
,
0001
0001
0001
0001
,
0001
0000
1000
0000
,
0010
0010
0000
0100
,
0100
0000
0000
0001
,
0001
0000
1000
0000
,
0010
0000
1000
0000
,
0100
0000
0010
0000
,
0001
0000
1000
1000
,
1000
1000
1000
0000
,
0010
0010
0000
0000
,
1000
0000
0001
0000
,
0110
0000
0000
0000
,
1001
0000
0000
0000
,
0001
0000
1000
0000
,
0020
0000
0000
0000
,
0000
0000
0000
0000
,
0030
0000
0000
0000
,
0100
0000
0000
0000
;

//---------------dance-single - ----------------
#NOTES:
     dance-single:
     :
     Easy:
     8:
     :
0000
0000
0000
0000
,
0000
0000
0000
0000
,
0000
0000
0000
0000
,
0000
0000
0000
0000
,
0000
0000
0000
0000
,
0000
0000
0000
0000
,
0000
0000
0000
0000
,
1000
0000
0000
0001
0000
0000
0000
1001
,
0000
0000
0000
0000
,
0010
0100
0001
0100
,
1000
0001
0100
0000
,
0001
0100
0010
1000
,
0100
1001
0110
0000
,
0001
0010
1000
0000
,
0001
0100
0100
0000
,
0010
1000
0100
0000
,
0110
0000
0000
0000
,
0001
0000
0000
1000
0000
0000
0001
0000
,
0200
0000
0000
0300
,
0010
0000
0000
1000
0002
0000
0003
0000
,
1000
0100
0001
0010
,
0001
0100
1000
1001
,
0010
1000
0001
0100
,
0110
0000
0000
0000
,
1001
0000
0010
0001
,
0100
0010
1010
0000
,
0001
0001
1000
0100
,
1000
0001
0010
0010
,
0110
0000
0001
0101
,
1000
0001
0100
0000
,
0010
0010
1000
0001
,
0011
0000
1100
0000
,
1001
0000
0100
0100
,
0110
0001
2000
3000
,
0001
0100
0100
0100
,
0010
1000
0002
0003
,
0101
0000
0001
0011
,
0100
0000
1000
0000
0001
1000
0000
0000
,
0010
0110
1000
0001
,
2020
0000
0000
0030
,
3001
1000
0001
0000
0000
0000
0000
0000
,
0000
0000
0010
0010
,
0001
1000
0001
0000
0100
0000
0010
0000
,
1000
1100
0011
0000
,
1000
0001
1000
0000
0000
0000
0010
0000
,
0000
0100
0001
0001
,
0010
0100
0010
0000
0000
0000
0001
0000
,
1000
0100
1000
0100
1000
0000
0000
0000
,
0001
1000
0001
0000
0000
0000
0110
0000
,
0001
1000
0001
0000
0000
0100
0010
0000
,
1000
0001
1000
0000
0000
0000
0110
0000
,
1000
0001
1000
0000
1010
0000
0101
0000
,
0010
0010
0010
0010
,
0001
0100
1000
0100
,
0002
0000
0000
0003
,
1000
0100
1000
0000
0001
0100
0001
0000
,
1001
0000
0010
0010
,
0001
0100
1000
1000
,
1100
0010
1000
0001
,
0010
0000
0001
0000
0100
0010
1000
0000
,
0001
1000
0001
0000
0010
0000
0200
0000
,
1300
0001
1000
1010
,
0001
0001
1000
0001
,
0100
0000
0110
0000
,
1001
1001
0110
0001
,
0010
0001
1000
1000
,
0101
0010
0100
0001
,
0010
0000
0100
0000
1000
0001
0010
0000
,
0100
1000
0100
0000
0010
0000
0002
0000
,
1003
0000
0001
0000
1000
0100
0010
0000
,
0001
0100
0010
1000
,
0002
0000
0000
0003
,
1001
0000
0011
0000
,
2000
3200
0320
0032
,
0103
0000
0010
0000
1010
0000
0001
0100
,
1000
0001
0100
0001
,
0011
0000
1000
0100
,
0110
0000
0001
1000
,
0010
0010
1000
0001
,
1000
0100
0010
0100
0020
0000
0030
0000
,
0011
0000
0100
0100
,
0100
0010
0101
0000
,
1000
0000
0001
0000
0010
0001
0100
0000
,
0001
0000
1000
0100
0010
0000
0010
0000
,
0110
0000
0001
0100
,
1010
0000
1000
0001
,
0010
1001
0001
1000
,
0020
0000
0000
0000
,
0000
0000
0000
0000
,
0000
0000
0000
0000
,
0130
0000
0000
0000
;

//---------------dance-single - ----------------
#NOTES:
     dance-single:
     :
     Medium:
     12:
     :
0000
0000
0000
0000
,
0000
0000
0000
0000
,
0000
0000
0000
0000
,
0000
0000
0000
0000
,
0000
0000
0000
0000
,
0000
0000
0000
0000
,
0000
0000
0000
0000
,
1010
0000
0000
0101
0000
0000
0000
1100
,
0000
0000
0001
1000
0001
0010
0000
0000
,
0100
0000
1000
0000
0001
0000
0100
0010
,
1000
0010
1000
0010
0100
0000
0000
0000
,
0001
0010
1000
0000
0001
0000
0010
0100
,
1000
1100
0101
0000
,
1001
0000
0001
0100
1000
0000
0010
1000
,
0100
0010
0001
0000
1000
0000
0000
0000
,
0010
0000
1000
0001
0100
0000
0000
0000
,
0220
0000
0000
0030
,
0302
0000
0000
2003
0000
0000
3002
0000
,
0203
0010
0010
0310
,
1000
0001
0200
0300
,
0001
0010
0001
0100
0010
1000
0001
1000
,
0100
0010
0001
0100
0001
0000
1000
0000
,
0010
1000
0100
1000
0001
0010
0001
0100
,
0002
0000
0000
0003
,
2002
0000
3000
0000
0010
0000
0013
0001
,
0100
1010
0202
0300
,
2003
0000
3002
0000
0013
0001
0010
0001
,
1000
0100
1000
0100
0002
0000
0003
1000
,
0020
0000
0030
0000
1000
0001
0100
0010
,
1000
0100
1000
0100
2000
0000
3000
0000
,
1001
0000
1010
0000
0001
0100
1000
0100
,
0001
0000
0000
1000
0000
0001
0200
0000
0000
0310
0000
0000
,
0220
0030
0001
0301
,
1000
0000
0001
1000
0200
0000
0300
0000
,
1000
0000
0000
1000
0001
0000
0000
0001
1000
0000
0000
1000
0001
0000
0000
0001
,
0010
0001
0100
0001
1000
0100
0010
0000
,
0002
0100
1003
0011
,
0010
0000
0000
0000
0001
0000
0100
0000
0000
0000
0000
0000
0002
0000
0000
2000
0000
0000
0000
0000
0000
0003
0000
0000
,
3002
0000
0203
0000
0310
1000
0010
0000
,
2020
0000
0000
0030
,
0001
0001
3001
0000
0010
0000
0001
0000
,
0100
0010
0100
0010
2000
0000
3002
0000
,
1003
1000
1000
0000
0100
0000
0010
0000
,
0001
0100
0001
0100
0001
0000
0000
0000
,
0010
0010
0010
0000
0001
0100
1000
0000
,
0001
1000
0001
1000
0020
0000
0030
0000
,
0100
0100
0100
0000
0001
0010
1000
0000
,
0001
0100
0001
0100
0020
0000
0030
0000
,
1000
0001
1000
0100
0000
0100
0010
0100
,
1000
0001
1000
0100
0000
0010
0010
0000
,
0001
1000
0001
0100
0000
0110
0000
0100
,
0001
1000
0001
1000
0010
1000
0100
0000
,
2000
3020
0230
0302
,
0013
0001
1000
0100
1000
0010
0100
0001
,
0020
0000
0000
0030
,
0001
1000
0001
1000
0001
1000
0100
0000
,
2200
0000
0000
0000
0300
0000
0000
0000
3001
0000
0000
0001
0100
0000
0000
0100
,
0010
0000
0000
0010
1000
0000
0000
1000
0001
0000
1000
0000
0100
0000
0000
0000
,
0011
0000
0001
0100
0010
0100
0010
1000
,
0100
0010
0001
1000
0001
0100
0010
0000
,
1000
1000
0100
0010
0100
0010
0002
0000
,
0103
0010
0100
0010
1000
0001
0200
0000
,
0310
0000
0000
0010
1000
0000
0000
1000
0001
0000
0000
0001
0100
0000
0000
0100
,
0002
0000
2000
3003
,
0010
0000
0000
0010
0000
0000
0010
0000
0100
0000
0000
0000
0001
0000
0000
0001
,
1000
0000
0000
1000
0010
0000
0000
0010
1000
0000
0001
0000
0100
0000
0000
0000
,
1010
0000
0001
1000
0010
1000
0100
1000
,
0100
1000
0010
1000
0001
0100
0010
0000
,
0100
0100
0001
1000
0001
1000
0200
0000
,
0310
0001
0010
0001
1000
0001
0200
0000
,
0310
0000
0000
1000
0010
0000
0000
1000
0010
0000
0000
1000
0010
0000
0000
1000
,
0002
0000
0000
0003
,
2002
3000
0020
0003
,
0031
0010
0100
1000
0001
0010
0100
1000
,
0020
0000
0130
0000
0110
0000
0001
1000
,
0100
0010
0001
0000
1000
0001
0100
0000
,
0202
0300
1003
1100
,
0020
0000
0000
0000
0000
0000
0030
0000
0000
1000
0000
0000
0001
0000
0000
0000
0001
0000
0000
0000
0001
0000
0000
0000
,
0100
0000
0000
0100
0010
0000
0000
0010
1000
0000
0000
1000
0100
0000
0010
0000
,
0001
0100
1000
0100
0002
0000
0003
0000
,
0022
0030
2003
3002
,
0013
0100
1000
0001
0200
0000
0300
0000
,
0210
0000
0301
0000
1000
0100
0010
0001
,
0100
0010
0100
0001
1000
0000
1000
0000
,
2200
0300
3001
0011
,
2000
0000
0000
0000
0000
0000
3000
0000
0000
0001
0000
0000
0100
0000
0000
0000
0100
0000
0000
0000
0100
0000
0000
0000
,
0010
0000
1010
0000
0001
0100
1000
0000
,
0020
0000
0000
0000
,
0000
0000
0000
0000
,
0000
0000
0000
0000
,
0130
0000
0000
0000
;

//---------------dance-single - ----------------
#NOTES:
     dance-single:
     :
     Hard:
     17:
     :
0000
0000
0000
0000
,
0000
0000
0000
0000
,
0000
0000
0000
0000
,
0000
0000
0000
0000
,
0000
0000
0000
0000
,
0000
0000
0000
0000
,
0000
0000
0000
0000
,
1010
0000
0000
0101
0000
0000
0000
1100
,
0000
0000
0000
0000
0000
0000
0001
0000
1000
0000
0001
0000
0100
0000
0000
0010
0000
0000
0000
0000
0000
0000
0000
0000
,
1000
0000
0001
0000
0100
0000
0001
0010
,
0100
0000
1000
0001
1000
0000
0010
0000
0200
0000
0000
0000
0300
0000
0000
0000
,
0001
0000
0100
0000
2000
0000
0000
0000
3001
0000
0100
0000
1000
0000
0100
0010
,
0100
0101
2200
0300
,
3001
0000
0010
0000
1000
0000
0100
0010
0002
0000
0000
0000
0003
0000
0100
1000
,
0010
0000
0100
0000
0010
0000
1000
0000
0001
0100
0002
0000
0000
0000
0000
0000
,
0013
0000
0000
0000
0000
0000
0001
0000
0000
0100
0000
0000
1000
0000
0000
0000
1000
0000
0000
0000
1000
0000
0000
0000
,
0220
0000
0030
0000
0301
0010
0001
0010
,
0200
0000
0000
2300
0000
0000
3002
0000
,
0103
0000
0010
0000
0100
0000
0010
0000
1000
0000
0001
0010
0001
0000
0010
0000
,
0100
0000
1000
0000
0100
0000
1000
0001
0020
0000
0000
0000
0030
0000
0000
0000
,
0001
0000
0100
0010
1000
0000
0100
0010
0001
0000
1000
0000
0100
0000
0100
0000
,
0100
0000
0010
0000
0001
0000
1000
0010
0100
0000
0000
0000
0002
0000
0000
0000
,
0013
0000
0001
0000
0100
0000
0010
1000
0001
0000
0010
0100
1000
0000
0001
0100
,
0002
0000
0000
0003
,
2002
0000
0000
0000
3000
0000
0000
0000
0010
0000
0000
0000
0013
0001
1000
0001
,
0100
0000
0000
0000
0100
0000
0001
0010
2000
0000
0000
0000
3000
0000
0000
0000
,
1100
0100
0002
0000
0013
0010
0010
0001
,
0100
0000
0100
0000
0100
0000
0010
0000
1000
0100
1000
0100
1000
0000
0001
1000
,
0200
0000
0000
0000
0000
0000
0000
0000
0310
0001
0010
0100
1000
0000
0001
1000
,
0010
0000
0100
0001
0010
0001
0010
0100
1000
0001
1000
0001
1000
0100
1000
0000
,
1010
0001
0200
0000
0310
1000
1000
0001
,
0011
0000
0000
0000
0000
0000
0000
0000
0000
0000
0000
0000
0001
0000
0000
0000
0100
0000
0000
0000
0010
0000
0000
0000
2000
0000
0000
0000
0000
0000
0000
0000
0000
0000
0000
0000
3001
0000
0000
1000
0000
0000
0001
0000
0000
0000
0000
0000
,
0202
0000
0000
0000
0300
0000
0000
0000
1003
0100
0000
0000
1000
0100
0000
0000
,
0120
0000
0000
0000
0031
0000
1000
0010
0002
0000
0000
0000
0000
0000
0000
0000
,
0103
0000
0001
0010
0001
0000
1000
0100
1000
0000
0001
0100
0001
0000
1000
0010
,
1000
0000
0000
0000
0000
0000
0100
0000
0000
0010
0000
0000
0100
0000
0000
0010
0000
0000
0001
0000
0000
0100
0000
0000
0001
0000
0000
1000
0000
0000
0001
0000
0000
1000
0000
0000
0100
0000
0000
0000
0000
0000
0000
0000
0010
0000
0000
0000
,
0002
0000
0000
0100
0000
0000
1003
0001
0000
0011
0000
0001
,
0100
0000
0010
0000
1000
0000
0010
0000
0000
0000
0000
0000
0101
0000
0000
2020
0000
0000
0030
0000
0000
0000
0000
0000
,
3001
0000
0100
0000
1001
0000
0000
0000
0010
0001
0010
0001
0100
0000
0000
0000
,
2020
0030
0002
3003
,
0011
0000
0011
0000
0011
0000
0000
0000
0001
0000
0100
1000
0100
0000
0001
1000
,
0001
0001
0001
0001
0200
0010
0310
0000
,
1100
0000
1100
0000
1100
0000
0001
1000
0001
0000
0010
0100
0010
0100
1000
0000
,
0001
0000
0001
0000
0001
0000
0001
0100
1000
0000
1000
0000
0000
0000
0000
0000
,
1001
1001
1001
0010
1000
1000
1000
0001
,
0010
0010
0010
0010
0002
0100
0103
0000
,
0101
0000
0101
0000
0101
0000
0000
0000
0010
0000
0001
1000
0001
0000
0100
0000
,
1010
1010
1010
1010
0110
0000
0000
0000
,
1001
0100
1000
0100
0000
0100
0001
0100
,
0110
0110
0110
0010
1000
1100
0011
0000
,
1001
1001
1001
0010
0000
1000
0100
0001
,
0011
0000
0011
0000
0011
0000
0100
0000
0001
0010
1000
0010
0002
0000
0000
0000
,
0103
0100
0010
0010
1000
1000
0001
0001
,
0010
0001
0010
0001
0010
0100
0010
0100
1000
0001
1000
0001
1000
0100
1000
0200
,
0020
0000
0000
0300
,
0031
0000
0001
0000
1000
0000
1000
0000
1001
0000
0110
0000
1000
0001
0000
0000
,
2200
0000
0000
0000
0300
0000
0000
0000
3001
0100
0001
0010
0001
0100
0001
0010
,
0001
0100
0001
0010
0001
0100
0001
0010
0001
0100
0001
0010
0200
0000
0000
0000
,
2300
0000
0000
0000
3010
1000
0100
1000
0010
1000
0100
1000
0010
1000
0100
1000
,
0010
0000
0100
0001
1000
0000
1000
0000
0010
0100
0010
0100
0001
0000
0000
0000
,
0101
0000
0101
0000
1000
0001
0010
0001
1000
0001
0010
0001
2000
0000
0000
0000
,
3100
1000
0001
1000
0100
1000
0001
1000
0100
1000
0001
1000
0200
0000
0000
0000
,
0310
0000
0001
0100
0001
0000
1000
0100
1000
0000
0001
0010
0001
0000
1000
0010
,
2000
0000
0000
0000
3000
0000
0000
0000
0001
0100
0001
0100
0001
0100
0001
0000
,
0011
0000
0000
0110
0000
0000
1100
0000
1001
0000
0000
0000
0010
1000
0100
1000
,
0010
0001
0100
0001
0010
1000
0100
1000
0010
0001
0100
0001
0020
0000
0000
0000
,
0230
0000
0000
0000
1300
0001
0100
0001
1000
0001
0010
0001
1000
0001
0100
0001
,
1000
0000
0100
0010
0001
0000
0001
0000
0100
0010
0100
0010
1000
0000
0000
0000
,
1010
0000
1010
0000
0100
0010
0001
0010
0100
0010
1000
0010
0200
0000
0000
0000
,
1300
0010
1000
0010
0100
0010
0100
0010
0100
0001
0100
0001
0020
0000
0000
0000
,
0031
0000
0010
0100
1000
0000
0010
0100
0001
0000
1000
0001
0100
0000
0010
1000
,
0002
1000
1000
1003
,
1001
0100
1010
0001
,
0020
0032
0203
0320
2030
3200
2300
3002
,
0103
0001
0000
0100
0010
0000
0000
0000
0110
0000
0100
0000
0001
1000
0001
1000
,
0100
0000
1000
0010
0002
0000
0100
0000
0103
0000
1000
0000
0001
0000
0010
0001
,
0200
0310
0110
1001
,
2100
0000
0000
0000
0000
0000
3001
0000
0000
0100
0000
0000
1010
0000
0000
0000
1010
0000
0000
0000
1010
0000
0000
0000
,
0110
0000
0001
0010
0100
0000
1000
0100
0010
0000
0001
1000
0001
0000
0100
0000
,
1010
1010
1001
0101
0011
0000
0000
0000
,
2200
0000
0000
0000
0300
0000
0000
0000
3001
0100
0001
0000
1000
0100
1000
0000
,
0010
0000
0010
0000
0010
0000
0100
0000
0110
0000
0001
0100
0020
0000
0000
0000
,
1030
0000
0100
0000
0001
0000
0000
0000
0010
0000
0001
0100
0001
0000
1000
0000
,
0010
1000
0010
0000
1000
0100
0010
0000
0001
0000
0000
0000
0101
0000
0001
0100
,
0020
1000
1000
1030
1100
0000
0002
0000
,
0023
0000
0000
0000
0000
0000
0031
0000
0000
1000
0000
0000
0011
0000
0000
0000
0011
0000
0000
0000
0011
0000
0000
0000
,
1001
0000
0000
0000
0020
0000
0000
0000
0031
0100
0001
0100
0001
0000
0000
0000
,
2000
0002
0000
0000
0000
0000
0000
0000
0000
0000
0000
0000
0000
0000
0000
0000
,
0000
0000
0000
0000
,
0000
0000
0000
0000
0000
0000
0000
0000
0000
0000
0000
0000
0000
0000
0000
3000
,
0103
0000
0000
0000
;
