#TITLE:Can U Feel It;
#ARTIST:siqlo;
#BANNER:Can U Feel It-bn.png;
#BACKGROUND:Can U Feel It-bg.png;
#JACKET:Can U Feel It-jacket.png;
#MUSIC:Can U Feel It.ogg;
#SAMPLESTART:20;
#SAMPLELENGTH:20;
#DISPLAYBPM:156;
#BPMS:0=156;
#BGCHANGES:;

//---------------dance-single - ----------------
#NOTES:
     dance-single:
     :
     Beginner:
     5:
     :
0000
0000
0000
0000
,
0000
0000
0000
0000
,
0000
0000
0000
0000
,
0000
0000
0000
0000
,
0000
0000
0000
0000
,
0010
0000
0010
0000
,
0100
0000
0100
0000
,
0001
0000
0001
0000
,
1000
1000
1000
0000
,
0010
0010
0010
0000
,
0100
0000
0001
0000
,
0010
0010
0010
0000
,
0001
0001
0001
0000
,
1001
0000
0000
0000
,
0100
0100
0100
0000
,
0010
0000
1000
0000
,
0100
0000
1000
1000
,
1000
0000
0000
0001
,
0001
0000
0100
0100
,
0000
0010
0000
0100
,
0100
0000
0001
0000
,
1000
0000
1001
0000
,
0010
0000
0110
0000
,
0100
0100
0100
0000
,
0001
0001
0001
0000
,
0010
0010
0010
0010
,
0010
0000
0000
0110
,
0000
0000
1000
0000
,
0001
0000
1000
1000
,
0000
0000
0010
0000
,
0100
0100
0010
0100
,
0010
0000
0000
1000
,
0001
0000
1001
0000
,
0002
0000
0000
0003
,
0001
0001
1000
0001
,
0100
0000
0000
0010
,
1000
0000
0110
0000
,
0010
0000
1000
0000
,
0200
0000
0300
0000
,
1000
0000
0001
0000
,
0020
0000
0030
0000
,
0001
0000
0100
0000
,
0010
0000
1000
0000
,
0200
0000
0300
0000
,
2000
0000
3000
0000
,
0001
0000
0010
0000
,
0001
0100
0001
1000
,
0010
0000
0100
0000
,
0001
0010
0001
1000
,
0100
0000
0010
0000
,
0001
1000
0100
0000
,
0020
0000
0030
0000
,
0001
0001
0001
0000
,
1000
0010
0001
0010
,
0100
0000
1000
1000
,
0001
0000
0010
0001
,
0100
0010
1000
0000
,
0100
1000
0001
0000
,
0100
0001
1000
0000
,
0010
0000
0100
0000
,
0001
1000
0001
1000
,
0001
0000
0010
0000
,
0001
0000
0100
0000
,
0010
1000
0000
0000
,
0001
0100
0000
0000
,
0010
1000
0100
0000
,
1000
0000
0001
0000
,
0010
0001
0000
0000
,
1000
0100
0000
0000
,
0010
0010
0010
0000
,
0001
0000
0100
0000
,
1001
0000
0010
0000
,
1000
0100
1000
0100
,
1000
1000
1000
0000
,
0001
0001
0001
0000
,
0110
0000
0001
0100
,
0001
0010
0100
1000
,
0010
0000
1001
0000
,
0010
1000
0001
0000
,
0100
0010
0010
1000
,
0001
0000
0100
0000
,
0110
0000
1000
0010
,
1000
0001
0000
0200
,
0000
0000
0000
0000
,
0000
0000
0000
0302
,
0000
0000
0000
0000
,
0000
0000
0000
0000
,
0003
0000
0000
0000
;

//---------------dance-single - ----------------
#NOTES:
     dance-single:
     :
     Easy:
     9:
     :
0000
0000
0000
0000
,
0000
0000
0000
0000
,
0000
0000
0000
0000
,
0000
0000
0000
0000
,
0000
0000
0000
0000
,
0010
0000
0010
0000
0010
0000
1000
0001
,
0100
0000
0100
0000
0100
0000
0010
1000
,
0001
0000
0001
0000
0001
0000
0010
0100
,
1000
1000
1000
1000
,
1001
0000
0010
0100
0001
0000
1000
0100
,
1000
0000
1100
0000
0101
0000
0001
0100
,
0010
0000
1000
0000
0100
1000
0001
1000
,
0010
0000
0110
0000
1000
0100
0001
0000
,
0011
0001
1000
0010
,
1000
0000
0100
0000
1000
0001
0100
0000
,
0110
0000
0010
1000
0200
0000
1300
0001
,
0200
0000
0320
0000
1030
0100
1000
0000
,
0002
0000
0013
0100
0000
0000
1000
0010
,
1000
0100
0010
0000
0011
0000
1100
0000
,
0001
0000
0100
0010
0100
0000
0001
1000
,
0001
0000
0010
0000
0001
0100
1000
0000
,
0010
1000
0010
1000
0010
0000
0101
0000
,
1010
0000
0100
0000
1000
0001
0010
0000
,
0001
0100
0001
0100
0001
0000
1010
0000
,
1000
0100
1000
0100
1000
0000
0011
0000
,
0100
0100
0110
1001
,
1000
0000
0010
0000
0100
0002
0020
0000
,
0000
0003
0031
1000
,
0010
1000
0100
0000
0010
0002
0200
0000
,
0000
0003
0301
1000
,
0010
0000
1000
0100
0010
0001
0100
0000
,
0101
0000
0000
1010
0000
0000
0110
0000
,
0001
1000
0001
1000
0020
0000
0000
0000
,
0230
0000
0010
1300
,
0100
0001
0010
0001
,
0011
0000
0000
1100
0000
0000
1001
0000
,
0010
1000
0010
1000
0002
0000
0000
0000
,
2003
0000
3001
0000
,
0010
0001
0010
0100
,
1000
0000
0010
0000
,
0100
0010
1000
0001
,
0010
0000
0001
0100
,
0001
0000
1000
0100
,
1000
0010
0001
0100
,
0010
0100
0001
1000
,
1001
0000
0000
0000
0000
1000
0100
0010
,
0001
0000
0001
0000
0001
0100
0010
0000
,
0110
0000
0000
0000
0000
0001
0010
0001
,
0100
0000
0010
0000
1000
0100
1000
0001
,
1000
0000
0000
0000
0010
0000
1000
0001
,
0100
0000
0020
0000
0002
0000
0033
0100
,
0010
0000
1000
0000
0001
1000
0100
0000
,
0010
0001
2000
0200
0000
0000
0300
0000
,
3001
0000
1010
0000
0100
0010
1000
0000
,
0100
0000
0000
0011
0000
1100
0000
0000
,
0101
0000
0010
1000
0000
0100
0000
1000
,
0000
0001
0100
0000
0010
1000
0001
0100
,
0001
1000
0100
0000
0220
0000
0330
0000
,
0001
1000
0010
0000
2002
0000
3003
0000
,
0010
0000
1000
0001
1000
0000
0100
0000
,
1100
0101
1100
0101
,
0010
0000
0010
0001
1000
0001
0000
0100
,
0000
0000
0010
1000
0010
0100
0001
2000
,
0000
0000
3100
0000
0000
1000
0001
0200
,
0000
0000
0310
0000
0100
0010
0100
0000
,
1010
0000
0001
0010
0001
1000
0000
0100
,
0000
0010
0001
0010
0001
1000
0100
0020
,
0000
0000
0031
0000
0100
0010
1000
0001
,
0000
0010
0100
0000
1000
0010
0000
0100
,
0001
0001
0001
0000
0011
0000
0001
1000
,
0200
0310
0002
1003
,
0010
0000
1000
0100
1000
0010
0100
0001
,
0000
0020
0000
0230
0000
2300
0000
3002
,
0010
0013
0010
0000
0011
0000
0110
0000
,
1100
1010
1001
0101
,
2000
0000
3000
0001
1000
0010
0100
0010
,
0000
2000
0000
3200
0000
0320
0000
0032
,
0000
0103
0010
0000
1000
0001
0000
0000
,
0010
0001
0010
0100
2000
0000
3000
0000
,
1100
0000
0001
0100
0001
0010
0002
0000
,
0013
0001
0000
0100
0000
0010
0000
1000
,
0000
0200
0000
0000
1000
0000
0001
0000
,
1300
0001
1000
0001
0000
0000
2200
0000
,
0000
0000
0000
0000
,
0000
0000
0300
0002
,
0000
0000
0000
0000
,
0000
0000
0000
0000
,
3003
0000
0000
0000
;

//---------------dance-single - ----------------
#NOTES:
     dance-single:
     :
     Medium:
     12:
     :
0000
0000
0000
0000
,
0000
0000
0000
0000
,
0000
0000
0000
0000
,
0000
0000
0000
0000
,
0000
0000
0000
0000
,
0010
0000
0010
1000
0010
0100
0001
1000
,
0100
0000
0100
1000
0001
1000
0010
0100
,
0001
0000
0001
1000
0100
0010
0001
0100
,
1000
0000
0000
0000
1100
0000
0000
0000
0101
0000
0000
0000
1000
0001
1000
0001
,
1000
0000
0000
0000
0010
0000
0100
0000
0001
0000
0010
0000
0100
0000
1000
0001
,
1000
0010
0100
0000
0100
0001
1000
0001
,
0010
0000
0000
0000
0001
0000
0100
0000
0010
0000
1000
0000
0100
0000
1000
0001
,
2000
0000
3020
0000
1030
0100
0001
0000
,
0022
0000
0000
0030
0000
0103
0001
0100
,
0010
1000
0100
0010
0001
0100
1000
0000
,
1010
0000
0000
0000
0001
0000
1000
0100
1000
0000
0010
0000
0100
0000
0001
0000
,
0010
0000
1000
0000
0010
0000
0100
0000
0010
0000
0001
1000
0001
0000
0000
0000
,
0101
0000
0000
0000
1000
0000
1000
0000
0000
0000
0010
0100
0010
0000
1000
0000
,
0100
0000
0010
0000
0011
0000
0000
0000
1100
0000
0001
0100
0001
0000
0000
0000
,
1001
0000
0000
0000
0010
1000
0010
1000
0000
0000
0100
0000
0010
0000
0001
0000
,
0100
0010
1000
0000
0001
1000
0100
0000
,
0010
0001
0010
0001
1000
0010
0100
1000
,
0100
0001
0010
0100
1000
0010
1000
0000
,
0001
0000
0100
0000
0010
0000
1000
0001
1000
0000
0100
0000
1000
0000
0010
0000
,
0100
0001
0100
0010
0001
0010
1000
0000
,
1000
0100
0000
0000
0001
0100
0000
0000
1000
0100
0000
0000
0001
0100
0000
0000
,
0010
0000
1000
0000
0001
0000
1000
0000
0001
0000
0100
0010
0200
0000
0000
0000
,
0010
0000
0010
0000
1300
0100
0001
0010
,
0001
0100
1000
0010
1000
0100
0002
0000
,
0000
0000
0000
0000
0013
0001
1000
0100
,
0001
0010
0100
1000
0001
0100
0010
1000
,
2200
0000
0000
3300
0000
0000
0220
0000
0000
0330
0000
0000
0011
0000
0000
0000
,
1001
0000
0100
0010
2002
0000
0003
0000
,
0020
0000
0000
0000
3030
0000
1000
0100
1000
0000
0001
0000
0100
0000
0010
0000
,
0000
0100
0001
0010
0001
1000
0001
0100
,
0202
0000
0000
0303
0000
0000
2200
0000
0000
3300
0000
0000
0011
0000
0000
0000
,
0100
0000
0000
0000
0100
0000
0001
1000
0002
0000
0000
0000
0003
0000
0000
0000
,
0100
0000
0000
0001
1000
0000
0000
0010
,
0000
1000
0000
0100
0000
0010
0000
0001
,
0100
0000
0000
0001
0010
0000
0000
0010
,
0000
0001
0000
1000
0000
0100
1000
0001
,
0100
0000
0000
0010
1000
0000
0010
1000
,
0000
0000
0000
0010
1000
0100
1000
0001
,
0000
0010
0001
0100
0000
0010
1000
0100
,
0000
0000
1000
0000
0001
0000
1000
0000
0000
0000
0010
0000
0100
0000
0001
0100
,
0001
0000
0000
0000
0010
0001
1000
0100
,
2000
0000
3020
0000
1030
0100
0001
0000
,
0010
0000
0000
0000
0001
0100
0010
1000
,
0200
0000
2300
0000
3100
0010
0001
1000
,
0001
0000
0000
0000
0000
0000
0000
0100
0010
0000
0000
0000
1000
0000
0001
0000
,
2000
0000
3020
0000
0230
0000
0301
1000
,
0001
0000
0010
0000
0001
0100
0010
1000
,
0100
0010
0001
1000
0020
0100
0130
0000
,
0110
0000
0001
0100
1000
0100
0010
0100
,
1000
0000
0100
0000
0001
0000
0010
0000
0000
0000
0001
0100
0001
0000
0000
0000
,
1000
0010
1000
0001
0000
0100
0000
0010
,
1000
0100
0001
0010
0001
0100
1000
0000
,
1100
0000
0100
0000
0002
0000
0000
0000
0023
0000
0000
0000
0130
0000
1000
0001
,
1000
0100
2000
0000
3002
0000
0013
0100
,
0110
0000
0000
0000
0001
0000
0100
0000
0010
0000
0000
0000
1000
0100
1000
0100
,
1000
0000
0001
0100
0001
0100
0010
0000
,
1010
0000
0001
0100
0001
1000
0000
0101
,
0000
0000
0000
0000
0010
0000
0001
1000
0001
0000
0100
0000
0010
0000
1000
0000
,
0000
0000
1100
0000
1000
0001
0010
0100
,
0000
0000
0000
0000
1100
0000
1000
0010
1000
0000
0000
0000
1001
0000
0000
0000
,
0110
0000
1001
0010
1000
0100
1000
0001
,
0010
0000
0100
0000
1000
0000
0001
1000
0001
0000
0100
0000
0010
0000
2000
0000
,
0000
3001
0011
0000
0010
0001
1000
0100
,
0010
0100
0110
0000
1000
0001
0100
0010
,
1000
0000
0100
0000
1100
0000
0000
0000
0011
0000
0000
0000
1100
0000
0001
0100
,
0002
0000
0013
0100
2000
0000
3001
0100
,
0101
0000
0000
0000
1000
0000
0001
0010
0001
0000
1000
0000
0100
0000
0010
0000
,
0001
0101
0000
1010
0000
1100
0000
0011
,
0100
0010
0100
0000
1001
0000
0110
0000
,
1010
0101
1100
0011
,
1000
0000
0002
0000
0000
0000
0103
0010
0100
0000
0010
0000
1000
0000
0001
0000
,
0010
0100
1000
0010
1000
0100
0010
0001
,
0200
0000
0000
0000
0310
0000
1000
0001
1000
0000
1100
0000
0000
0000
0001
0000
,
0100
0000
0010
1000
0010
0000
0100
0000
0001
0000
0010
0000
0001
0000
1000
0000
,
0020
0000
0000
0000
1030
0001
1000
0001
1000
0000
0100
0000
0110
0000
0000
0000
,
0010
0011
0000
0101
0000
1010
0000
1100
,
0000
1001
0000
0000
0010
1000
0010
1000
,
0001
0010
0100
1000
0000
0000
2200
0000
,
0000
0000
0000
0000
,
0000
0000
0000
0000
0000
0000
0000
0000
0300
0000
0000
0000
3001
2000
0002
0000
,
0000
0000
0000
0000
,
0000
0000
0000
0000
,
3003
0000
0000
0000
;

//---------------dance-single - ----------------
#NOTES:
     dance-single:
     :
     Hard:
     16:
     :
0000
0000
0000
0000
,
0000
0000
0000
0000
,
0000
0000
0000
0000
,
0000
0000
0000
0000
,
0000
0000
0000
0000
,
0010
0000
0000
0000
0010
1000
0010
1000
0010
0000
0100
0000
0001
0000
1000
0000
,
0100
0000
0000
0000
0100
1000
0100
1000
0100
0000
0010
0000
0001
0000
1000
0000
,
0001
0000
0100
0010
0100
0001
1000
0010
,
1000
0000
0100
0000
0010
0000
0100
0000
1000
0000
0001
0000
0010
0001
0010
0001
,
0010
0000
0001
0100
0001
1000
0100
0010
,
1000
0000
0010
0000
0001
0000
0100
0000
0010
0000
1000
0000
0001
0100
0001
0100
,
0001
0010
0100
1000
0010
0100
0001
1000
,
0100
0000
0100
0000
1000
0100
0001
0000
,
2100
0000
0001
0000
3001
0100
0010
0100
,
1000
0000
0100
0000
0001
0000
0010
0000
0100
0000
1000
0000
0001
0000
0100
0010
,
0100
0000
0001
0000
0010
0000
0100
1000
0100
0000
0010
0000
0001
0000
1000
0000
,
0010
0000
0100
0000
1000
0000
0100
0000
0010
0000
1000
0001
1000
0000
0100
0000
,
0010
0000
0001
0000
1000
0000
1000
0000
0000
0000
0001
0100
0001
0000
0010
0000
,
0100
0000
0010
0000
0010
0000
0001
0100
0001
0000
1000
0010
1000
0000
0000
0000
,
0102
0000
0000
0000
0013
0100
0010
0100
0010
0000
0001
0000
0001
0000
1000
0010
,
1000
0000
0100
0000
0001
0000
0100
0000
0010
0000
0100
0000
0010
0001
0010
0001
,
0010
0000
0001
0100
0001
0100
0001
0100
0001
0000
1000
0000
0010
0000
1000
0100
,
1000
0010
0100
1000
0100
0001
0010
0000
,
0001
1000
0001
1000
0001
1000
0001
1000
0010
0000
0100
0000
0001
0000
0100
0000
,
0010
1000
0010
1000
0010
1000
0010
1000
0100
0000
0010
0000
0001
0000
0000
0000
,
1000
0100
0000
0000
0001
0100
0000
0010
1000
0000
0100
0000
1000
0000
0010
0000
,
0001
0000
0010
0000
1000
0000
0100
0000
1000
0010
0100
0010
1000
0000
0001
0000
,
0200
0000
0000
0000
0010
0000
0000
0000
0301
0000
1000
0010
0100
0001
1000
0000
,
0100
0010
0001
0100
1000
0010
1002
0000
,
1003
0000
0100
0000
1000
0000
0100
0010
0001
0000
1000
0000
0001
0000
0100
0000
,
0010
1000
0100
0001
0100
0010
0001
1000
,
2020
0000
0000
3030
0000
0000
0022
0000
0000
0033
0000
0000
0110
0000
0000
0000
,
1001
0010
0001
0100
2002
0000
0003
0000
,
3010
0000
1000
0100
0010
0001
1000
0001
,
0100
0000
0001
0010
0001
0000
1000
0000
0100
1000
0100
1000
0001
0010
0001
0010
,
0100
0000
0000
1100
0000
0000
0101
0000
,
0110
0000
0001
0000
0010
0000
0001
2000
0200
0000
0000
0000
0300
0000
3000
0000
,
0110
0000
0000
0000
0000
0000
0001
0100
0000
0000
0000
0000
0000
0000
0010
0000
,
0000
0000
0000
0000
0000
0000
1000
0001
,
0100
0000
0000
0000
0000
0000
0010
1000
0010
0000
0000
0000
0000
0000
0100
0000
,
0000
0001
0000
1000
0000
0100
0010
0001
,
1000
0000
0000
0000
0000
0000
0001
0010
0001
0000
0000
0000
0010
0000
0001
0000
,
0000
0000
0000
0000
0000
0000
0100
0010
0100
0000
0001
0000
0010
0000
1000
0000
,
0100
0010
0100
1000
0000
0001
0010
0001
,
0100
0000
0010
0000
0100
0000
0001
0000
0000
0000
1000
0000
0010
0000
1000
0001
,
2000
0000
3010
0000
1000
0100
0001
0100
,
0010
0100
0010
1000
0010
0001
0100
0010
,
0200
0000
0301
0000
0100
0010
1000
0001
,
0010
1000
0010
0100
0010
1000
0010
0001
,
0200
0000
0000
0000
0310
0000
0000
1000
0002
0000
0000
0000
0013
0000
0001
0000
,
0100
0010
0100
1000
0100
0001
0010
0100
,
1000
0010
0100
0001
0010
0100
1000
0001
,
1000
0000
0010
0000
0100
0000
0001
0000
0010
0001
1000
0000
0100
0000
1000
0010
,
0100
0000
0001
1000
0100
0000
0010
0000
0001
0000
0100
0000
1000
0000
0100
0000
,
0001
0010
0000
0010
0100
0000
2000
0000
3010
0000
2000
0000
3001
0000
0100
0001
,
0010
0000
0000
0000
0001
1000
0010
1000
0100
0000
0010
0001
0000
0001
0100
0000
,
0010
0000
0001
0000
0010
0000
1000
0000
0100
0010
0100
1000
0001
0000
0100
0000
,
0010
0000
1000
0000
0100
0000
0010
0000
0001
0000
0100
0001
1000
0010
0100
0010
,
1000
0000
0100
0000
0001
0000
0100
0000
0010
0000
0001
1000
0001
0000
0100
0010
,
1000
0000
0000
0000
0100
1000
0001
0000
0010
0000
0001
0100
0010
0000
1000
0001
,
0100
0110
1001
0110
,
1001
0000
0010
1000
0010
0000
0100
0001
0100
0000
0010
0000
1000
0000
0001
0000
,
0010
0000
1000
0000
0010
0000
0100
0010
0001
1000
0100
1000
0001
0000
0100
0000
,
0010
0000
1000
0001
0100
0000
0010
1000
0001
0000
0010
0000
0100
1000
0001
0100
,
0001
0000
0010
0100
0010
0000
0001
1000
0100
0000
1000
0010
1000
0000
0000
0000
,
1100
0000
0000
0000
0101
0000
0010
0001
1000
0000
0010
0000
0100
0000
0001
1000
,
0100
0000
0010
0000
0001
0000
0100
0010
1000
0001
1000
0001
1000
0000
0100
0010
,
0001
0000
0100
0000
0010
1000
0100
0000
1000
0000
0001
0010
0001
0000
0100
0000
,
0010
0000
1000
0000
0100
0000
0010
0000
0100
0000
1000
0001
1000
0000
0010
0000
,
0110
0000
0110
0000
0110
0000
0000
0000
0001
0000
0100
0000
0010
0000
1000
0100
,
1000
0010
0100
0010
0001
0010
1000
0001
,
0010
0000
0001
0000
0100
0000
0010
1000
0001
0000
1000
0000
0100
0000
0010
0000
,
0011
0000
0000
0000
0100
0000
0001
0010
0001
1000
0100
0000
1000
0000
0010
1000
,
0001
0000
0101
0000
0101
0000
0000
0000
1000
0010
1000
0000
0010
1000
0010
0000
,
0100
0001
0100
0000
0010
1000
0010
0000
1000
0100
1000
0000
0001
0010
0001
0000
,
1000
0001
1000
0001
0100
0000
0010
1000
0100
0000
0010
0000
0100
0000
0001
0000
,
0100
0000
1000
0000
0010
0000
0100
0001
1000
0001
0010
0000
0100
0000
1000
0001
,
1000
0000
0010
0000
0100
0000
0001
0010
0001
0000
1000
0000
0001
0100
0000
0000
,
0010
1000
0010
1000
0001
0000
0100
0001
0010
0000
0100
0000
1000
0001
0100
0000
,
0010
0000
1000
0000
0100
0010
0001
0010
0100
0000
1000
0001
1000
0000
0000
0000
,
1010
0000
0001
0000
0100
0000
0010
1000
0001
0000
1000
0100
0010
0000
0001
0000
,
1001
0000
0010
0010
0100
0100
0001
0001
,
1000
1000
0001
0200
0000
0000
0020
0000
,
0000
0000
0000
0000
,
0000
0000
0000
0000
0000
0000
0000
0000
0030
0000
0000
0000
0310
2000
0002
0000
,
0000
0000
0000
0000
,
0000
0000
0000
0000
,
3003
0000
0000
0000
;
