#TITLE:Can Be Real;
#ARTIST:Vision F;
#BANNER:Can Be Real.png;
#BACKGROUND:Can Be Real-bg.png;
#JACKET:Can Be Real-jacket.png;
#MUSIC:Can Be Real.ogg;
#SAMPLESTART:59.948;
#SAMPLELENGTH:20;
#DISPLAYBPM:132;
#BPMS:0=124.8,4=132;
#BGCHANGES:0=Can Be Real.avi=1=0=0=0,
;

//---------------dance-single - ----------------
#NOTES:
     dance-single:
     :
     Beginner:
     3:
     :
0000
0000
0000
0000
,
0000
0000
0000
0000
,
0000
0000
0000
0000
,
0000
0000
0000
0000
,
0000
0000
0000
0000
,
0010
0000
0100
0000
,
0001
0000
0100
0000
,
0001
0000
1000
0000
,
0010
0000
0000
0000
,
1000
1000
1000
0000
,
0100
0000
0100
0000
,
0001
0001
0001
0000
,
0010
0000
0010
0000
,
1000
0000
0100
0000
,
0001
0000
0010
0000
,
0100
0100
0100
0000
,
0100
0100
0100
0000
,
0010
0000
0100
0000
,
1000
1000
1000
0000
,
0010
0000
0100
0000
,
0001
0001
0001
0000
,
0010
0000
0100
0000
,
0001
0001
0001
0000
,
0010
0000
0100
0000
,
1000
1000
1000
1000
,
1000
0000
0000
0000
,
1001
0000
1001
0000
,
0010
0000
0000
0000
,
0110
0000
0110
0000
,
0001
0000
1000
0000
,
1001
0000
1001
0000
,
0010
0000
0100
0000
,
0010
0010
0010
0000
,
1000
1000
1000
0000
,
0100
0000
0100
0000
,
0001
0001
0001
0000
,
0010
0000
0010
0000
,
1000
0000
0100
0000
,
0001
0000
0010
0000
,
0100
0100
0100
0000
,
0100
0100
0100
0000
,
0001
0001
0001
0000
,
0010
0000
0010
0000
,
1000
1000
1000
0000
,
0100
0000
0100
0000
,
0001
0000
0010
0000
,
1000
0000
0100
0000
,
0010
0010
0010
0000
,
0010
0010
0010
0000
,
1001
0000
0000
0000
;

//---------------dance-single - ----------------
#NOTES:
     dance-single:
     :
     Easy:
     4:
     :
0000
0000
0000
0000
,
0000
0000
0000
0000
,
0000
0000
0000
0000
,
0000
0000
0000
0000
,
0000
0000
0000
0000
,
0010
0000
0100
0000
,
0001
0000
0100
0000
,
0001
0100
1000
0000
,
0020
0000
0030
0000
,
2000
3000
0100
0001
,
0001
0000
1000
0100
,
0001
1000
0001
0000
,
2000
3000
0010
0100
,
1000
0000
0100
0000
,
0001
0000
0010
0000
,
0200
0000
0300
0000
,
0100
0100
0100
0000
,
0010
0000
0100
0000
,
1000
0001
1000
0010
,
0020
0030
0100
1000
,
0001
0001
0100
0001
,
0010
0000
0100
0000
,
0001
1000
0001
0010
,
0020
0030
0100
0001
,
1000
1000
0100
1000
,
0001
0000
1000
0100
,
1000
0001
0100
0000
,
1000
0000
0200
0300
,
0010
0010
0100
1000
,
1000
0000
0001
0100
,
0001
1000
0100
0000
,
0001
0000
0200
0300
,
0010
0100
0100
0001
,
2000
3000
0100
0001
,
0001
0100
1000
0100
,
0001
1000
0001
0000
,
2000
3000
0010
0100
,
0001
0001
0001
0000
,
1000
1000
0100
1000
,
0001
0000
0010
0000
,
1000
0000
0100
0000
,
0002
0003
0100
1000
,
1000
0100
0001
0100
,
1000
0001
1000
0100
,
0002
0003
0010
0100
,
1000
0100
1000
0000
,
0001
0001
0100
0001
,
1000
0000
0010
0000
,
0001
0000
0001
1000
,
1001
0000
0000
0000
;

//---------------dance-single - ----------------
#NOTES:
     dance-single:
     :
     Medium:
     6:
     :
0000
0000
0000
0000
,
0000
0000
0000
0000
,
0010
0000
0100
0000
,
0001
0100
0010
0000
,
1000
0000
0100
0000
0001
0001
0100
0000
,
0010
1000
0100
0001
,
1000
0000
1000
0000
0001
1000
0100
0000
,
0010
1000
0100
0001
,
0001
0010
0100
0000
0010
0000
0110
0000
,
0001
0000
1000
0000
0010
1000
0100
0000
,
0001
0010
0100
0000
1000
0000
0001
0000
,
0002
0013
0200
0300
,
0110
0000
0000
0000
1000
0100
0001
0000
,
0010
0010
0100
0000
0010
0000
1000
0000
,
0001
1000
0010
0000
0010
0000
0100
0000
,
0010
0000
1000
0000
0100
0100
0001
0000
,
0001
1000
0010
0000
,
0001
0001
0100
0000
1000
1000
0100
0000
,
0001
1000
0001
0000
1000
0000
0100
0000
,
0010
0000
0001
0100
,
1000
0000
0001
0000
,
1000
1000
0100
0000
0001
0001
0100
0000
,
1000
0001
1000
0000
1001
0000
0100
0000
,
0010
0000
1000
0100
,
0001
0010
1000
0100
,
1001
0000
0000
0000
0001
0100
0010
0000
,
0001
0000
1001
0000
0001
0100
0010
0000
,
1000
0100
0001
1000
,
0001
0010
0100
1000
,
1001
0000
0000
0000
1000
0100
0010
0000
,
1000
0000
1001
0000
1000
0100
0010
0000
,
0001
0100
1000
0001
,
1000
0010
0100
0001
,
0001
0000
1000
0000
0010
1000
0100
0000
,
0001
0010
0100
0000
1000
0000
0001
0000
,
0002
0013
0200
0300
,
0110
0000
0000
0000
1000
0100
0001
0000
,
0010
0000
0100
0000
0010
0001
1000
0000
,
0001
1000
0100
0000
0010
0000
0100
0000
,
0010
1000
0100
0001
,
1000
0000
0010
0100
,
1000
0000
0001
0000
0010
0001
0100
0000
,
1000
0010
0100
0000
0001
0000
1000
0000
,
2000
3010
0200
0300
,
0110
0000
0000
0000
0001
0100
1000
0000
,
0010
0010
0100
0000
0010
0100
0001
0000
,
1000
0001
0100
0000
0010
0000
0100
0000
,
0010
0001
1000
0100
,
1100
0110
1001
0000
,
2002
3003
0000
0000
,
0001
1000
0200
0300
;

//---------------dance-single - ----------------
#NOTES:
     dance-single:
     :
     Hard:
     10:
     :
0000
0000
0000
0000
,
0000
0000
0000
0000
,
0000
0000
0000
0000
,
0001
0000
0000
0010
0000
0000
0200
0000
0000
0000
0000
0000
0300
0000
0000
0000
,
1000
0000
2000
0000
3001
0010
0100
0010
,
0002
0000
0100
0000
1003
0000
0100
0010
,
2000
0000
0001
0000
3100
0000
0010
1000
,
0001
0000
0001
0000
1000
0010
1000
0000
,
0001
0010
0100
0000
0110
0000
1001
0000
,
0010
1000
0100
0000
0010
0010
0001
0100
,
0010
0010
1000
0100
,
0001
0000
0000
0010
0000
0000
0200
0000
0000
0000
0000
0000
0300
0000
0000
0000
,
0010
1000
0100
0000
0001
0001
0100
0010
,
1000
0100
2000
0000
3001
0010
0100
0000
,
0020
0000
0100
0030
1000
0100
0010
0100
,
1000
0000
0200
0000
1300
0010
0100
0000
,
0001
0000
1000
0000
0010
0100
0110
0000
,
0100
0000
0100
0000
0010
0100
0001
1000
,
0010
0000
0010
0000
0001
0010
0100
1000
,
0002
0100
0103
0000
2000
0100
3100
0000
,
0002
0000
1003
0000
0001
1000
0010
0000
,
0100
0000
0100
0000
0010
0100
0001
1000
,
0010
0000
0010
0000
1000
0010
0100
0001
,
2000
0100
3100
0000
0002
0100
0103
0000
,
2000
0000
3001
0000
1000
0001
0010
0000
,
0220
0000
0330
0000
0100
1000
0010
0000
,
0001
0100
1000
0100
0001
0100
1000
0000
,
1000
0000
0000
0000
0010
0000
0000
0000
0001
0000
0000
0001
0100
0000
0000
0000
,
1000
0010
0100
0010
0100
0001
1000
0100
,
2000
0000
3000
0000
0100
0001
0010
0000
,
1000
0100
0001
0100
1000
0100
0001
0000
,
0001
0000
0000
0000
0010
0000
0000
0000
1000
0000
0000
1000
0100
0000
0000
0000
,
0001
0010
0100
0010
0100
1000
1001
0000
,
0010
1000
0100
0000
0010
0010
0001
0100
,
0010
0010
1000
0100
,
0001
0000
0000
0010
0000
0000
0200
0000
0000
0000
0000
0000
0300
0000
0000
0000
,
0010
1000
0100
0000
0001
0001
0100
0010
,
1000
0100
2000
0000
3001
0010
0100
0000
,
0020
0000
0100
0030
1000
0100
0010
0100
,
1000
0000
0200
0000
1300
0010
0100
0000
,
0001
1000
0002
0000
0013
0000
1001
0000
,
0010
0001
0100
0000
0010
0010
1000
0100
,
0010
0010
0001
0100
,
1000
0000
0000
0100
0000
0000
0020
0000
0000
0000
0000
0000
0030
0000
0000
0000
,
0010
0001
0100
0000
1000
1000
0100
0010
,
0001
0100
0002
0000
1003
0010
0100
0000
,
0020
0000
0100
0030
0001
0100
0010
0100
,
0001
0000
0200
0000
0301
0010
0100
0000
,
0001
0000
0000
0100
0000
0001
0000
1000
0000
0000
0001
0000
0000
0100
0000
0000
,
0220
0000
0000
0330
,
2000
0000
0000
0000
3000
0000
0000
0000
1000
0000
0000
0010
0000
0000
0001
0000
;

//---------------dance-single - ----------------
#NOTES:
     dance-single:
     :
     Challenge:
     13:
     :
0000
0000
0000
0000
,
0000
0000
0000
0000
,
0000
0000
0000
0000
,
0020
0000
0000
0000
0031
0000
0100
0000
1000
0010
0000
1000
0010
0000
0000
0000
,
0100
0000
0001
0000
0010
0001
0000
0100
0000
0010
1000
0000
1000
0000
0100
0000
,
0020
0000
0000
0000
0031
0000
0100
0000
0010
1000
0000
0010
1000
0000
0001
0000
,
0010
0000
0001
0000
1000
0001
0000
0100
0000
0010
1000
0000
0100
0010
0100
0000
,
2000
0000
0000
0000
3010
0000
0100
0000
0001
1000
0000
0001
1000
0000
0100
0000
,
0010
0001
0010
0001
0010
0000
0100
0000
1100
0000
0000
0000
1000
0001
1000
0001
,
2000
0000
0000
0000
3010
0000
0100
0001
0200
0000
0000
0310
1000
0000
0001
0000
,
0010
0000
0001
0000
0100
0000
0010
0000
2000
0000
0000
3002
0000
0000
0103
0000
,
0010
0000
0000
1000
0010
0000
0000
0100
0002
0000
0000
0013
0001
0000
1000
0000
,
0100
0000
1000
0000
0001
0000
0100
0000
0020
0000
0000
0000
1030
0000
0001
0100
,
0002
0000
0000
0013
0100
0000
1000
0010
2000
0000
0000
3100
1000
0000
0001
0100
,
0002
0000
0000
0013
0000
0000
0201
0000
0000
0310
1000
0000
0100
0000
1000
0001
,
1000
0010
0100
0002
0000
0013
0001
1000
,
1100
0000
0000
0110
0000
0000
0011
0000
1000
0001
0000
1000
0001
0000
0100
0000
,
0010
0000
1000
0100
1000
0100
0000
0000
1000
0100
1000
0100
0000
1000
0001
1000
,
0002
0000
0000
0103
0000
0000
2010
0000
0000
0000
3001
0000
1000
0000
0100
0000
,
0010
0000
0001
0100
0001
0100
0000
0000
0001
0100
0001
0100
0000
0000
0010
1000
,
0010
0000
1000
0001
1000
0000
0100
0010
0000
0100
1000
0000
0001
0000
0100
0000
,
0010
0000
1000
0100
1000
0100
0000
0000
1000
0100
1000
0100
0000
0000
0010
0002
,
0010
0000
0000
0100
0000
0000
2003
0000
0000
0000
3001
0000
1000
0010
1000
0000
,
0100
0000
0010
0001
0010
0001
0000
0000
0010
0001
0010
0001
0000
0000
0100
0010
,
0100
0000
0001
1000
0000
0000
0100
1000
0000
1000
0010
0000
0100
0001
0100
0001
,
0100
0000
0000
0000
1010
0000
1001
0000
0011
0000
0000
0001
0100
0000
0000
0000
,
1010
0000
1001
0000
1100
0000
1000
0010
0000
1000
0010
0000
0100
0001
0100
0001
,
0100
0000
0000
0000
0110
0000
1010
0000
1100
0000
0000
0001
0100
0000
0000
0000
,
0011
0000
0110
0000
1100
0000
1000
0001
0000
0001
0100
0000
0010
0000
1000
0100
,
1000
0000
0000
0001
0010
0000
0011
0000
0110
0000
0000
1000
0001
0000
0000
0000
,
1010
0000
0110
0000
0101
0000
0001
1000
0000
0000
0010
0000
0100
0001
0100
0001
,
0100
0000
0000
0000
0101
0000
1001
0000
1100
0000
0000
1000
0001
0000
0000
0000
,
0010
0000
1000
0000
0100
0000
0010
0000
1000
0000
0010
0000
0001
0100
0001
0100
,
0002
0000
0000
0000
0013
0000
0001
1000
0200
0000
0000
0000
1300
0000
0010
0000
,
0100
0000
0001
0000
0010
0000
0100
0000
2000
0000
0000
3020
0000
0000
1030
0001
,
0010
0000
0000
0011
0000
0000
2200
0000
0000
0000
0300
3001
1000
0000
0100
0010
,
0001
0000
0100
0000
0010
0000
1000
0000
0200
0000
0000
0320
0000
0000
0031
1000
,
0020
0000
0000
0130
0001
0000
0010
0100
2000
0000
0000
3001
1000
0000
0010
0100
,
0010
0000
1000
0000
0001
0000
0020
0000
0000
0000
0130
0000
1000
0000
0001
0100
,
0010
0000
1000
0000
0100
0000
2000
0000
0000
0000
3001
0000
0100
0000
0001
0010
,
0100
0000
1000
0000
0010
0000
0100
0000
1000
0000
0100
0000
0001
1000
0001
1000
,
0200
0000
0000
0310
0001
0000
1000
0010
0200
0000
0000
0301
0010
0000
0001
1000
,
0100
0000
0010
0001
0010
0000
0100
1000
0002
0000
0000
0203
0000
0000
0310
1000
,
0001
0000
0000
0101
0000
0000
2020
0000
0000
0030
3100
1000
0001
0000
0010
0100
,
1000
0000
0001
0000
0100
0000
0010
0000
0110
0000
0000
1001
0000
0000
1000
0100
,
0002
0000
0023
0000
0230
0000
1300
0001
0020
0000
0000
0031
1000
0000
0100
1000
,
0001
0000
0100
0000
0010
0000
1000
0000
0100
0000
1000
0001
1000
0000
0010
0100
,
0001
0010
1000
0010
0100
0001
0100
1000
,
1100
0000
0000
0101
0000
0000
0010
0001
0000
0010
0001
0000
0100
0010
1000
0010
,
0100
0000
0000
0001
0000
0001
0000
0001
0000
1000
0000
0010
1000
0010
0100
0000
,
0001
0000
0010
0100
0000
0100
0000
0100
0000
1000
0000
0001
1000
0001
0010
0000
,
0200
0000
2000
0300
,
0020
3000
0002
0033
;

//---------------dance-double - ----------------
#NOTES:
     dance-double:
     :
     Easy:
     3:
     :
00000000
00000000
00000000
00000000
,
00000000
00000000
00000000
00000000
,
00000000
00000000
00000000
00000000
,
00000000
00000000
00000000
00000000
,
00000000
00000000
00000000
00000000
,
10000000
00000000
00000000
00000000
,
10000000
00000000
00000000
00000000
,
00010000
00000000
00010000
00000000
,
10000000
01000000
00010000
00000000
,
00011000
00000000
00000000
00000000
,
00001000
00000000
00001000
00000000
,
00000010
00000000
00000001
00000000
,
00001000
00001000
00001000
00000000
,
00000001
00000000
00000001
00000000
,
00001000
00000000
00001000
00000000
,
00010000
00000000
00010000
00000000
,
00100000
00100000
00100000
00000000
,
10010000
00000000
00000000
00000000
,
01000000
00000000
01000000
00000000
,
00010000
00000000
10000000
00000000
,
00100000
00000000
00100000
00000000
,
10000000
01000000
00010000
00000000
,
00001000
00000000
00001000
00000000
,
00010000
00001000
00000010
00000000
,
00000100
00000000
00000100
00000000
,
00001001
00000000
00000001
00000000
,
00001000
00001000
00001000
00000000
,
00000001
00000000
00000001
00000000
,
00000100
00000100
00001000
00010000
,
00010000
00000000
00010000
00000000
,
00001000
00001000
00001000
00000000
,
00010000
00100000
10000000
10000000
,
20000000
30000000
00020000
00030000
,
10010000
00000000
00000000
00000000
,
01000000
00000000
01000000
00010000
,
00001000
00001000
00001000
00000000
,
00010000
00000000
00001000
00000000
,
00011000
00000000
00001000
00000000
,
00000110
00000000
00000100
00000000
,
00001001
00000000
00000001
00000000
,
00000100
00001000
00001000
00000000
,
00011000
00010000
00010000
00000000
,
01100000
01000000
01000000
00000000
,
00010000
00010000
10000000
10000000
,
01000000
00000000
00010000
00001000
,
00002000
00000000
00010000
00003000
,
00020000
00000000
00001000
00030000
,
00001000
00000000
00000010
00000000
,
00000001
00001000
00000010
00000100
,
00001001
00000000
00000000
00000000
;

//---------------dance-double - ----------------
#NOTES:
     dance-double:
     :
     Medium:
     6:
     :
00000000
00000000
00000000
00000000
,
00000000
00000000
00000000
00000000
,
00000000
00000000
00000000
00000000
,
00000000
00000000
00000000
00000000
,
00000000
00000000
00000000
00000000
,
20000000
00000000
00010000
30000000
,
00020000
00000000
10000000
00030000
,
20000000
00000000
01000000
31000000
,
00010000
00000000
00001000
00000000
00001000
00000100
00000001
00000000
,
00001100
00000001
00000100
00000100
,
00001000
00010000
00000100
00000100
,
00000010
00000001
00001000
00000010
,
00000100
00001000
00010000
01000000
,
10000000
00010000
01000000
01000000
,
00100000
10000000
01000000
01000000
,
00100000
00010000
01000000
00100000
,
10000000
01000000
00010000
00001000
,
00011000
00010000
00001000
00000100
,
00000001
00001000
00000001
00001000
,
00000010
00000100
00000001
00000001
,
00001000
00000001
00001000
00000001
,
00001000
00010000
00100000
00100000
,
02000000
10000000
10000000
13000000
,
00020000
00100000
00100000
00130000
,
02000000
00000000
13000000
00000000
00100000
01000000
00100000
00000000
,
10010000
00100000
01000000
01000000
,
10000000
00000000
00100000
00000000
00010000
00001000
00010000
00000000
,
00000100
00000010
00000100
00001000
,
00000010
00000100
00000010
00000000
00000100
00000000
00001001
00000000
,
00000010
00000100
00001000
00001000
,
00000001
00000000
00000100
00000000
00001000
00010000
00001000
00000000
,
01000000
00100000
01000000
00010000
,
00200000
00000000
01300000
00000000
10000000
00010000
00100000
00000000
,
11000000
00010000
00010000
00010000
,
01010000
10000000
10000000
10000000
,
10100000
00010000
00001000
00000100
,
00000001
00000001
00001000
00000100
,
00000011
00001000
00001000
00001000
,
00001010
00000001
00000001
00000001
,
00000101
00001000
00010000
00100000
,
00100000
10000000
01000000
00100000
,
10010000
00000000
00100000
00000000
01000000
00010000
01000000
00000000
,
10010000
00000000
00100000
00000000
01000000
10000000
01000000
00000000
,
00010000
00001000
00000100
00000001
,
00000010
00000000
00000010
00000000
00000100
00001000
00000001
00000000
,
00000010
00000010
00000100
00001000
,
00000001
00000001
00000100
00001000
,
00010000
01000000
10000000
00010000
,
00100000
01000000
00100000
00000000
01000000
10000000
00010000
00000000
,
01100000
00000000
00000000
00000000
;

//---------------dance-double - ----------------
#NOTES:
     dance-double:
     :
     Hard:
     10:
     :
00000000
00000000
00000000
00000000
,
00000000
00000000
00000000
00000000
,
00000000
00000000
00000000
00000000
,
00000000
00000000
00000000
00000000
,
00000000
00000000
00000000
00000000
,
00000001
00001000
00000001
00000000
00000100
00000000
00000100
00000000
,
00001000
00000001
00001000
00000000
00000100
00000000
00000100
00000000
,
00000010
00000001
00000010
00000000
00000100
00001000
00000100
00000000
,
00000010
00000001
00000100
00001000
00010000
01000000
10000000
00010000
,
10010000
00000000
00100000
00000000
01000000
10000000
01000000
00000000
,
10010000
00000000
00100000
00000000
01000000
00010000
01000000
00000000
,
11000000
00100000
01010000
00100000
,
10000000
01000000
00010000
00000000
00001000
00000100
00000001
00000000
,
00000010
00001100
00000010
00000101
,
00001000
00000001
00000010
00000000
00000100
00000000
00001000
00000000
,
00000001
00000100
00001000
00100000
,
01000000
10000000
00010000
01000000
00100000
10000000
00010000
00000000
,
02100000
13000000
02100000
03010000
,
10000000
01000000
00010000
00000000
00001000
00000010
00000001
00000000
,
00002100
00003001
00000102
00001003
,
00000010
00000100
00000001
00000000
00000010
00000100
00001000
00000000
,
00000001
00001000
00001000
00010000
,
00100000
01010000
00100000
11000000
,
10000000
00100000
00010000
00000000
00010000
00001000
00000010
00000000
,
00000001
00000000
00001100
00000000
00000001
00000010
00000100
00001000
,
00001001
00000010
00000010
00000010
,
00000100
00000001
00000100
00000000
00001010
00000000
00001001
00000000
,
00000100
00000000
00000100
00000000
00000010
00001000
00000100
00000000
,
00010000
00001000
00010000
01000000
10000000
00010000
01000000
00100000
,
01000000
01000000
10010000
01000000
,
00100000
00100000
10010000
00100000
,
01000000
00010000
10000000
00000000
01000000
00010000
00001000
00000000
,
00000010
00000100
00001000
00000010
00000100
00000001
00000010
00000100
,
00002100
00000001
00000100
00003100
,
00000102
00001000
00000100
00000103
,
00001000
00000000
00010000
00000000
00100000
01000000
10000000
00000000
,
00010000
10000000
00010000
00000000
00100000
01000000
00100000
00000000
,
20010000
31000000
02000000
03100000
,
10020000
01030000
02000000
03100000
,
10000000
00010000
00001000
00000001
,
00000010
00000100
00000010
00000000
00000100
00000000
00001001
00000000
,
00000110
00000000
00000001
00000000
00000010
00001000
00010000
00000000
,
00011000
00000000
00100000
00000000
10000000
00010000
10000000
00000000
,
02100000
13000000
02100000
03010000
,
10000000
01000000
00100000
00000000
01000000
00000000
10000000
00010000
,
10010000
00000000
00100000
00000000
10000000
00010000
01000000
00100000
,
01100000
00000000
10000000
00000000
01000000
00010000
00001000
00010000
,
00011000
00000000
00000010
00000000
00000100
00000010
00001000
00000000
,
00000001
00000000
00000000
00000100
00000000
00000010
00000000
00001000
00000000
00000000
00000100
00000000
00000000
00010000
00000000
00000000
,
01000000
00000000
00000000
00000000
;
