#VERSION:0.83;
#TITLE:California Sun;
#SUBTITLE:;
#ARTIST:Ramones;
#TITLETRANSLIT:;
#SUBTITLETRANSLIT:;
#ARTISTTRANSLIT:;
#GENRE:;
#ORIGIN:;
#TAGS:;
#CREDIT:;
#BANNER:California Sun-bn.png;
#BACKGROUND:California Sun-bg.png;
#PREVIEWVID:;
#JACKET:California Sun-jacket.png;
#CDIMAGE:;
#DISCIMAGE:;
#LYRICSPATH:;
#CDTITLE:;
#MUSIC:California Sun.ogg;
#OFFSET:0.000000;
#SAMPLESTART:26.346001;
#SAMPLELENGTH:20.000000;
#SELECTABLE:YES;
#DISPLAYBPM:181.000000:194.000000;
#BPMS:0.000000=181.000000,
12.000000=184.000000,
16.000000=188.000000,
32.000000=190.000000,
44.000000=189.000000,
52.000000=187.000000,
56.000000=188.000000,
60.000000=191.000000,
92.000000=185.000000,
108.000000=187.000000,
116.000000=189.000000,
136.000000=192.000000,
148.000000=190.000000,
172.000000=188.000000,
180.000000=184.000000,
188.000000=186.000000,
204.000000=187.000000,
212.000000=189.000000,
228.000000=184.000000,
232.000000=187.000000,
236.000000=185.000000,
244.000000=188.000000,
268.000000=189.000000,
276.000000=194.000000,
284.000000=192.000000,
288.000000=191.000000,
292.000000=193.000000,
296.000000=190.000000,
300.000000=187.000000,
320.000000=185.000000,
336.000000=188.000000,
344.000000=190.000000,
348.000000=185.000000,
360.000000=186.000000,
364.000000=184.000000,
368.000000=187.000000;
#STOPS:;
#DELAYS:;
#WARPS:;
#TIMESIGNATURES:0.000000=4=4;
#TICKCOUNTS:0.000000=4;
#COMBOS:0.000000=1;
#SPEEDS:0.000000=1.000000=0.000000=0;
#SCROLLS:0.000000=1.000000;
#FAKES:;
#LABELS:0.000000=Song Start;
#BGCHANGES:;
#KEYSOUNDS:;
#ATTACKS:
;

//---------------dance-single - ----------------
#NOTEDATA:;
#CHARTNAME:;
#CHARTHASH:2147483647:
#STEPSTYPE:dance-single;
#BANNER:;
#DESCRIPTION:;
#CHARTSTYLE:;
#DIFFICULTY:Challenge;
#METER:13;
#METERF:0.000000;
#RADARVALUES:0.713095,0.693750,0.375000,0.091667,0.000000,599.000000,554.000000,45.000000,11.000000,0.000000,0.000000,0.000000,0.000000,0.000000,0.713095,0.693750,0.375000,0.091667,0.000000,599.000000,554.000000,45.000000,11.000000,0.000000,0.000000,0.000000,0.000000,0.000000;
#CREDIT:;
#DISPLAYBPM:181.000000:194.000000;
#NOTES:
0000
0000
0000
0000
,
0000
0000
0000
0000
,
0000
0000
0000
0000
,
0000
0000
0000
0000
,
0000
0000
0000
0000
,
0000
0000
0000
0000
,
0000
0000
0000
0000
,
0000
0000
0000
0000
,
0000
0000
0000
0000
,
0010
0000
0100
0001
1000
0001
0010
0100
,
1000
0000
0001
0010
0001
0100
0010
1000
,
0001
0000
0001
0010
0100
1000
0010
1000
,
0001
0010
0100
1000
0000
0010
0100
0010
,
1000
0001
0100
0000
0101
0000
0101
0000
,
1001
0000
1000
0010
0000
1000
0001
1000
,
0100
0010
0001
0000
0001
0000
0001
0100
,
0010
1000
0001
1000
0000
0100
0010
0100
,
1000
0000
1100
0000
1100
0000
0010
0100
,
0001
1000
0000
0110
0000
0010
0100
0010
,
1000
0001
0100
0000
0100
0000
0100
0010
,
1000
0100
0010
0001
0000
1000
0001
1000
,
1001
0000
0010
1000
0001
0010
0001
0100
,
0110
0000
0100
0001
0010
0100
1000
0010
,
1010
0000
1000
0001
1000
0100
0010
0001
,
0011
0000
0100
0001
0010
0100
1000
0001
,
1010
0000
1000
0001
1000
0100
0010
0001
,
0011
0000
0001
1000
0100
1000
0010
0100
,
0110
0000
0001
0010
0100
1000
0010
0100
,
0101
0000
1000
0001
1000
0010
0100
0001
,
0011
0000
0100
0010
1000
0001
1000
0100
,
1100
0000
0010
0100
0000
0100
0001
1000
,
1010
0000
0010
1000
0100
0010
0001
1000
,
0000
0010
0100
0010
0100
0000
0001
1000
,
0010
1000
0100
0000
0110
0000
0110
0000
,
1001
0000
0100
0010
0000
1000
0100
1000
,
0001
1000
0100
0000
0100
0000
0100
0010
,
0100
1000
0001
0100
0000
0000
0001
1000
,
0001
0100
1000
0100
0002
0000
0013
0200
,
0000
1300
0001
1000
0000
0000
0010
0100
,
0001
1000
0010
0000
0010
0000
0010
0100
,
0010
1000
0100
0010
0000
0001
1000
0001
,
1001
0000
0010
1000
0100
0010
0001
0100
,
0110
0000
0010
1000
0001
1000
0100
0010
,
0011
0000
0001
0100
0001
0010
0100
1000
,
1010
0000
1000
0001
1000
0100
0010
0001
,
0101
0000
0001
0010
0100
0010
0001
1000
,
1100
0000
1000
0010
1000
0100
0010
0001
,
1001
0000
1000
0010
1000
0100
0010
0001
,
0101
0000
0001
0010
0100
1000
0010
0100
,
0110
0000
0001
0010
0001
0100
0010
1000
,
1100
0000
0010
1000
0000
1000
0001
0100
,
0101
0000
0001
0010
0100
1000
0010
0100
,
0000
0100
0001
0100
0001
0000
1000
0010
,
2010
0000
3002
0000
0203
0000
0301
0010
,
0001
0100
0010
2000
0000
0000
3100
0010
,
0002
0000
0203
0000
0320
0000
1030
0001
,
0010
0001
1000
0200
0000
0000
0310
0100
,
1000
0000
1000
0010
1000
0100
0010
0001
,
0100
0000
0001
0010
0001
1000
0100
0010
,
0001
0000
0001
1000
0010
1000
0100
0010
,
0001
0000
0100
0010
0100
0001
0010
1000
,
0100
0000
1000
0001
0000
0001
0010
0100
,
1000
0000
0010
0100
0000
0100
0001
0010
,
0100
0000
1000
0001
1000
0010
1000
0100
,
1000
0000
0001
0010
0001
0100
0001
1000
,
0001
0000
0100
0010
1000
0001
1000
0100
,
0010
0000
0001
1000
0010
1000
0100
0010
,
0001
0000
0100
0001
0010
0100
1000
0010
,
1000
0001
1000
0001
0000
0100
0010
0100
,
0001
0000
0011
0000
0001
1000
0010
0100
,
0010
1000
0100
0010
0000
0001
1000
0001
,
0100
0010
1000
0000
1000
0000
1000
0001
,
1000
0100
0010
0001
0000
0000
0000
0010
,
0001
1000
0001
1000
0001
0100
0010
2000
,
0000
3001
0010
0100
0000
1000
0010
1000
,
0001
0100
0010
0000
0010
0000
0010
1000
,
0001
1000
0100
0010
0001
0100
0010
1000
,
1001
0000
0001
0010
0100
1000
0010
1000
,
1100
0000
0001
1000
0100
0010
0001
0100
,
0101
0000
0001
0010
0100
0010
0001
1000
,
1010
0000
1000
0001
1000
0100
0010
0001
,
0011
0000
0010
0001
0100
0010
1000
0001
,
1001
0000
1000
0001
1000
0100
0010
0100
,
0110
0000
0010
0001
0100
0010
1000
0001
,
0011
0000
0100
0001
0010
0100
1000
0001
,
1001
0000
1000
0010
1000
0100
0010
0001
,
0011
0000
1000
0001
1000
0010
0100
0001
,
0101
0000
0001
0010
0100
1000
0010
0100
,
0001
1000
0001
1000
0000
0100
0010
0001
,
0100
0000
0100
0010
1000
0001
1000
0100
,
0010
0000
0010
0001
1000
0001
0010
0100
,
1000
0000
0001
1000
0010
0100
0010
1000
,
0010
0100
0010
0100
0110
0000
0000
0000
;

//---------------dance-single - ----------------
#NOTEDATA:;
#CHARTNAME:;
#CHARTHASH:0:
#STEPSTYPE:dance-single;
#BANNER:;
#DESCRIPTION:;
#CHARTSTYLE:;
#DIFFICULTY:Hard;
#METER:12;
#METERF:0.000000;
#RADARVALUES:0.586905,0.578125,0.291667,0.200000,0.000000,493.000000,458.000000,35.000000,24.000000,0.000000,0.000000,0.000000,0.000000,0.000000,0.586905,0.578125,0.291667,0.200000,0.000000,493.000000,458.000000,35.000000,24.000000,0.000000,0.000000,0.000000,0.000000,0.000000;
#CREDIT:;
#DISPLAYBPM:181.000000:194.000000;
#NOTES:
0000
0000
0000
0000
,
0000
0000
0000
0000
,
0000
0000
0000
0000
,
0000
0000
0000
0000
,
0000
0000
0000
0000
,
0000
0000
0000
0000
,
0000
0000
0000
0000
,
0000
0000
0000
0000
,
0000
0000
0000
0000
,
0001
0000
0001
0100
0010
0000
0010
1000
,
0100
0000
0100
0010
0001
1000
0001
0000
,
0010
0000
0010
0001
1000
0000
1000
0010
,
1000
0001
1000
0001
0000
0000
0100
0010
,
1000
1100
0001
0101
,
1000
0010
1000
0010
0000
0000
0100
0001
,
0200
0000
0320
0000
2030
0000
3001
0010
,
0001
0100
0010
1000
0000
0000
0001
0100
,
0001
0011
1000
1010
,
0001
0100
0001
0100
0000
0000
0010
1000
,
0020
0000
2030
0000
3002
0000
1003
0100
,
1000
0010
1000
0001
0000
0010
0100
0010
,
0001
0000
0100
0010
0000
0010
1000
0000
,
1100
0000
0010
1000
0000
0001
0100
0010
,
1000
0000
1000
0001
0000
0001
0010
0000
,
0110
0000
0100
1000
0000
1000
0001
0000
,
1000
0010
0000
0100
0000
0001
1000
0000
,
0001
1000
0000
0100
0000
0010
0001
0000
,
0101
0000
0010
0001
0000
1000
0100
0000
,
1001
0000
1000
0001
0000
0010
0100
1000
,
0001
0000
0001
0000
1000
0010
0100
0001
,
0010
0000
0001
1000
0001
0000
0100
0010
,
1000
0000
0100
0010
0001
0000
0001
1000
,
0010
1000
0010
1000
0000
0000
0100
0010
,
0001
0101
1000
1010
,
0010
0100
0010
0100
0000
0000
0001
1000
,
0200
0000
0320
0000
0230
0000
1300
0001
,
0010
0100
0010
0100
0000
0000
1000
0001
,
1000
1100
0001
0011
,
1000
0100
1000
0100
0000
0000
0010
0001
,
2000
0000
3002
0000
2003
0000
3100
0010
,
0100
1000
0001
1000
0000
0010
0100
0010
,
1000
0000
0001
0010
0000
0100
1000
0000
,
0110
0000
0010
0001
0000
0100
0010
1000
,
0001
0000
1000
0010
0000
1000
0100
0000
,
1001
0000
0010
1000
0000
0001
0100
0000
,
0001
0010
0000
1000
0000
0100
0010
0000
,
0100
1000
0000
0001
0000
0100
0010
0000
,
1010
0000
1000
0001
0000
0010
0100
0000
,
0011
0000
0100
0010
0000
1000
0001
1000
,
0100
0000
0100
0000
1000
0001
1000
0010
,
0100
0000
0001
0010
0001
0000
1000
0010
,
0100
0000
0001
1000
0001
0000
0010
0100
,
1000
0001
1000
0001
0000
0001
0100
0010
,
2000
0000
3002
0000
0203
0000
0301
0010
,
0100
1000
0100
0010
0000
0000
0000
0000
,
0002
0000
0203
0000
0320
0000
1030
0001
,
1000
0100
0010
0001
0000
0100
0010
0000
,
1001
0000
1000
0010
0100
0000
0001
0000
,
0011
0000
0010
0100
1000
0000
0001
0000
,
0101
0000
0001
0010
1000
0000
0100
0000
,
1100
0000
0010
1000
0100
0000
0001
0000
,
1010
0000
1000
0001
0010
0000
0100
0000
,
0110
0000
1000
0010
0100
0000
0001
0000
,
1001
0000
0010
1000
0001
0000
0100
0000
,
0110
0000
0001
0100
1000
0000
0010
0000
,
1010
0000
0001
0100
0010
0000
1000
0000
,
0101
0000
0010
1000
0000
1000
0100
0000
,
0010
0000
0001
0100
0001
0000
0010
0100
,
1000
0001
1000
0001
0000
0000
1000
0100
,
0010
0011
0100
1100
,
0001
1000
0010
0100
0000
0000
0010
1000
,
0002
0000
0023
0000
0230
0000
1300
0010
,
1000
0100
1000
0001
0000
0000
0100
0010
,
1000
0101
0001
1100
,
0010
1000
0001
0100
0000
0000
0001
1000
,
0002
0000
0023
0000
0230
0000
0310
0100
,
0010
0001
1000
0001
0000
0100
0010
0100
,
0001
0000
0010
0001
0000
1000
0100
0000
,
1001
0000
0010
0100
0000
0001
1000
0001
,
0010
0000
0100
1000
0000
1000
0001
0000
,
1010
0000
0100
0010
0000
1000
0001
0000
,
1000
0100
0000
0010
0000
0001
1000
0000
,
0010
1000
0000
0100
0000
0010
0001
0000
,
1100
0000
0010
1000
0000
0100
0001
0000
,
0110
0000
0010
1000
0000
1000
0100
0010
,
0001
0000
0001
0000
0010
0001
0100
0010
,
1000
0000
0100
1000
0001
0000
0001
0010
,
0100
0000
0100
1000
0001
0000
0001
0100
,
0010
1000
0010
1000
0000
0100
0010
0001
,
0100
0000
0100
0000
0010
1000
0001
1000
,
0100
0000
0010
0001
0010
0000
0001
1000
,
0001
0000
1000
0100
0010
0000
0001
0100
,
0010
0100
0010
0100
0110
0000
0000
0000
;

//---------------dance-single - ----------------
#NOTEDATA:;
#CHARTNAME:;
#CHARTHASH:0:
#STEPSTYPE:dance-single;
#BANNER:;
#DESCRIPTION:;
#CHARTSTYLE:;
#DIFFICULTY:Medium;
#METER:9;
#METERF:0.000000;
#RADARVALUES:0.423810,0.578125,0.141667,0.000000,0.000000,356.000000,339.000000,17.000000,0.000000,0.000000,0.000000,0.000000,0.000000,0.000000,0.423810,0.578125,0.141667,0.000000,0.000000,356.000000,339.000000,17.000000,0.000000,0.000000,0.000000,0.000000,0.000000,0.000000;
#CREDIT:;
#DISPLAYBPM:181.000000:194.000000;
#NOTES:
0000
0000
0000
0000
,
0000
0000
0000
0000
,
0000
0000
0000
0000
,
0000
0000
0000
0000
,
0000
0000
0000
0000
,
0000
0000
0000
0000
,
0000
0000
0000
0000
,
0000
0000
0000
0000
,
0000
0000
0000
0000
,
0010
1000
0010
0100
,
0001
0010
0001
0100
,
1000
0010
1000
0001
,
1000
0100
1000
0100
0000
0000
0001
0000
,
1000
0010
1000
0001
,
0010
0000
0100
1000
0000
0000
0001
0000
,
1000
0010
1000
0100
,
0010
0000
0001
0100
0000
0000
1000
0000
,
0010
0100
0010
1000
,
0100
0000
0010
0001
0000
0000
0100
0000
,
0001
0010
0001
0100
,
0010
0000
1000
0001
0000
0100
0010
0100
,
0010
0000
0000
0000
0000
1000
0100
1000
,
0100
0000
0000
0000
0000
0010
0001
0010
,
0001
0000
0000
0000
0000
1000
0010
1000
,
0010
0000
0000
0000
0000
0100
0001
0100
,
0001
0000
0000
0000
0000
0001
1000
0001
,
1000
0000
0000
0000
0000
1000
0100
0010
,
0001
0000
0000
0000
0000
0001
0010
0100
,
1000
0000
0000
0000
0000
1010
0000
0001
,
0100
0000
0100
0000
0001
1000
0000
0101
,
0000
0000
0000
0000
0000
0000
1000
0001
,
1000
0000
0100
0010
0100
0000
1000
0001
,
0000
0010
0100
0010
0000
0000
0001
0000
,
1000
0100
1000
0010
,
0100
0000
0001
1000
0000
0000
0010
0000
,
1000
0100
0010
0001
,
0010
0000
0001
0100
0000
0000
0010
0000
,
1000
0100
1000
0010
,
0100
0000
0001
1000
0000
0000
0001
0000
,
0010
0001
0100
0010
,
1000
0000
0001
0100
0000
0010
0100
0010
,
0100
0000
0000
0000
0000
0001
0010
0001
,
0010
0000
0000
0000
0000
0100
1000
0100
,
1000
0000
0000
0000
0000
0001
1000
0001
,
1000
0000
0000
0000
0000
1000
0010
1000
,
0010
0000
0000
0000
0000
0100
0001
0100
,
0001
0000
0000
0000
0000
0001
0010
0100
,
1000
0000
0000
0000
0000
1000
0100
0010
,
0001
0000
0000
0000
0000
0011
0000
1000
,
0010
0000
0010
0000
1000
0001
0000
1100
,
0000
0000
0000
0000
0000
0000
0010
0001
,
0010
0000
0001
1000
0001
0000
0100
0010
,
0000
1000
0001
1000
0000
0000
0010
0000
,
1001
0110
1001
0110
,
0001
1000
0001
1000
0000
0000
0100
0000
,
1001
0110
1001
0110
,
0100
0010
0100
0010
0000
0000
1000
0000
,
0010
0000
0000
0100
0000
0000
0001
0000
,
0010
0000
0000
0100
0000
0000
1000
0000
,
0001
0000
0000
1000
0000
0000
0010
0000
,
1000
0000
0000
0100
0000
0000
0001
0000
,
0010
0000
0000
0001
0000
0000
0100
0000
,
1000
0000
0000
0001
0000
0000
0010
0000
,
0100
0000
0000
1000
0000
0000
0010
0000
,
1000
0000
0000
0100
0000
0000
0001
0000
,
0010
0001
1000
0010
,
1000
0100
0010
0001
,
0100
0010
1000
0001
,
0010
0100
0010
0100
0000
0000
1000
0000
,
0001
0010
0100
0010
,
0100
0000
1000
0010
0000
0000
0100
0000
,
0001
0010
0001
0100
,
0001
0000
1000
0010
0000
0000
0100
0000
,
0010
1000
0100
0010
,
0001
0000
1000
0010
0000
0000
0100
0000
,
0010
1000
0001
0010
,
0001
0000
0001
0000
0001
1000
0001
1000
,
0001
0000
0000
0000
0000
1000
0100
1000
,
0100
0000
0000
0000
0000
0001
0100
0001
,
0100
0000
0000
0000
0000
0010
1000
0010
,
1000
0000
0000
0000
0000
0001
0010
0001
,
0010
0000
0000
0000
0000
0010
0100
0010
,
0100
0000
0000
0000
0000
1000
0100
0010
,
0001
0000
0000
0000
0000
0001
0010
0100
,
1000
0000
0000
0000
0000
1100
0000
0010
,
1000
0000
1000
0000
0100
0010
0000
0011
,
0000
0000
0000
0000
0000
0000
0001
1000
,
0001
0000
1000
0100
1000
0000
0010
0100
,
0010
0000
0000
0000
0000
0101
0000
1000
,
0001
0000
0001
0000
0100
0010
0000
1010
,
0000
0000
0000
0000
0000
0000
0100
1000
,
0001
0000
0001
0010
0100
0000
0100
1000
,
0010
0100
0010
0100
0110
0000
0000
0000
;

//---------------dance-single - ----------------
#NOTEDATA:;
#CHARTNAME:;
#CHARTHASH:0:
#STEPSTYPE:dance-single;
#BANNER:;
#DESCRIPTION:;
#CHARTSTYLE:;
#DIFFICULTY:Easy;
#METER:7;
#METERF:0.000000;
#RADARVALUES:0.386905,0.501042,0.233333,0.000000,0.000000,325.000000,297.000000,28.000000,0.000000,0.000000,0.000000,0.000000,0.000000,0.000000,0.386905,0.501042,0.233333,0.000000,0.000000,325.000000,297.000000,28.000000,0.000000,0.000000,0.000000,0.000000,0.000000,0.000000;
#CREDIT:;
#DISPLAYBPM:181.000000:194.000000;
#NOTES:
0000
0000
0000
0000
,
0000
0000
0000
0000
,
0000
0000
0000
0000
,
0000
0000
0000
0000
,
0000
0000
0000
0000
,
0000
0000
0000
0000
,
0000
0000
0000
0000
,
0000
0000
0000
0000
,
0000
0000
0000
0000
,
0010
0000
1000
0000
,
0001
0000
0010
0000
,
0001
0000
0100
0000
,
1000
0001
1000
0000
,
0010
0010
0010
1000
,
0001
1000
0100
0000
,
0010
0010
0010
0001
,
1000
0001
0100
0000
,
0001
0001
0001
1000
,
0010
1000
0100
0000
,
1000
1000
1000
0001
,
0010
0001
0100
0000
,
1001
0010
1000
0100
,
0110
0001
0100
0010
,
1010
1000
0100
0010
,
0011
0001
0100
0010
,
1001
1000
0001
0010
,
0110
0100
1000
0001
,
0011
0100
0010
1000
,
1010
0001
1000
0100
,
0010
0010
0010
0001
,
1000
1000
1000
0100
,
1000
1000
1000
0010
,
0100
0001
0001
0000
,
0010
0001
0010
0001
,
0100
0010
1000
0000
,
0100
1000
0100
1000
,
0100
0010
0001
0000
,
1000
0001
1000
0001
,
0010
0100
0010
0000
,
0001
1000
0001
1000
,
0100
0010
0100
0000
,
0110
0001
0100
1000
,
1001
1000
0010
0100
,
1010
1000
0100
0001
,
0011
0010
0100
1000
,
1010
0001
1000
0100
,
0110
0010
0001
0100
,
1001
0001
0010
0100
,
0011
1000
0010
0100
,
0001
0001
0001
0010
,
0001
0100
1000
1000
,
0010
1000
0100
0010
,
0001
0001
0001
0000
,
1000
0001
1000
0001
,
0010
0100
1000
0000
,
0010
0100
0010
1000
,
0100
0010
0001
0000
,
1000
0000
0001
0100
,
0001
0000
0010
0100
,
1000
0000
0001
1000
,
1000
0000
0100
0010
,
0001
0000
0100
0010
,
1000
0000
0001
0010
,
0010
0000
0100
1000
,
0010
0000
1000
0001
,
1000
0000
0100
0000
,
0010
0000
0001
0000
,
0100
0000
0010
0000
,
1000
0100
0010
0000
,
0001
0001
0001
0001
,
0001
0001
0001
0000
,
1000
1000
1000
1000
,
1000
1000
1000
0000
,
0010
0010
0010
0010
,
0010
0010
0010
0000
,
0100
0100
0100
0100
,
0100
0100
0100
0000
,
1010
0001
0010
0100
,
0011
0001
0100
1000
,
1001
0010
1000
0100
,
0110
0001
0100
0010
,
0110
1000
0001
0010
,
0011
0100
0010
1000
,
1010
0001
0100
1000
,
1001
0010
1000
0100
,
0010
0010
0001
0001
,
0100
0010
0100
0001
,
1000
1000
1000
0100
,
0010
0001
0100
0010
,
1000
0001
1000
0100
,
0010
0001
0100
0010
,
1010
0001
0011
0100
,
0010
1001
0110
0000
;

//---------------dance-single - ----------------
#NOTEDATA:;
#CHARTNAME:;
#CHARTHASH:0:
#STEPSTYPE:dance-single;
#BANNER:;
#DESCRIPTION:;
#CHARTSTYLE:;
#DIFFICULTY:Beginner;
#METER:3;
#METERF:0.000000;
#RADARVALUES:0.177381,0.269792,0.108333,0.000000,0.000000,149.000000,136.000000,13.000000,0.000000,0.000000,0.000000,0.000000,0.000000,0.000000,0.177381,0.269792,0.108333,0.000000,0.000000,149.000000,136.000000,13.000000,0.000000,0.000000,0.000000,0.000000,0.000000,0.000000;
#CREDIT:;
#DISPLAYBPM:181.000000:194.000000;
#NOTES:
// measure 0
0000
0000
0000
0000
,  // measure 1
0000
0000
0000
0000
,  // measure 2
0000
0000
0000
0000
,  // measure 3
0000
0000
0000
0000
,  // measure 4
0000
0000
0000
0000
,  // measure 5
0000
0000
0000
0000
,  // measure 6
0000
0000
0000
0000
,  // measure 7
0000
0000
0000
0000
,  // measure 8
0000
0000
0000
0000
,  // measure 9
0010
0000
0001
0000
,  // measure 10
0100
0000
0010
0000
,  // measure 11
1000
0000
0001
0000
,  // measure 12
1000
0000
0000
0000
,  // measure 13
0010
0000
0010
0000
,  // measure 14
1000
0000
0100
0000
,  // measure 15
1000
0000
1000
0000
,  // measure 16
0001
0000
0010
0000
,  // measure 17
0100
0000
0100
0000
,  // measure 18
0010
0000
0001
0000
,  // measure 19
0100
0000
0010
0000
,  // measure 20
1000
0000
0001
0000
,  // measure 21
1001
0000
0000
0000
,  // measure 22
0110
0000
0000
0000
,  // measure 23
1000
0000
0000
0000
,  // measure 24
0001
0000
0000
0000
,  // measure 25
1001
0000
0000
0000
,  // measure 26
0110
0000
0000
0000
,  // measure 27
0100
0000
0000
0000
,  // measure 28
0010
0000
0000
0000
,  // measure 29
1000
0000
1000
0000
,  // measure 30
1000
0000
0000
0000
,  // measure 31
0001
0000
0001
0000
,  // measure 32
0001
0000
0000
0000
,  // measure 33
0010
0000
0010
0000
,  // measure 34
0001
0000
0100
0000
,  // measure 35
0001
0000
0001
0000
,  // measure 36
0010
0000
0100
0000
,  // measure 37
1000
0000
1000
0000
,  // measure 38
0001
0000
0010
0000
,  // measure 39
0100
0000
0100
0000
,  // measure 40
0010
0000
0001
0000
,  // measure 41
1001
0000
0000
0000
,  // measure 42
0110
0000
0000
0000
,  // measure 43
0100
0000
0000
0000
,  // measure 44
0010
0000
0000
0000
,  // measure 45
1001
0000
0000
0000
,  // measure 46
0110
0000
0000
0000
,  // measure 47
1000
0000
0000
0000
,  // measure 48
0001
0000
0000
0000
,  // measure 49
0010
0000
0010
0000
,  // measure 50
0010
0000
0000
0000
,  // measure 51
0100
0000
0100
0000
,  // measure 52
0100
0000
0000
0000
,  // measure 53
1000
0000
1000
0000
,  // measure 54
0001
0000
0001
0000
,  // measure 55
1000
0000
1000
0000
,  // measure 56
0001
0000
0001
0000
,  // measure 57
0010
0000
0001
0000
,  // measure 58
0100
0000
0010
0000
,  // measure 59
1000
0000
0100
0000
,  // measure 60
0010
0000
0001
0000
,  // measure 61
0100
0000
0010
0000
,  // measure 62
0100
0000
0001
0000
,  // measure 63
0010
0000
0100
0000
,  // measure 64
1000
0000
0001
0000
,  // measure 65
1000
0000
0010
0000
,  // measure 66
1000
0000
0001
0000
,  // measure 67
0010
0000
0100
0000
,  // measure 68
1000
0000
0000
0000
,  // measure 69
0100
0000
0100
0000
,  // measure 70
1000
0000
0010
0000
,  // measure 71
1000
0000
0001
0000
,  // measure 72
0010
0000
0010
0000
,  // measure 73
0001
0000
0100
0000
,  // measure 74
0010
0000
1000
0000
,  // measure 75
0100
0000
0010
0000
,  // measure 76
0001
0001
0001
0000
,  // measure 77
1001
0000
0000
0000
,  // measure 78
0110
0000
0000
0000
,  // measure 79
0010
0000
0000
0000
,  // measure 80
1000
0000
0000
0000
,  // measure 81
1001
0000
0000
0000
,  // measure 82
0110
0000
0000
0000
,  // measure 83
0100
0000
0000
0000
,  // measure 84
0001
0000
0000
0000
,  // measure 85
0100
0000
0100
0000
,  // measure 86
0100
0000
0000
0000
,  // measure 87
0010
0000
0010
0000
,  // measure 88
0010
0000
0000
0000
,  // measure 89
1000
0000
1000
0000
,  // measure 90
1000
0000
0000
0000
,  // measure 91
0001
0000
0001
0000
,  // measure 92
0001
0000
0110
0000
;
