#TITLE:CRYMSON;
#SUBTITLE:;
#ARTIST:RAM;
#TITLETRANSLIT:;
#SUBTITLETRANSLIT:;
#ARTISTTRANSLIT:;
#GENRE:;
#CREDIT:;
#BANNER:CRYMSON-bn.png;
#BACKGROUND:CRYMSON-bg.png;
#LYRICSPATH:;
#CDTITLE:;
#MUSIC:CRYMSON.ogg;
#OFFSET:0.031250;
#SAMPLESTART:49.969002;
#SAMPLELENGTH:20.000000;
#SELECTABLE:YES;
#DISPLAYBPM:240.000000;
#BPMS:0.000000=240.000000
;
#STOPS:
;
#BGCHANGES:;
#KEYSOUNDS:;
#ATTACKS:;

//---------------dance-single - ----------------
#NOTES:
     dance-single:
     :
     Hard:
     16:
     0.896157,1.036867,0.676766,0.338383,0.006507,482.000000,430.000000,52.000000,26.000000,0.000000,0.000000,0.896157,1.036867,0.676766,0.338383,0.006507,482.000000,430.000000,52.000000,26.000000,0.000000,0.000000:
0000
0000
0000
0000
,
0000
0000
0000
0000
,
0000
0000
0000
0000
,
0000
0000
0000
0000
,
0000
0000
0000
0000
,
0000
0000
0000
0000
,
0001
1010
1000
1100
,
1001
0000
0010
0000
1000
0100
0010
0001
,
0100
0101
1000
1100
,
1001
0000
0100
0000
0110
0000
1000
1000
,
1000
0001
0000
0001
0010
0000
0011
0000
,
1000
0010
1000
0010
0100
0001
0100
0001
,
1000
0010
0000
0010
0100
0000
0101
0000
,
0001
0010
0001
0010
0100
1000
0100
1000
,
0010
0100
0000
0100
0001
0000
1001
0000
,
0001
1000
0001
1000
0010
0100
0010
0100
,
0001
0010
1000
0010
0002
0000
2003
0000
,
3010
1000
0001
0010
0100
0001
0100
1000
,
0010
0010
0000
1000
0001
0000
1000
0100
,
0000
0010
0010
0000
0012
0000
1003
0000
,
0020
1000
1030
0000
0002
0100
0103
0000
,
2000
0000
3010
0100
0001
0010
0100
0000
,
1000
1000
0000
0010
0100
0000
0001
0010
,
0000
0001
0001
0000
0200
0010
0310
0000
,
1000
0100
0001
0000
0010
0010
0000
0000
,
0002
1003
0000
0002
1003
0000
1100
0000
,
1001
0000
0000
0010
0200
0000
0301
1000
,
0001
0100
1000
0000
0010
0000
0100
0001
,
0000
1000
0100
0010
0001
0000
0101
0000
,
0000
0001
1000
0100
0010
0000
0000
0001
,
1000
0010
0000
0010
0100
0000
0001
0001
,
0001
1000
0010
0000
0110
0000
1000
0001
,
0000
0010
0001
0100
1000
0000
1001
0000
,
1100
0000
0000
0110
0000
0000
0011
0000
,
1001
1000
0001
1000
0010
0100
0010
0100
,
0001
0010
0100
1000
0001
0001
0002
0000
,
1003
0010
0100
0010
1000
0000
0001
0101
,
0000
1000
0010
0100
0110
0000
0001
1000
,
1010
1000
0010
1000
1010
1000
0010
1000
,
0000
0001
0010
0000
0100
0100
0200
0000
,
1300
0001
0010
0001
0100
0000
0010
0010
,
1010
0000
0000
1001
0000
0000
0101
0000
,
0011
1000
1000
1100
,
0000
0101
0000
0000
1000
0001
1000
0001
,
1001
0100
0010
0110
,
1000
1010
0000
0101
1000
0001
0000
0000
,
0011
0000
0000
0000
1001
0000
1000
0001
,
1000
0100
0000
0100
0010
0000
0001
0000
,
0101
0000
0000
0000
1010
0000
0010
0100
,
0010
0000
1000
0000
0000
0000
1000
0000
0001
0000
0000
0000
0100
0010
0100
0000
,
0001
0010
1000
0010
0100
0010
0001
0000
,
1000
0100
0001
0100
1000
0010
0001
0010
,
1000
0100
0001
0000
0001
0100
1000
0001
,
0100
0010
0200
0000
0301
0010
1000
0000
,
1100
1000
0100
1000
1100
1000
0100
1000
,
0000
0011
0001
0100
0102
1000
1003
0000
,
1010
1010
0000
0110
0110
0000
0001
1000
,
0002
0010
0010
0013
0002
0100
0100
0103
,
0010
1000
0010
0100
0010
0001
0010
1000
,
0100
0001
0100
0010
0100
1000
0100
0000
,
1000
0010
0100
0010
0001
0010
0100
0010
,
1000
0100
0001
0100
0010
0100
1000
0000
,
0001
0010
0100
0001
0100
0010
0100
1000
,
0010
0100
0010
0001
0010
1000
0100
0000
,
1000
0001
0010
0001
0100
0010
1000
0001
,
0010
1000
0010
0001
0100
0010
1000
0001
,
1000
0001
0101
0000
1100
1000
0001
0000
,
0020
0001
0031
2000
0100
3100
0020
0000
,
0031
0100
0010
0100
0001
0010
0100
1000
,
0001
0100
0010
0000
1020
1000
1030
0000
,
0002
1000
1003
0020
0100
0130
0002
0000
,
1003
0001
0010
0001
0100
0010
1000
0001
,
0020
0001
0031
0200
0010
0310
1000
0001
,
1000
0010
0010
0010
0100
0001
1000
0001
,
0012
0100
1003
1100
,
0001
0001
0000
0110
0000
1000
0001
0100
;

//---------------dance-single - ----------------
#NOTES:
     dance-single:
     :
     Medium:
     14:
     0.667470,0.740620,0.598678,0.312354,0.000000,359.000000,313.000000,46.000000,24.000000,0.000000,0.000000,0.667470,0.740620,0.598678,0.312354,0.000000,359.000000,313.000000,46.000000,24.000000,0.000000,0.000000:
0000
0000
0000
0000
,
0000
0000
0000
0000
,
0000
0000
0000
0000
,
0000
0000
0000
0000
,
0000
0000
0000
0000
,
0000
0000
0000
0000
,
0001
0011
1000
1100
,
1001
0010
1001
0100
,
0001
0011
1000
1010
,
0010
0100
0010
0000
1000
0000
0010
0100
,
0020
0000
0000
2030
0000
0000
3001
0000
,
0010
0100
0000
0010
0100
0000
1000
0000
,
0002
0000
0000
0203
0000
0000
0310
0000
,
1000
0001
1000
0000
0101
0000
0101
0000
,
2000
0000
0000
3020
0000
0000
0130
0001
,
1000
0001
0100
0000
0110
0000
0110
0000
,
0200
0000
0000
0302
0000
0000
1003
0000
,
0000
0010
0100
0010
0100
0010
0100
0010
,
1000
0000
0000
1000
0000
0000
1000
0000
,
0000
1000
0010
0000
0110
0000
0000
0000
,
0000
0001
0020
0000
0030
0100
2000
0000
,
3010
0000
1001
0000
0000
1000
0001
0000
,
0010
0000
0000
0010
0000
0000
0010
0000
,
0000
0001
0100
0000
1020
0000
1030
0000
,
0000
1000
0001
0000
0001
0200
0000
0000
,
0302
1003
0000
0002
1003
0000
1001
0000
,
0011
0000
0000
0001
0100
0000
0010
0000
,
1000
0001
1000
0000
0000
0000
0000
0000
,
0000
1010
0000
1000
0001
0000
0001
0000
,
0000
0011
0000
0001
0010
0000
0000
0000
,
0100
1000
0000
0100
1000
0000
1100
0000
,
0001
1000
0001
1000
0010
0000
0100
0000
,
0000
1001
0000
1000
0001
0000
0100
0000
,
0110
0000
0000
0110
0000
0000
0110
0000
,
1001
0100
0001
0100
,
1000
0010
0100
0001
2000
0000
3000
0000
,
0000
1000
0010
1000
0001
0000
0001
0010
,
0000
0001
0010
0100
1000
0000
0000
0000
,
1000
0100
0000
0000
0001
0100
0000
0000
,
1000
0010
1000
0010
0100
0001
0010
0000
,
0000
0001
0010
0001
1000
0000
0100
0000
,
0110
0000
0000
0110
0000
0000
0110
0000
,
0012
0000
0000
1000
,
0000
1003
0000
0000
0000
0000
0000
0000
,
2100
0000
0000
3002
,
0000
0100
0000
0103
0000
0000
0000
0000
,
0110
0000
1001
1000
,
0001
0100
0000
0001
0100
0000
0101
0000
,
1100
0000
0000
0000
0011
0000
0001
1000
,
0001
0000
0000
0101
0000
0000
1000
0001
,
0010
0000
0100
0000
1000
0001
1000
0000
,
0010
0100
0010
0100
0001
1000
0001
1000
,
0100
0000
0010
0000
0001
1000
0001
1000
,
0010
1000
0010
0000
0000
0000
0000
0000
,
0101
0000
1000
0000
1100
0000
0001
0100
,
0000
0010
1000
0000
1001
0000
0000
0000
,
1100
0000
0000
0110
0000
0000
0011
0000
,
1000
0001
1000
0001
0100
0010
0100
0010
,
1000
0100
0010
0001
,
0100
0010
0000
0100
0001
0000
0010
0100
,
1000
0000
0001
0000
1000
0100
0010
0000
,
0001
0100
0001
0000
1001
0000
1001
0000
,
0010
0000
1000
0000
0100
0010
0001
0000
,
1000
0001
1000
0010
0100
0001
1000
0000
,
1000
0010
0000
0001
0100
0000
0110
0000
,
1000
0001
1000
0001
0010
0100
0010
0100
,
0010
0000
0001
0000
0100
0001
1000
0000
,
0010
1000
0000
1000
0100
0010
0001
0000
,
0001
0100
0001
0100
0001
1000
0100
0000
,
1000
0010
0100
0000
1010
0000
1010
0000
,
0002
0000
0000
2003
0000
0000
3001
0000
,
1000
0100
0010
0001
0010
0100
1000
0000
,
0020
0000
0000
0230
0000
0000
0310
0000
,
1000
0100
0010
0001
0010
0100
1000
0000
,
2020
0000
0030
0001
,
3001
1000
0000
0010
0000
1000
0001
0100
;

//---------------dance-single - ----------------
#NOTES:
     dance-single:
     :
     Easy:
     10:
     0.438782,0.543121,0.286324,0.208236,0.000000,236.000000,214.000000,22.000000,16.000000,0.000000,0.000000,0.438782,0.543121,0.286324,0.208236,0.000000,236.000000,214.000000,22.000000,16.000000,0.000000,0.000000:
0000
0000
0000
0000
,
0000
0000
0000
0000
,
0000
0000
0000
0000
,
0000
0000
0000
0000
,
0000
0000
0000
0000
,
0000
0000
0000
0000
,
0001
1000
0000
0001
,
1000
0010
0100
0000
,
0001
0010
0001
0010
,
0100
1000
0001
0000
,
0010
0000
0000
0010
0000
0000
0010
0000
,
0002
0000
0100
1003
,
0010
0000
0000
0010
0000
0000
0010
0000
,
1000
0001
0200
0300
,
0001
0000
0000
0001
0000
0000
0001
0000
,
1000
0010
0100
0001
,
0010
0000
0000
0010
0000
0000
0010
0000
,
0000
0001
1000
0001
,
1001
0000
0100
0010
,
0000
1000
0001
0000
,
0000
0011
0000
0000
0000
1100
0000
0000
,
0000
0000
0001
0000
0000
1000
0000
0000
,
1001
0000
0010
1000
,
0000
0001
0100
0000
,
0000
0001
0000
0000
1000
0000
0000
0000
,
0001
0000
0000
0001
0000
0000
0001
0000
,
1001
0000
0100
0001
,
1000
0001
1000
0000
0000
0000
0000
0000
,
0000
0010
0000
0000
1000
0000
0100
0000
,
0000
1100
0000
0000
0101
0000
0000
0000
,
1000
0001
0000
1000
0001
0000
0000
0000
,
0100
0010
0100
0000
0000
0000
0000
0000
,
0000
0001
0000
0000
1000
0000
0100
0000
,
0010
0000
0000
0010
0000
0000
0010
0000
,
1001
0000
0001
0100
,
0010
0000
1000
0000
0001
0100
0001
0000
,
0000
1000
0000
0000
0001
0000
0000
0010
,
0000
0001
0000
0000
0100
0000
0000
0000
,
0110
0000
1001
0000
,
0000
1000
0001
0000
0100
0000
0000
0000
,
0000
0001
0000
0000
1000
0000
0100
0000
,
0010
0000
0000
0010
0000
0000
0010
0000
,
0012
0000
0000
1000
,
0000
1003
0000
0000
0000
0000
0000
0000
,
2100
0000
0000
0001
,
0000
0100
0000
3100
0000
0000
0000
0000
,
1020
0000
0100
0000
,
1000
0000
0000
1000
0000
0000
0130
0000
,
0201
0000
0001
0000
,
0010
0000
0000
0010
0000
0000
0301
0000
,
1000
0010
1000
0001
,
0000
0010
0000
0100
0000
0010
0000
0100
,
1000
0001
0010
0100
,
1000
0010
1000
0000
0000
0000
0000
0000
,
0101
0000
1100
0000
,
0000
0101
0000
0000
1100
0000
0000
0000
,
0001
0000
0000
1000
0000
0000
0100
0000
,
1000
1000
0001
0001
,
0010
0001
0100
1000
,
0020
0000
0000
0230
0000
0000
0301
0000
,
1000
0001
1000
0100
,
0010
0001
1001
0000
,
0100
0010
1000
0001
,
0010
0100
1000
0001
,
2000
0000
0000
3002
0000
0000
0103
0000
,
0010
1000
0010
0100
,
0001
0010
0100
1000
,
0002
0000
0003
0000
0100
0010
0100
0000
,
0000
0000
0001
1000
0001
0000
0011
0000
,
1000
0010
0100
0001
,
0020
0000
0000
0230
0000
0000
1300
0000
,
0001
1000
0001
0100
,
0020
0000
0000
2030
0000
0000
3001
0000
,
0010
0000
0100
0000
1000
0001
1000
0000
,
2010
0000
0000
3001
,
1000
0000
0000
1001
0000
0000
0001
0100
;

//---------------dance-single - ----------------
#NOTES:
     dance-single:
     :
     Beginner:
     6:
     0.280746,0.492933,0.286324,0.000000,0.000000,151.000000,129.000000,22.000000,0.000000,0.000000,0.000000,0.280746,0.492933,0.286324,0.000000,0.000000,151.000000,129.000000,22.000000,0.000000,0.000000,0.000000:
// measure 0
0000
0000
0000
0000
,  // measure 1
0000
0000
0000
0000
,  // measure 2
0000
0000
0000
0000
,  // measure 3
0000
0000
0000
0000
,  // measure 4
0000
0000
0000
0000
,  // measure 5
0000
0000
0000
0000
,  // measure 6
0000
0001
0000
0000
,  // measure 7
1000
0000
1001
0000
,  // measure 8
0000
0010
0000
0000
,  // measure 9
0100
0000
0110
0000
,  // measure 10
0001
0000
0001
0000
,  // measure 11
1000
0000
0001
0000
,  // measure 12
0100
0000
0100
0000
,  // measure 13
0010
0000
1000
0000
,  // measure 14
0010
0000
0010
0000
,  // measure 15
1000
0000
0001
0000
,  // measure 16
1001
0000
0000
0000
,  // measure 17
0100
0000
0010
0000
,  // measure 18
1000
0000
1000
0000
,  // measure 19
1000
0000
0001
0000
,  // measure 20
0000
0010
0000
0100
,  // measure 21
0000
1000
0000
0000
,  // measure 22
0001
0000
0001
0000
,  // measure 23
0001
0000
1000
0000
,  // measure 24
0010
0000
0100
0000
,  // measure 25
0110
0000
0110
0000
,  // measure 26
1001
0000
0001
0000
,  // measure 27
1000
1000
0000
0000
,  // measure 28
0010
0000
0010
0000
,  // measure 29
1000
0000
0100
0000
,  // measure 30
1000
0000
0001
0000
,  // measure 31
0100
0100
0000
0000
,  // measure 32
0010
0000
1000
0000
,  // measure 33
1001
0000
1001
0000
,  // measure 34
0110
0000
0000
0000
,  // measure 35
0001
0001
0001
0000
,  // measure 36
0000
0000
1000
0000
,  // measure 37
0010
0000
0100
0000
,  // measure 38
0110
0000
0110
0000
,  // measure 39
0000
0000
1000
1000
,  // measure 40
0000
0000
0001
0000
,  // measure 41
1001
0000
1001
0000
,  // measure 42
0110
0000
0000
0000
,  // measure 43
1000
0000
0000
0000
,  // measure 44
0001
0000
0000
0000
,  // measure 45
0010
0000
0000
0000
,  // measure 46
0001
0000
0000
0000
,  // measure 47
0100
0000
1000
0000
,  // measure 48
1000
0000
0000
0000
,  // measure 49
0010
0000
0100
0000
,  // measure 50
0001
0000
1000
0000
,  // measure 51
0010
0000
0100
0000
,  // measure 52
0001
0000
0010
0000
,  // measure 53
0100
0100
0000
0000
,  // measure 54
1000
0000
1000
0000
,  // measure 55
0000
0000
1001
0000
,  // measure 56
0001
0000
0001
0000
,  // measure 57
1000
0000
0100
0000
,  // measure 58
0110
0000
0000
0000
,  // measure 59
0010
0000
0001
0000
,  // measure 60
1000
0000
0000
0010
,  // measure 61
0000
0000
0100
0000
,  // measure 62
0001
0000
0010
0000
,  // measure 63
0100
0000
1000
0000
,  // measure 64
0010
0000
0110
0000
,  // measure 65
0001
0000
0100
0000
,  // measure 66
1000
0000
0001
0000
,  // measure 67
1000
0000
1001
0000
,  // measure 68
0100
0000
0010
0000
,  // measure 69
0100
0100
0100
0000
,  // measure 70
1000
0000
1000
0000
,  // measure 71
0001
0001
0001
0000
,  // measure 72
1001
0000
1001
0000
,  // measure 73
0010
0100
0010
0100
,  // measure 74
0110
0000
0000
0000
,  // measure 75
1001
0000
0001
0100
;
