#TITLE:CHARLENE;
#ARTIST:MISSING HEART;
#BANNER:CHARLENE-bn.png;
#BACKGROUND:CHARLENE-bg.png;
#JACKET:CHARLENE-jacket.png;
#MUSIC:CHARLENE.ogg;
#OFFSET:1.125;
#SAMPLESTART:13.47;
#SAMPLELENGTH:20;
#LASTBEATHINT:0.289;
#DISPLAYBPM:148;
#BPMS:0=148,243.75=138,244=148;
#BGCHANGES:;

//---------------dance-single - ----------------
#NOTES:
     dance-single:
     :
     Beginner:
     3:
     :
0000
0000
0000
0000
,
0000
0000
0000
0000
,
0000
0000
0000
0000
,
0000
0000
0000
0000
,
0000
0000
0000
0000
,
0000
0000
0000
0000
,
0000
0000
0000
0000
,
0000
0000
0000
0000
,
0000
0000
0000
0000
,
1000
0000
0001
0000
,
1001
0000
0000
0000
,
0010
0000
1000
0000
,
0001
0000
0000
0000
,
0010
0000
0001
0000
,
0100
0000
0000
0000
,
0010
0000
1000
0000
,
0100
0000
1000
1000
,
1000
0000
0001
0000
,
1001
0000
0000
0010
,
0010
0000
0000
0000
,
1000
0000
0000
0001
,
0001
0000
0000
0100
,
0100
0000
0000
0001
,
0001
0000
0000
0000
,
0100
0000
0000
1000
,
1000
0000
0000
0000
,
0010
0000
0100
0000
,
1001
0000
0000
1000
,
1000
0000
0000
0000
,
0100
0000
0000
0001
,
0001
0000
0000
0010
,
0010
0000
0000
0001
,
0001
0000
0000
0000
,
1000
0000
0000
0010
,
0010
0000
0000
0000
,
0100
0000
0001
0000
,
1001
0000
1000
0000
,
0010
0000
0000
0100
,
0100
0100
0000
0000
,
0000
0001
0001
0000
,
0010
0010
0000
0000
,
0000
0001
0001
0000
,
0100
0000
0010
0000
,
1000
0000
0000
0000
,
0001
0000
0001
0000
,
0001
0000
0001
0000
,
1000
0000
1000
0000
,
1000
0000
1000
0000
,
0010
0000
0010
0000
,
0010
0000
0010
0000
,
0100
0000
0100
0000
,
0100
0000
0000
0010
,
0010
0000
0000
1000
,
1000
0000
0100
0000
,
0010
0000
0000
0001
,
0001
0000
1000
0000
,
0001
0000
0000
0100
,
0100
0000
0010
0000
,
1000
0000
0001
0001
,
0001
0000
0000
0000
,
1000
0000
0010
0000
,
1001
0000
0000
0000
,
1000
0000
0100
0000
,
0001
0000
0000
0000
,
0010
0000
0001
0000
,
0100
0000
0000
0000
,
0001
0000
1000
0000
,
0010
0000
0100
0000
,
0001
0000
1000
0000
,
1001
0000
0000
0000
;

//---------------dance-single - ----------------
#NOTES:
     dance-single:
     :
     Easy:
     7:
     :
0000
0000
0000
0000
,
0000
0000
0000
0000
,
0000
0000
0000
0000
,
0000
0000
0000
0000
,
0000
0000
0000
0000
,
0000
0000
0000
0000
,
0000
0000
0000
0000
,
0000
0000
0000
0000
,
0000
0000
0000
0000
,
2000
0000
0002
3003
,
1001
0010
1000
0100
,
1000
0010
0100
0001
,
0010
0100
0010
0001
,
0100
0010
1000
0001
,
0100
0001
0010
0100
,
1000
0010
1000
0001
,
0010
0001
0100
1000
,
0200
0000
0020
0330
,
1001
0000
0010
0000
0001
0000
1000
0100
,
1000
0000
0010
0000
0100
0000
0001
1000
,
0001
0010
0100
0110
,
1001
0000
0010
0000
1000
0000
0001
0100
,
0001
0000
0010
0000
0100
0000
1000
0010
,
1000
0000
0100
0000
1000
0000
0001
0010
,
0001
0100
0010
0110
,
1001
0010
1000
0100
,
1001
0000
0000
0001
0000
1000
0000
0000
,
1001
0000
0010
0000
0001
0000
0100
1000
,
0100
0000
0010
0000
0001
0000
1000
0001
,
1000
0010
0100
0101
,
1010
0000
0001
0000
1000
0000
0010
0100
,
0010
0000
1000
0000
0100
0000
0001
0010
,
0001
0000
1000
0000
0001
0000
0010
0100
,
0010
0001
0100
1001
,
0110
1000
0010
0100
,
1001
0000
0000
0010
0000
0100
0000
0000
,
1001
0000
0001
0100
,
1000
0010
0000
0100
,
0001
0010
0001
0000
,
0000
1000
1000
0100
,
1000
0001
0000
0000
,
0010
0001
0100
1000
,
0010
0000
1000
0001
,
1000
0000
0001
0001
,
0110
0010
1000
0100
,
1000
0010
0100
0001
,
0010
0001
0100
0010
,
1000
0100
1000
0001
,
0010
0001
0010
0100
,
1000
0010
1000
0001
,
1000
0100
0010
0001
,
0200
0000
0000
0000
0300
0000
0001
1000
,
0001
0010
0001
1000
,
0010
1000
0100
0010
,
0100
1000
0010
0100
,
0001
0010
0001
1000
,
0010
1000
0100
0010
,
0001
0100
0001
1000
,
0010
1000
0100
0010
,
0001
0100
0001
1000
,
1001
0000
0000
0001
0000
1000
0000
0000
,
1001
0000
0000
0010
,
1000
0100
1000
0001
,
0020
0000
0030
0001
,
0010
0001
1000
0010
,
0200
0000
0300
0010
,
1000
0100
1000
0001
,
0020
0030
0001
0100
,
2000
0000
0002
3003
,
1001
0000
0000
0000
;

//---------------dance-single - ----------------
#NOTES:
     dance-single:
     :
     Medium:
     10:
     :
0000
0000
0000
0000
,
0000
0000
0000
0000
,
0000
0000
0000
0000
,
0000
0000
0000
0000
,
0000
0000
0000
0000
,
0000
0000
0000
0000
,
0000
0000
0000
0000
,
0000
0000
0000
0000
,
0000
0000
0000
0000
,
1001
0000
0000
0001
0000
1000
0000
0000
,
1001
0000
0010
0000
1000
0100
0010
0001
,
0000
0100
0010
1000
0000
0100
0010
0001
,
1000
0000
0010
0000
1000
0100
0010
0001
,
0000
0010
0001
1000
0000
0001
0010
0100
,
1000
0000
0010
0000
0100
0010
1000
0001
,
0000
0010
0001
1000
0000
0100
1000
0001
,
0010
0000
0001
0100
0010
0100
0001
0000
,
0022
0033
2200
3300
,
1001
0000
0000
0000
0010
0000
0000
0000
1000
0000
0000
0000
0001
0100
0001
0100
,
0001
0000
0000
0000
0010
0000
0000
0000
0100
0000
0000
0000
1000
0000
0010
0100
,
0010
1000
0001
0101
,
1100
0000
0000
0000
0001
0000
0000
0000
1000
0000
0000
0000
0100
0010
0100
0010
,
0100
0000
0000
0000
1000
0000
0000
0000
0010
0000
0000
0000
1000
0001
1000
0001
,
1000
0000
0000
0000
0010
0000
0000
0000
1000
0000
0000
0000
0100
0000
0010
0001
,
0010
0100
1000
1001
,
0110
0001
0010
0100
,
1001
0000
0000
0100
0000
0010
0000
0000
,
1001
0000
0000
0000
0010
0000
0000
0000
1000
0000
0000
0000
0001
0100
0001
0100
,
0001
0000
0000
0000
0010
0000
0000
0000
1000
0000
0000
0000
0100
0000
1000
0001
,
1000
0010
0100
1010
,
0101
0000
0000
0000
0010
0000
0000
0000
0001
0000
0000
0000
1000
0100
1000
0100
,
1000
0000
0000
0000
0001
0000
0000
0000
0010
0000
0000
0000
0100
1000
0100
1000
,
0100
0000
0000
0000
0010
0000
0000
0000
0100
0000
0000
0000
1000
0000
0001
0010
,
0001
0100
0010
0110
,
1001
0010
0001
0100
,
1001
0000
0000
0010
0000
0100
0000
0000
,
1001
0000
0000
0000
0010
0000
0000
0000
0001
0000
0000
0100
0000
0000
0010
0000
,
1000
0000
0000
0001
0000
0000
0000
0000
0010
0000
0001
0000
0010
0000
0100
0000
,
1000
0010
1000
0001
0000
0010
0000
0100
,
0000
1000
0010
0000
0010
0100
0001
1000
,
0000
1100
0001
0100
,
0010
0000
1000
0000
0100
0000
1000
0000
0000
0000
0001
0000
0000
0100
0000
0000
,
0001
0000
1000
0000
0000
0000
0000
0100
0010
0000
0001
0000
1000
0000
0010
0000
,
0100
0101
1010
0101
,
0110
0000
0000
0001
1000
0000
0000
0100
0000
0000
1000
0000
0010
0000
0100
0000
,
0001
0000
0000
0010
0001
0000
0000
0000
0000
0000
1000
0000
0010
0000
1000
0000
,
0200
0000
0000
0000
0300
0000
0010
0000
0001
0000
1000
0000
0000
0000
0000
0010
,
0100
0000
0000
0001
1000
0000
0000
0000
1100
0000
0000
0000
0011
0000
0000
0000
,
0010
0000
0001
0000
0100
0000
1000
0000
0000
0000
0000
0001
0100
0000
0000
0010
,
1000
0000
0000
0000
0100
0000
1000
0000
0001
0000
0000
0000
0010
0000
0000
0001
,
0000
1000
0000
0000
0010
0000
0000
1000
0100
0000
0000
1000
0001
0000
0000
0100
,
0020
0000
0130
0000
0110
0000
1000
0001
,
0010
0000
0001
0000
1000
0010
1000
0001
,
0000
0100
0010
1000
0000
0100
0010
0001
,
0100
0000
0001
0000
0010
0100
0010
0001
,
0000
1000
0100
1000
0000
0001
0100
0010
,
1000
0000
0100
0000
1000
0010
0100
0001
,
0000
0010
0001
1000
0000
0001
0100
1000
,
0010
0000
1000
0100
1000
0010
0100
0001
,
0010
0001
0100
1000
,
1001
0000
0000
1000
0000
0001
0000
0000
,
1001
0000
0000
0000
0000
1000
0010
1000
,
0000
0100
0010
0001
0000
0100
0001
1000
,
0000
0000
0000
0000
0000
0001
0010
0001
,
0000
1000
0100
0010
0000
0010
0001
0100
,
0000
0000
0000
0000
0000
0001
1000
0001
,
0000
1000
0100
0001
0000
0010
0100
1000
,
0000
0000
0000
0001
1000
0001
1000
0000
,
2020
3030
0202
0303
,
1001
0000
0000
0000
;

//---------------dance-single - ----------------
#NOTES:
     dance-single:
     :
     Hard:
     13:
     :
0000
0000
0000
0000
,
0000
0000
0000
0000
,
0000
0000
0000
0000
,
0000
0000
0000
0000
,
0000
0000
0000
0000
,
0000
0000
0000
0000
,
0000
0000
0000
0000
,
0000
0000
0000
0000
,
0000
0000
0000
0000
,
1001
0000
0000
0101
0000
1100
0000
0000
,
1001
0000
0010
0000
0010
1000
0100
0001
,
0100
0010
0100
1000
0010
0001
0010
1000
,
0100
0000
1000
0000
0001
1000
0010
0100
,
1000
0100
0001
0010
0100
0001
0100
1000
,
0010
0000
0100
0000
0010
1000
0001
0100
,
1000
0100
0010
0100
0001
1000
0100
0001
,
0100
0000
0010
0001
1000
0001
0100
0000
,
2010
3001
0102
1003
,
1001
0000
0000
0000
0010
0000
0001
0000
0100
0000
0010
0000
1000
0100
1000
0100
,
1000
0000
0000
0010
0100
0000
0000
0001
1000
0000
0100
0000
0010
0000
0001
0100
,
0001
0000
0000
1000
0010
0000
0000
0100
0001
0000
1000
0000
1100
0000
0000
0000
,
0101
0000
0000
0000
0010
0000
0001
0000
1000
0000
0000
0000
0010
0100
0010
0100
,
0010
0000
0000
1000
0100
0000
0000
1000
0001
0000
0000
0000
0100
0001
0100
0001
,
0100
0000
0000
0000
0010
0000
1000
0000
0100
0000
0010
0000
0001
0000
1000
0001
,
1000
0000
0000
0010
0100
0000
0000
0001
1000
0000
0100
0000
0110
0000
0000
0000
,
1001
0010
1000
0001
1000
0100
1000
0001
,
0011
0000
0100
0101
0000
1010
0000
1100
,
1100
0000
0000
0000
0001
0000
1000
0000
0010
0000
1000
0000
0100
0010
0100
0010
,
0100
0000
0000
1000
0010
0000
0100
0000
0001
0000
1000
0000
0001
0000
0010
0100
,
0010
0000
0000
0001
1000
0000
0000
0100
1000
0000
0010
0000
1010
0000
0000
0000
,
0101
0000
0000
0000
0001
0000
0010
0000
1000
0000
0000
0000
0100
0010
0100
0010
,
0100
0000
0000
1000
0001
0000
0000
1000
0100
0000
0000
0000
0010
0001
0010
0001
,
0010
0000
0000
0001
1000
0000
0000
0100
0010
0000
0001
0000
0100
0000
0010
1000
,
0010
0000
0000
0100
0010
0000
0000
1000
0001
0000
0100
0000
0101
0000
0000
0000
,
1100
0010
0001
1000
0001
0100
0010
1000
,
1001
0000
0010
1010
0000
0101
0000
0000
,
1001
0000
1000
0100
0001
0100
0010
0100
,
1000
0000
0010
0001
0010
1000
0100
0010
,
0001
0000
1000
0010
1000
0001
0010
0100
,
0001
0100
1000
0100
0001
0100
1000
0100
,
0010
0000
0000
0010
0001
0000
0000
0001
1000
0000
0000
1000
0100
0000
0000
0100
,
1000
0000
0000
1000
0010
0000
0000
0010
0100
0000
0000
0100
0001
0000
0000
0001
,
0100
0000
0000
0100
0010
0000
0000
0010
1000
0000
0000
1000
0001
0000
0000
0001
,
0010
0100
0001
0100
1000
0001
1000
0010
,
0100
0000
0000
0100
0001
0000
0000
0001
0010
0000
0000
0010
1000
0000
0000
1000
,
0010
0000
0000
0010
0100
0000
0000
0100
1000
0000
0000
1000
0001
0000
0000
0001
,
1000
0000
0000
1000
0010
0000
0000
0010
0001
0000
0000
0001
0100
0000
0000
0100
,
0001
0000
0000
0001
1000
0000
0000
1000
0100
0000
0000
0100
0010
0000
0001
1000
,
0001
0000
0000
0010
0001
0000
0000
1000
0100
0000
0000
1000
0010
0000
0000
0100
,
0010
0000
0000
1000
0100
0000
0000
0010
0001
0000
0000
1000
0001
0000
0000
0100
,
0010
0000
0000
1000
0001
0000
0000
1000
0001
0000
0000
1000
0001
0000
0100
0010
,
0200
0000
0000
0000
0301
0000
1000
0010
2000
0000
0000
0000
3001
0000
0001
0000
,
1001
0000
0010
1000
0100
1000
0100
0001
,
0100
0010
0100
0001
0100
1000
0010
0100
,
0001
0000
0010
0000
0001
1000
0100
0001
,
0100
0010
0100
0001
0100
1000
0001
0100
,
0010
0000
1000
0000
0100
0010
0100
0001
,
0100
1000
0010
1000
0001
1000
0100
0010
,
0001
0000
0100
0010
1000
0100
1000
0001
,
0100
0010
1000
0001
0100
0010
1000
0001
,
0011
0000
0100
0110
0000
1001
0100
0000
,
1001
0000
0000
0000
0000
1000
0010
2000
,
0000
3100
0010
0002
0000
1003
0001
0200
,
0000
0000
0310
0100
0001
0100
0010
2000
,
0000
3100
1000
0002
0000
0013
0001
0200
,
0000
0000
0301
0000
1000
0100
1000
0002
,
0000
0013
0001
2000
0000
3100
1000
0010
,
0100
0000
0000
0001
1000
0001
0100
0000
,
0102
1003
2100
3001
,
1001
0000
0000
0000
;
