#TITLE:CENTAUR;
#SUBTITLE:;
#ARTIST:Jimmy Weckl;
#TITLETRANSLIT:;
#SUBTITLETRANSLIT:;
#ARTISTTRANSLIT:;
#GENRE:;
#CREDIT:;
#BANNER:CENTAUR.png;
#BACKGROUND:CENTAUR-bg.png;
#LYRICSPATH:;
#CDTITLE:;
#MUSIC:CENTAUR.ogg;
#OFFSET:0.000000;
#SAMPLESTART:1.721000;
#SAMPLELENGTH:20.000000;
#SELECTABLE:YES;
#DISPLAYBPM:132.000000:140.000000;
#BPMS:0.000000=139.399994
,4.000000=140.000000
,146.000000=132.000000
,147.000000=140.000000
;
#STOPS:
;
#BGCHANGES:;
#KEYSOUNDS:;
#ATTACKS:;

//---------------dance-single - ----------------
#NOTES:
     dance-single:
     :
     Beginner:
     4:
     0.121481,0.140052,0.011491,0.000000,0.000000,74.000000,73.000000,1.000000,0.000000,0.000000,0.000000,0.121481,0.140052,0.011491,0.000000,0.000000,74.000000,73.000000,1.000000,0.000000,0.000000,0.000000:
0000
0000
0000
0000
,
0000
0000
0000
0000
,
0000
0000
0000
0000
,
0000
0000
0000
0000
,
0000
0000
0000
0000
,
0010
0000
0100
0000
,
0010
0000
0100
0000
,
1000
0000
0001
0000
,
1000
0000
0010
0000
,
0000
0100
0000
0000
,
0000
0000
0000
0000
,
0000
0000
0000
0000
0000
0000
0000
0010
,
0000
0000
0000
0001
0000
0000
0000
0010
,
0000
0000
0000
0100
0000
0000
0000
0010
,
0000
0000
0000
1000
0000
0000
0000
0010
,
0000
0000
0000
0100
0000
0000
0000
0100
,
0000
0000
0000
0001
0000
0000
0000
1000
,
0000
0000
0000
0001
0000
0000
0000
0100
,
0000
0000
0000
1000
0000
0000
0000
0001
,
0000
0000
0000
1000
0000
0000
0000
0001
,
0000
0000
0000
1000
0000
0000
0000
0010
,
0000
0000
0000
1000
0000
0000
0000
0100
,
0000
0000
0000
0001
0000
0000
0000
1000
,
0000
0000
0000
1000
0000
0000
0000
0010
,
0000
0000
0000
0100
0000
0000
0000
0001
,
0000
0000
0000
0100
0000
0000
0000
1000
,
0000
0000
0000
0100
0000
0000
0000
1000
,
0000
0000
0000
0001
0000
0000
0000
0100
,
0000
0000
0000
0001
0000
0000
0000
0001
,
0000
0000
0000
0000
0000
0000
0000
0010
,
0000
0000
0000
0010
0000
0000
0000
1000
,
0000
0000
0000
0000
0000
0000
0000
0001
,
0000
0000
0000
0001
0000
0000
0000
0100
,
0000
0000
0000
0000
0000
0000
0000
1000
,
0000
0000
0000
1000
0000
0000
0000
0010
,
0000
0000
0000
0000
0000
0000
0000
0100
,
0000
0000
0000
0001
,
0000
1000
0000
0001
,
0000
1000
0000
0100
,
0000
1000
0000
0100
,
0000
0010
0000
0001
,
0000
0100
0000
0001
,
0000
1000
0000
0010
,
0000
0100
0000
0001
,
0000
0100
0000
0000
,
1000
0000
0000
0000
,
0000
0000
0000
0000
,
0001
0000
0000
0000
,
0000
0000
0000
1001
;

//---------------dance-single - ----------------
#NOTES:
     dance-single:
     :
     Easy:
     6:
     0.246246,0.308115,0.034474,0.103423,0.097678,150.000000,147.000000,3.000000,9.000000,0.000000,0.000000,0.246246,0.308115,0.034474,0.103423,0.097678,150.000000,147.000000,3.000000,9.000000,0.000000,0.000000:
0000
0000
0000
0000
,
0000
0000
0000
0000
,
0000
0000
0000
0000
,
0000
0000
0000
0000
,
0000
0000
0000
0000
,
0010
0001
0100
1000
,
0010
1000
0100
0001
,
1000
0100
0001
0100
,
1000
0000
0000
0000
0001
0000
0000
0010
0000
0000
0000
0010
0000
0000
0000
0100
,
0000
0000
0000
0100
0000
0000
0001
0000
0000
0000
0000
0000
0000
0000
1000
0000
,
0000
1000
0000
0000
0000
0000
0000
0000
0000
0000
0002
0000
0000
2000
0000
0000
,
0000
0000
0000
0000
0000
3003
0000
0010
,
0000
1000
0000
0001
0000
0100
0000
0010
,
0000
0010
0000
0100
0000
0100
0000
0010
,
0000
0001
0000
0100
0000
1000
0000
0010
,
0000
0010
0000
0100
0000
0100
0000
0010
,
0000
1000
0000
0100
0000
0001
0000
1000
,
0000
1000
0000
0001
0000
0001
0000
1000
,
0000
0100
0000
0001
0000
0010
0000
0001
,
0000
0001
0000
1000
0000
1000
0000
0001
,
0000
0010
0000
1000
0000
0100
0000
0010
,
0000
0100
0000
1000
0000
0010
0000
0100
,
0000
0010
0000
0001
0000
0100
0000
1000
,
0000
0001
0000
1000
0000
0001
0000
0010
,
0000
1001
0000
0100
0000
1001
0000
0001
,
0000
0010
0000
0100
0000
1000
0000
1000
,
0000
0010
0000
0100
0000
0001
0000
1000
,
0000
0000
0010
0000
0000
0000
0001
0000
0000
0000
0010
0000
0000
0000
0000
0100
,
0000
0000
0010
0000
0000
0000
0001
0000
0000
1000
0000
0000
0000
0000
0001
0000
,
0000
0002
0000
0000
0000
0000
0000
0000
0000
0000
0000
0000
0000
0000
0010
0000
,
0000
0000
0000
0010
0000
0003
0000
1000
,
0000
2000
0000
0000
0000
0000
0000
0000
0000
0000
0000
0000
0000
0000
0001
0000
,
0000
0000
0000
0001
0000
3000
0000
0100
,
0000
0200
0000
0000
0000
0000
0000
0000
0000
0000
0000
0000
0000
0000
1000
0000
,
0000
0000
0000
1000
0000
0300
0000
0010
,
0000
0020
0000
0000
0000
0000
0000
0000
0000
0000
0000
0000
0000
0000
0100
0000
,
0000
0000
0000
0100
0030
0000
0001
0000
,
0100
1000
0100
0001
,
0010
1000
0010
0100
,
0001
1000
0010
0100
,
0001
0010
1000
0001
,
1000
0100
0010
0001
,
0100
1000
0100
0010
,
1000
0100
1000
0001
,
0010
0000
0000
0000
0100
0000
0000
0000
1000
0000
0000
0000
0000
0001
0000
0000
,
1000
0000
0000
0200
0000
0000
0000
0000
0000
0000
0000
0000
0000
0000
0000
0000
,
0000
0000
0000
0000
0000
0000
0000
0000
0300
0000
0000
0000
0000
1000
0000
0000
,
0001
0000
0000
0200
0000
0000
0000
0000
0000
0000
0000
0020
0000
0000
0000
0000
,
0000
0000
0330
1001
;

//---------------dance-single - ----------------
#NOTES:
     dance-single:
     :
     Medium:
     9:
     0.354594,0.420157,0.103423,0.114915,0.172372,216.000000,207.000000,9.000000,10.000000,0.000000,0.000000,0.354594,0.420157,0.103423,0.114915,0.172372,216.000000,207.000000,9.000000,10.000000,0.000000,0.000000:
0000
0000
0000
0000
,
0000
0000
0000
0000
,
0000
0000
0000
0000
,
0000
0000
0000
0000
,
0000
0000
0000
0000
,
0010
0000
0001
0000
1000
0010
0100
0000
,
0001
0000
0010
0000
1000
0001
0100
0000
,
1000
0000
0100
0000
0010
0100
0001
0000
,
0000
0010
0000
0100
0000
0000
0000
1001
0000
0000
0000
0101
0000
0000
0000
1100
,
0000
0000
0000
0110
0000
0000
2002
0000
0000
0000
0000
0000
0003
0000
0010
0000
,
0000
0200
0000
0000
0000
0000
0000
0000
3300
0000
0012
0000
0000
0200
0000
0000
,
0000
0000
0000
0000
0000
0303
0000
0010
,
1000
0100
0000
1000
0000
0010
0100
0001
,
0000
0010
0000
1000
0001
0100
0000
0010
,
0000
1000
0000
0001
0100
0010
0000
1000
,
0000
0100
0000
0001
0100
1000
0000
0010
,
0001
0100
0000
0001
0000
1000
0001
0100
,
0000
0010
0000
0100
0001
1000
0000
0001
,
0000
0010
0000
1000
0010
0100
0000
0001
,
0000
1000
0000
0100
1000
0001
0000
0100
,
0000
0000
0010
0000
0000
1000
0000
0100
0000
1000
0000
0010
0000
0000
1001
0000
,
0000
0100
0010
0001
0000
0100
0000
0001
,
0000
0000
0100
0000
0000
0000
1000
0000
0010
0000
0100
0000
0000
0001
0000
0000
,
0000
0010
0100
1000
0000
0100
0000
0001
,
0000
0000
0010
0000
0000
0000
1000
0000
0001
0000
0100
0000
0000
0010
0000
0000
,
0000
0001
0010
0100
0000
0010
0000
0001
,
0000
0000
0100
0000
0000
0000
0001
0000
1000
0000
0100
0000
0000
0001
0000
0000
,
0000
0000
0100
0000
0000
0000
1000
0000
0001
0000
0010
0000
0000
0000
0000
0001
,
0000
0000
0100
0000
0000
0000
0011
0000
0000
1100
0000
0000
0000
0000
0100
0000
,
0000
2000
0000
0000
0000
0000
0001
0000
0000
0000
0010
0000
0000
0000
0100
0000
,
0000
0001
0000
0000
0000
0000
0010
0000
0000
0000
3100
0000
0000
0000
0010
0000
,
0000
0200
0000
0000
0000
0000
0001
0000
0000
0000
0010
0000
0000
0000
1000
0000
,
0000
0001
0000
0000
0000
0000
0010
0000
0000
0000
0301
0000
0000
0000
0010
0000
,
0000
0002
0000
0000
0000
0000
1000
0000
0000
0000
0010
0000
0000
0000
0100
0000
,
0000
1000
0000
0000
0000
0000
0100
0000
0000
0000
0013
0000
0000
0000
1000
0000
,
0000
0020
0000
0000
0000
0000
0001
0000
0000
0000
0100
0000
0000
0000
1000
0000
,
0000
0100
0000
0001
0030
0100
0001
1000
,
0100
0000
0010
0000
0001
0000
1000
0001
,
0100
0000
0010
0000
0100
0000
1000
0100
,
0001
0000
0100
0000
0010
0000
1000
0100
,
0010
0000
0000
0000
0001
0010
0000
0000
0100
0000
0000
0000
1000
0000
0001
0000
,
0100
0000
0001
0000
0010
0000
0100
1000
,
0010
0000
1000
0000
0100
0000
0010
0001
,
1000
0000
0001
0000
0100
0000
0010
0100
,
0001
0000
0000
0000
0010
0000
0100
0000
1000
0000
0000
0000
0000
0010
0000
0000
,
1000
0000
0000
0100
0000
0000
0000
0000
0001
0000
0000
0000
0100
0000
0001
0000
,
0010
0000
0000
0000
0000
0000
1000
0000
0000
0000
0001
0000
0000
0010
0000
0000
,
0001
0000
0000
0200
0000
0000
0000
0000
0001
0000
0000
1000
0000
0000
0000
0000
,
0310
0000
0001
1000
0010
1000
0100
0000
;

//---------------dance-single - ----------------
#NOTES:
     dance-single:
     :
     Hard:
     12:
     0.503983,0.560210,0.275795,0.103423,0.344744,307.000000,283.000000,24.000000,9.000000,0.000000,0.000000,0.503983,0.560210,0.275795,0.103423,0.344744,307.000000,283.000000,24.000000,9.000000,0.000000,0.000000:
0000
0000
0000
0000
,
0000
0000
0000
0000
,
0000
0000
0000
0000
,
0000
0000
0000
0000
,
0000
0000
0000
0000
,
0010
0000
0001
0100
0010
0100
0001
1000
,
0000
0000
0100
0000
0010
0000
0000
0010
0001
0000
0000
0001
1000
0000
0000
1000
,
0001
0000
1000
0100
0010
0100
1000
0001
,
0010
0001
0000
0100
0000
0000
0000
1000
0000
0010
0000
0101
0000
0000
0000
0010
,
0000
0001
0000
1000
0100
0000
2002
0000
0000
0000
0000
0000
3003
0000
0001
0010
,
0000
2020
0000
0000
0000
0000
0000
0000
3030
0000
0010
0100
0000
2002
0000
0000
,
0000
0000
0000
0000
0000
3003
0000
1000
,
0100
0000
0001
0000
0100
0000
1000
0000
0000
0001
0010
0000
0100
0000
1000
0000
,
0000
0010
0100
1000
0100
0001
0000
1000
,
0000
0100
1000
0001
0100
1000
0000
0010
,
1000
0100
0000
0010
0001
0100
0000
1000
,
0001
0000
0010
0000
0001
0000
1000
0000
0010
0000
0100
0001
0000
1000
0001
0000
,
0000
0010
0100
0001
0100
1000
0000
0010
,
0000
1000
0001
0010
0001
0100
0000
0001
,
1000
0100
0000
1000
0001
0100
0000
1000
,
0010
0000
0100
0000
0001
0010
0000
0100
0000
1000
0000
0001
0100
0000
0110
0000
,
0000
1000
0010
0100
0010
1000
0000
0001
,
1000
0000
0100
0000
0000
0000
1000
0000
0001
0000
0100
0000
0000
1001
0000
0000
,
0000
0010
0100
1000
0001
0100
0000
0001
,
0010
0000
1000
0000
0000
0000
1000
0000
0010
0000
0001
0000
0000
1010
0000
0000
,
0000
0001
1000
0100
1000
0001
0000
0011
,
0000
0000
0100
0000
1000
0000
0010
0000
1000
0000
0100
0000
0000
0101
0000
0000
,
0000
0000
0010
0000
0001
0000
1000
0000
0001
0000
0100
0000
0000
0000
0001
1000
,
0000
0000
0110
0000
0000
0000
0100
0001
0000
1100
0000
0000
0000
0000
0110
0000
,
0000
2001
0000
0000
0100
0000
0001
0000
0000
0000
0010
0000
0000
0000
0100
0000
,
0000
0001
0000
0000
0010
0000
0001
0000
0001
0000
3001
0000
0000
0000
0011
0000
,
0000
1200
0000
0000
0001
0000
0001
0000
0000
0000
0010
0000
0000
0000
1000
0000
,
0000
0001
0000
0000
0010
0000
1000
0000
1000
0000
1300
0000
0000
0000
1010
0000
,
0000
0102
0000
0000
1000
0000
1000
0000
0000
0000
0010
0000
0000
0000
0100
0000
,
0000
0010
0000
0000
1000
0000
0100
0000
0100
0000
0103
0000
0000
0000
1001
0000
,
0000
0110
0000
0000
0000
0000
0010
0000
1000
0000
0100
0000
0000
0000
1000
0000
,
0010
0000
0000
0100
0000
0001
0000
0100
0000
0010
0000
0000
1000
0000
0000
0100
0000
0000
0001
0000
0000
0100
0000
0000
,
1000
0000
0000
0000
0001
0100
0000
0000
0001
0000
1000
0000
0010
0000
0100
0000
,
0001
0000
0000
0000
0100
1000
0000
0000
0100
0000
0001
0000
1000
0000
0001
0000
,
0010
0000
0000
0000
0100
1000
0000
0000
0001
0000
0010
0000
1000
0000
0010
0000
,
0001
0000
0000
0000
1000
0100
0000
0000
0001
0000
0100
0000
0010
0000
0001
0000
,
0100
0000
0000
0000
0001
0010
0000
0000
0100
0000
1000
0000
0001
0000
1000
0000
,
0100
0000
0000
0000
1000
0010
0000
0000
0100
0000
0001
0000
1000
0000
0010
0000
,
1000
0000
0000
0000
0001
0010
0000
0000
0001
0000
0100
0000
1000
0100
0000
0000
,
0001
0000
0000
0100
0000
0000
0010
0000
1000
0000
0100
0000
0000
0011
0000
0000
,
1001
0000
0000
0101
0000
0000
0010
0000
0100
0010
0000
1000
0001
0000
0010
0000
,
0100
0000
1000
0000
0001
0000
0100
0000
0001
0000
0100
0000
0010
1000
0000
0000
,
1001
0000
0000
1100
0000
0010
0000
0100
0001
0000
0000
1000
0100
0000
0000
1000
,
0010
0000
0000
0001
0100
0001
1000
0100
1000
0001
0000
0000
;

//---------------dance-double - ----------------
#NOTES:
     dance-double:
     :
     Easy:
     6:
     0.265946,0.308115,0.034474,0.091932,0.097678,162.000000,159.000000,3.000000,8.000000,0.000000,0.000000,0.265946,0.308115,0.034474,0.091932,0.097678,162.000000,159.000000,3.000000,8.000000,0.000000,0.000000:
00000000
00000000
00000000
00000000
,
00000000
00000000
00000000
00000000
,
00000000
00000000
00000000
00000000
,
00000000
00000000
00000000
00000000
,
00000000
00000000
00000000
00000000
,
00100000
10000000
01000000
00010000
,
00001000
00010000
00100000
10000000
,
00010000
10000000
01000000
00010000
,
00001000
00000000
00000000
00000000
00000010
00000000
00000000
00000001
00000000
00000000
00000000
00001000
00000000
00000000
00000000
00000001
,
00000000
00000000
00000000
00001000
00000000
00000000
00000200
00000000
00000000
00000000
00000000
00000000
00000000
00000000
00001000
00000000
,
00000000
00002000
00000000
00000000
00000000
00000000
00000000
00000000
00003300
00000000
00000002
00000000
00000000
00000200
00000000
00000000
,
00000000
00000000
00000000
00000000
00000000
00000303
00000000
00001000
,
00000000
00000010
00000000
00000001
00000000
00000100
00000000
00001000
,
00000000
00010000
00000000
01000000
00000000
10000000
00000000
00100000
,
00000000
01000000
00000000
00100000
00000000
01000000
00000000
00010000
,
00000000
00100000
00000000
01000000
00000000
10000000
00000000
00100000
,
00000000
01000000
00000000
00010000
00000000
01000000
00000000
10000000
,
00000000
00100000
00000000
00010000
00000000
00001000
00000000
00000010
,
00000000
00000100
00000000
00000010
00000000
00000100
00000000
00000001
,
00000000
00000100
00000000
00001000
00000000
00000100
00000000
00000001
,
00000000
00000010
00000000
00001000
00000000
00000100
00000000
00010000
,
00000000
00100000
00000000
00010000
00000000
00001000
00000000
00000010
,
00000000
00000001
00000000
00000100
00000000
00001000
00000000
00010000
,
00000000
00100000
00000000
10000000
00000000
01000000
00000000
10010000
,
00000000
00100000
00000000
10010000
00000000
01000000
00000000
00010000
,
00000000
00001000
00000000
00000010
00000000
00001000
00000000
00010000
,
00000000
01000000
00000000
10000000
00000000
00100000
00000000
10000000
,
00000000
00000000
01000000
00000000
00000000
00000000
00010000
00000000
00000000
00000000
01000000
00000000
00000000
00000000
00000000
00100000
,
00000000
00000000
00010000
00000000
00000000
00000000
00001000
00000000
00000000
00010000
00000000
00000000
00000000
00000000
00001000
00000000
,
00000000
00001000
00000000
00000000
00000000
00000000
00000010
00000000
00000000
00000000
00000001
00000000
00000000
00000000
00000100
00000000
,
00000000
00000001
00000000
00000010
00000000
00001000
00000000
00010000
,
00000000
00010000
00000000
00000000
00000000
00000000
01000000
00000000
00000000
00000000
10000000
00000000
00000000
00000000
00010000
00000000
,
00000000
01000000
00000000
00100000
00000000
10000000
00000000
01000000
,
00000000
01000000
00000000
00000000
00000000
00000000
00010000
00000000
00000000
00000000
00001000
00000000
00000000
00000000
00000100
00000000
,
00000000
00000001
00000000
00000010
00000000
00001000
00000000
00000001
,
00000000
00000002
00000000
00000000
00000000
00000000
00000000
00000000
00000000
00000000
00000000
00000000
00000000
00000000
00001000
00000000
,
00000000
00000000
00000000
00001003
00000000
00000000
00000010
00000000
,
00000100
00000001
00001000
00000100
,
00000010
00000100
00001000
00000010
,
00000001
00000100
00001000
00010000
,
00100000
10000000
01000000
00100000
,
01000000
00010000
00100000
00010000
,
01000000
10000000
01000000
00010000
,
00001000
00000010
00000100
00001000
,
00000010
00000000
00000000
00000000
00000100
00000000
00000000
00000000
00000001
00000000
00000000
00000000
00000000
00001000
00000000
00000000
,
00000100
00000000
00000000
00000020
00000000
00000000
00000000
00000000
00000000
00000000
00000000
00000000
00000000
00000000
00000000
00000000
,
00000000
00000000
00000000
00000000
00000000
00000000
00000000
00000000
00000030
00000000
00000000
00000000
00000000
00000001
00000000
00000000
,
00000100
00000000
00000000
00002000
00000000
00000000
00000000
00000000
00000000
00000000
00000000
00020000
00000000
00000000
00000000
00000000
,
00000000
00000000
00033000
00011000
;

//---------------dance-double - ----------------
#NOTES:
     dance-double:
     :
     Medium:
     9:
     0.361161,0.420157,0.103423,0.057457,0.206847,220.000000,211.000000,9.000000,5.000000,0.000000,0.000000,0.361161,0.420157,0.103423,0.057457,0.206847,220.000000,211.000000,9.000000,5.000000,0.000000,0.000000:
00000000
00000000
00000000
00000000
,
00000000
00000000
00000000
00000000
,
00000000
00000000
00000000
00000000
,
00000000
00000000
00000000
00000000
,
00000000
00000000
00000000
00000000
,
00001000
00000000
00000100
00000000
00000001
00000010
00000100
00000000
,
00000001
00000000
00000010
00000000
00001000
00000010
00000100
00000000
,
00000001
00000000
00000100
00000000
00000010
00000100
00000001
00000000
,
00000000
00000010
00000000
00000100
00000000
00000000
00000000
00000101
00000000
00000000
00000000
00001100
00000000
00000000
00000000
00000011
,
00000000
00000000
00000000
00001100
00000000
00000000
00021000
00000000
00000000
00000000
00000000
00000000
00030000
00000000
00100000
00000000
,
00000000
20000000
00000000
00000000
00000000
00000000
00000000
00000000
30000000
00000000
00020000
00000000
00000000
02000000
00000000
00000000
,
00000000
00000000
00000000
00000000
00000000
03030000
00000000
10000000
,
00000000
00000000
00010000
00000000
00000000
00000000
00100000
00000000
00000000
01000000
10000000
00000000
00100000
00000000
01000000
00000000
,
00000000
10000000
00000000
01000000
00010000
00100000
00000000
01000000
,
00000000
10000000
00010000
01000000
00000000
00100000
00000000
10000000
,
00000000
01000000
00000000
00100000
00010000
01000000
00000000
00010000
,
00000000
10000000
01000000
00100000
00000000
00010000
00000000
00001000
,
00000000
00000100
00000000
00000010
00000001
00001000
00000000
00000010
,
00000000
00000100
00000001
00000010
00000000
00000100
00000000
00001000
,
00000010
00000100
00000000
00000001
00000010
00000100
00000000
00000001
,
00000000
00000000
00000100
00000000
00000000
00001000
00000000
00010000
00000000
00100000
00000000
10000000
00000000
00000000
01100000
00000000
,
00000000
10000000
00010000
01000000
00000000
00100000
00000000
10000000
,
00000000
00000000
01000000
00000000
00000000
00000000
00010000
00000000
01000000
00000000
10000000
00000000
00000000
00100000
00000000
00000000
,
00000000
01000000
00000000
00100000
00010000
01000000
00000000
10000000
,
00000000
00000000
00100000
00000000
00000000
00000000
00010000
00000000
00000000
00000000
00001000
00000000
00000000
00000010
00000000
00000000
,
00000000
00000001
00000000
00001000
00000010
00000100
00000000
00000001
,
00000000
00000000
00001000
00000000
00000100
00000000
00001000
00000000
00000000
00000000
00000010
00000000
00000000
00000100
00000000
00000000
,
00000000
00000000
00000001
00000000
00000000
00000000
00000010
00000000
00000100
00000000
00001000
00000000
00000000
00000000
00000000
00000001
,
00000000
00000000
00001000
00000000
00000000
00000000
00000110
00000000
00000000
00001001
00000000
00000000
00000000
00000000
00000010
00000000
,
00000000
00000001
00000000
00000000
00000000
00000100
00001000
00000000
00000000
00000000
00010000
00000000
00000000
00000000
01000000
00000000
,
00000000
10000000
00000000
00000000
00000000
00100000
10000000
00000000
00000000
00000000
00010000
00000000
00000000
00000000
01000000
00000000
,
00000000
00010000
00000000
00000000
00000000
10000000
00100000
00000000
00000000
00000000
01000000
00000000
00000000
00000000
10000000
00000000
,
00000000
01000000
00000000
00000000
00000000
00010000
00100000
00000000
00000000
00000000
01000000
00000000
00000000
00000000
10000000
00000000
,
00000000
01000000
00000000
00000000
00000000
00010000
00001000
00000000
00000000
00000000
00000010
00000000
00000000
00000000
00000001
00000000
,
00000000
00000100
00000000
00000000
00000000
00000010
00001000
00000000
00000000
00000000
00000001
00000000
00000000
00000000
00001000
00000000
,
00000000
00000200
00000000
00000000
00000000
00000000
00000010
00000000
00000000
00000000
00000001
00000000
00000000
00000000
00001000
00000000
,
00000000
00000010
00000000
00000001
00000300
00001000
00000001
00000000
,
00000100
00000000
00000010
00001000
00000100
00000000
00000001
00000100
,
00001000
00000000
00000001
00000000
00000100
00000000
00001000
00010000
,
00100000
00000000
10000000
00000000
01000000
00000000
00100000
00010000
,
01000000
00000000
00100000
00000000
10010000
00000000
01000000
10000000
,
00010000
00000000
00100000
00000000
00010000
00000000
01000000
00010000
,
10000000
00000000
00100000
00000000
00010000
00000000
00001000
00000010
,
00000001
00000000
00001000
00000000
00000100
00000000
00000010
00000100
,
00001000
00000000
00000000
00000000
00000010
00000000
00000100
00000000
00000001
00000000
00000000
00000000
00000000
00001000
00000000
00000000
,
00000001
00000000
00000000
00000010
00000000
00000000
00000000
00000000
00000100
00000000
00000000
00000000
00001000
00000000
00000001
00000000
,
00000100
00000000
00000000
00000000
00000000
00000000
00000010
00000000
00000000
00000000
00000100
00000000
00000000
00000001
00000000
00000000
,
00000100
00000000
00000000
00001000
00000000
00000000
00000000
00000000
00010000
00000000
00000000
00100000
00000000
00000000
00000000
00000000
,
01000000
00000000
00010000
10000000
01000000
00100000
01000000
00000000
;

//---------------dance-double - ----------------
#NOTES:
     dance-double:
     :
     Hard:
     12:
     0.549949,0.560210,0.287287,0.068949,0.465405,335.000000,310.000000,25.000000,6.000000,0.000000,0.000000,0.549949,0.560210,0.287287,0.068949,0.465405,335.000000,310.000000,25.000000,6.000000,0.000000,0.000000:
00000000
00000000
00000000
00000000
,
00000000
00000000
00000000
00000000
,
00000000
00000000
00000000
00000000
,
00000000
00000000
00000000
00000000
,
00000000
00000000
00000000
00000000
,
00000010
00000000
00000001
00000100
00001000
00010000
01000000
10000000
,
00100000
00000000
01000000
00000000
00100000
00000000
00000000
00000000
10000000
01000000
00000000
00000000
00100000
00000000
00000000
00000000
,
00010000
00000000
10000000
00100000
00010000
00001000
00000010
00000001
,
00001000
00000010
00000000
00000101
00000000
00000000
00000000
00000001
00000000
00001000
00000000
00000110
00000000
00000000
00000000
00000001
,
00000000
00000010
00000000
00000100
00001000
00000000
00022000
00000000
00000000
00000000
00000000
00000000
00033000
00000000
00100000
00010000
,
00000000
22000000
00000000
00000000
00000000
00000000
00000000
00000000
33000000
00000000
00100000
01000000
00000000
20020000
00000000
00000000
,
00000000
00000000
00000000
00000000
00000000
30030000
00000000
01000000
,
00010000
00000000
10000000
00000000
01000000
00000000
00100000
00000000
00000000
01000000
10000000
00000000
00100000
00000000
01000000
00000000
,
00010000
00000000
00100000
00010000
00000000
00010000
01000000
00000000
00000000
00000000
10000000
00000000
01000000
00000000
00010000
00000000
,
10000000
00100000
00010000
00001000
00000100
00001000
00000100
00000001
,
00000010
00000100
00000000
00001000
00000001
00000100
00000000
00000001
,
00000010
00000000
00000100
00000000
00001000
00000000
00000100
00000000
00000010
00000000
00000001
00000100
00000000
00000010
00000100
00000000
,
00001000
00000000
00000100
00000001
00000000
00000001
00001000
00000000
00000000
00000000
00000100
00000000
00000010
00000000
00000001
00000000
,
00000100
00001000
00010000
01000000
10000000
00100000
01000000
00010000
,
10000000
01000000
00000000
00100000
00010000
01000000
00000000
00010000
,
10000000
00000000
00100000
00000000
01000000
00010000
00000000
10000000
00000000
01000000
00000000
10000000
00100000
00000000
01010000
00000000
,
00000000
00000000
10000000
00000000
01000000
00000000
00010000
00000000
00001000
00000000
00000010
00000000
00000000
00000000
00000001
00000010
,
00000000
00000000
00000100
00001000
00000000
00000000
00000010
00001000
00000000
00000000
00000001
00000100
00000000
00001001
00000000
00000000
,
00000000
00000000
00000010
00000000
00000000
00000000
00000100
00001000
00000000
00000001
00000000
00000100
00000000
00000000
00000001
00000010
,
00000000
00000000
00000010
00001000
00000000
00000000
00001000
00010000
00000000
00000000
00010000
01000000
00000000
11000000
00000000
00000000
,
00000000
00000000
00100000
00000000
10000000
00000000
00010000
01000000
00000000
00000000
00010000
00000000
00100000
01000000
00000000
00000000
,
10000000
00000000
00100000
00000000
10000000
00000000
01000000
00010000
00000000
00000000
01000000
10000000
00000000
10010000
00000000
00000000
,
00000000
00000000
00100000
00000000
00001000
00000000
00010000
00000000
00001000
00000000
00000100
00000000
00000010
00000000
00001000
00000001
,
00000000
00000000
00000110
00000000
00000000
00000000
00001000
00000010
00000000
00000101
00000000
00000000
00000000
00000000
00001001
00000000
,
00000000
00000110
00000000
00000000
00000000
00000000
00000001
00000000
00000010
00000000
00001000
00000000
00010000
00000000
00100000
00000000
,
10000000
00100000
01000000
00010000
00100000
01000000
00000000
10100000
,
00000000
01010000
00000000
00000000
00000000
00000000
00100000
00000000
10000000
00000000
01000000
00000000
00010000
00000000
00001000
00000000
,
00000010
00001000
00010000
00001000
00000100
00000001
00000000
00000011
,
00000000
00001100
00000000
00000000
00000000
00000000
00000001
00000000
00000100
00000000
00000010
00000000
00001000
00000000
00000100
00000000
,
00010000
00001000
00100000
00010000
01000000
00100000
00000000
10010000
,
00000000
01100000
00000000
00000000
00000000
00000000
10000000
00000000
00100000
00000000
01000000
00000000
00000000
00000000
00010000
00000000
,
10000000
00000000
00000000
01000000
00000000
00100000
00000000
01000000
00000000
10000000
00000000
00000000
00100000
00000000
00000000
01000000
00000000
00000000
00010000
00000000
00000000
10000000
00000000
00000000
,
01000000
00000000
00000000
00000000
00010000
01000000
00000000
01000000
10000000
00000000
00010000
00000000
01000000
00000000
00100000
00000000
,
01000000
00000000
00000000
00000000
00010000
00100000
00000000
00100000
10000000
00000000
00100000
00000000
00010000
00000000
00001000
00000000
,
00000010
00000000
00000000
00000000
00000001
00000100
00000000
00000100
00000001
00000000
00001000
00000000
00000010
00000000
00000100
00000000
,
00000001
00000000
00000000
00000000
00001000
00000100
00000000
00000100
00001000
00000000
00000001
00000000
00000010
00000000
00000100
00000000
,
00000010
00000000
00000000
00000000
00000001
00000100
00000000
00000100
00001000
00000000
00010000
00000000
00100000
00000000
10000000
00000000
,
01000000
00000000
00000000
00000000
10000000
00010000
00000000
00010000
00100000
00000000
01000000
00000000
10000000
00000000
00100000
00000000
,
01000000
00000000
00000000
00000000
00010000
00100000
00000000
00100000
00010000
00000000
01000000
00000000
10000000
01000000
00000000
00000000
,
00010000
00000000
00000000
10000000
00000000
00000000
01000000
00000000
00010000
00000000
00001000
00000000
00000000
00001010
00000000
00000000
,
00001001
00000000
00000000
00000101
00000000
00000000
00000001
00000000
00000010
00000100
00000000
00001000
00000001
00000000
00000100
00000000
,
00000010
00000000
00001000
00000000
00000100
00000000
00000010
00000000
00000100
00000000
00001000
00000000
00000000
00000011
00000000
00000000
,
00000110
00000000
00000000
00001100
00000000
00000010
00000000
00000001
00000100
00000000
00000000
00000010
00001000
00000000
00000000
00000100
,
00000010
00000000
00000000
00000001
00000100
00001000
00010000
00100000
10000000
01000000
00000000
00000000
;

//---------------dance-single - ----------------
#NOTES:
     dance-single:
     :
     Challenge:
     16:
     0.819178,0.804403,0.677997,0.321761,1.246825,499.000000,440.000000,59.000000,28.000000,0.000000,0.000000,0.819178,0.804403,0.677997,0.321761,1.246825,499.000000,440.000000,59.000000,28.000000,0.000000,0.000000:
// measure 0
0000
0000
0000
0000
,  // measure 1
0000
0000
0000
0000
,  // measure 2
0000
0000
0000
0000
,  // measure 3
0000
0000
0000
0000
,  // measure 4
0000
0000
0000
0000
,  // measure 5
0110
0000
0000
0000
0000
1000
0100
0010
0001
1000
0010
0100
0001
0010
0100
1000
,  // measure 6
0000
0010
0000
0000
0100
0001
0000
0011
0000
0000
0000
1100
0000
0000
0000
0101
,  // measure 7
0000
0000
0000
0000
0000
1000
0010
1000
0100
0010
0001
0100
0000
0010
0000
1000
,  // measure 8
0000
1001
0000
1010
0000
0000
0000
1100
0000
0000
0000
0101
0000
0000
0000
1010
,  // measure 9
0000
0000
0000
0011
0000
0000
0110
0000
0010
1000
0100
0010
0001
0000
0011
0000
,  // measure 10
0000
1010
0000
0000
0000
0001
1000
0001
0000
0000
1001
0000
0000
0110
0000
0000
,  // measure 11
0000
0000
0000
0010
1000
0001
1000
0010
0000
0100
0000
0001
0000
1000
0001
0000
,  // measure 12
0010
0000
0001
0100
0000
0100
0010
1000
0000
1000
0001
0000
1000
0100
0010
0000
,  // measure 13
0001
0100
0001
1000
0000
1010
0000
0010
0000
0010
1000
0010
1000
0001
0200
0000
,  // measure 14
0310
1000
0000
0001
1000
0010
0000
2000
0000
0000
3100
0000
0010
0002
0000
0000
,  // measure 15
1000
0000
1003
0010
0100
0001
0010
1000
0000
0000
0001
1000
0010
0100
0001
0000
,  // measure 16
0010
0100
0000
1000
0000
1100
0000
0110
0000
0011
0000
0110
0000
1100
0000
0000
,  // measure 17
0001
1000
0100
0010
0000
0011
0000
0001
0000
1000
0001
0100
0010
0100
0002
0000
,  // measure 18
0013
0001
0000
0100
0010
1000
0000
0200
0000
0000
1300
0000
0001
0020
0000
1000
,  // measure 19
0000
0000
1030
0010
0001
0100
0000
0010
0000
1000
0100
0010
0001
1000
0000
0110
,  // measure 20
0000
0000
0100
0001
0010
0001
0000
1001
0000
1010
0000
1100
0000
0000
1001
0000
,  // measure 21
0000
0001
0020
0000
0230
0000
1300
0010
0100
0000
0001
0000
0010
0100
1000
0000
,  // measure 22
0001
0100
0001
0000
1000
0010
0001
0010
1000
0000
0100
0000
0010
0001
0100
0000
,  // measure 23
0010
1000
0010
0000
1000
0001
1000
0100
0000
1010
0000
0101
0000
1000
0002
0000
,  // measure 24
1003
0001
0200
0000
0310
1000
0002
0000
0013
0100
2000
0000
3010
0200
0000
0000
,  // measure 25
0301
0010
1000
0000
0100
0010
0001
1000
0010
0000
1001
0000
0100
0002
0000
0000
,  // measure 26
0013
0001
1000
0000
0100
0010
0001
0100
0001
0000
1000
0000
0010
0200
0000
0000
,  // measure 27
0301
0010
1000
0000
0100
0010
0001
1000
0010
0000
0100
0000
0001
1000
0000
1010
,  // measure 28
0000
0000
0011
0000
0000
0000
1100
0000
0000
1001
0000
0010
0100
0001
1000
0000
,  // measure 29
0000
0110
0000
0000
0000
0010
1000
0001
0000
1000
0000
0100
0000
0010
0001
0000
,  // measure 30
0000
0001
0000
1000
0010
1000
0000
0001
0100
0010
0000
1000
0001
0000
0011
0000
,  // measure 31
0000
1100
0000
0000
0000
0001
1000
0100
0010
0000
0001
0100
0001
0000
2010
0000
,  // measure 32
0000
3002
0000
0000
0013
0100
2000
0000
0000
0000
3001
1000
0100
0000
0110
0000
,  // measure 33
0000
0011
0000
1000
0001
0100
0010
0001
0010
0100
0010
1000
0001
0100
0001
1000
,  // measure 34
0000
0010
0000
1000
0100
0000
0010
0001
1000
0010
0000
1000
0100
0000
1001
0000
,  // measure 35
0000
1100
0000
0000
0000
0001
1000
0001
0010
0000
0100
0000
1000
0001
1000
0010
,  // measure 36
1000
0000
0000
0000
0000
0000
0100
0000
0000
0000
1000
0000
0000
0000
0001
0000
0000
0000
1000
0000
0000
0010
0000
0000
0100
0000
0000
0001
0000
0000
0010
0000
0000
0100
0000
0000
2000
0000
0000
0000
0000
0000
0001
0000
0000
0000
0000
0000
,  // measure 37
0001
0000
0100
0000
3100
0000
0012
0000
0013
0000
0100
0000
0110
0000
0000
1001
,  // measure 38
0000
0000
0101
0000
1000
0000
0001
0000
1000
0100
0001
0100
0010
0001
1000
0000
,  // measure 39
0020
0000
0230
0000
0301
1000
0200
0000
0320
0000
0032
0000
2003
0000
3010
0100
,  // measure 40
0000
0100
0001
0000
0010
1000
0010
0100
0010
0001
0100
0000
0001
0010
0100
1000
,  // measure 41
0000
0010
0000
1000
0100
0000
0010
0001
1000
0001
0010
0100
1000
0001
0000
0101
,  // measure 42
0000
0101
0000
0100
0010
1000
0100
0000
0010
0000
0001
0000
1000
0100
0001
0000
,  // measure 43
0011
0000
1100
0000
1000
0100
1000
0000
0001
0010
0100
0000
1100
0000
0000
1001
,  // measure 44
0000
0000
0100
0010
1000
0001
0100
0000
0001
0010
0100
1000
0000
0101
0000
0000
,  // measure 45
0011
0000
0000
0110
0000
1000
0010
0000
1000
0100
0010
0001
0100
0010
0100
0001
,  // measure 46
0010
0100
1000
0000
0001
0010
0001
0000
1000
0100
0010
0000
0001
1000
0000
0000
,  // measure 47
1010
0000
0000
1100
0000
0001
0010
0001
1000
0010
0000
0110
0000
0001
0000
1000
,  // measure 48
0100
0000
0000
0000
0000
0000
0010
0000
0000
0001
0000
0000
1000
0000
0000
0000
0100
0000
0000
0000
0001
0000
0000
0000
1000
0000
0000
0000
0010
0000
0000
0000
0001
0000
0000
0000
2200
0000
0000
0000
0000
0000
0000
0000
0000
0000
0000
0000
,  // measure 49
0000
0000
0000
0000
,  // measure 50
3300
0000
0000
0000
;
