#TITLE:CELEBRATE NITE (Like It's '99 Mix);
#ARTIST:N.M.R. remixed by DM Ashura;
#BANNER:CELEBRATE NITE (Like It's '99 Mix).png;
#BACKGROUND:CELEBRATE NITE (Like It's '99 Mix)-bg.png;
#JACKET:CELEBRATE NITE (Like It's '99 Mix)-jacket.png;
#MUSIC:CELEBRATE NITE (Like It's '99 Mix).ogg;
#SAMPLESTART:39.484;
#SAMPLELENGTH:20;
#DISPLAYBPM:152;
#BPMS:0=151.995;
#BGCHANGES:;

//---------------dance-single - ----------------
#NOTES:
     dance-single:
     :
     Beginner:
     3:
     :
0000
0000
0000
0000
,
0000
0000
0000
0000
,
0000
0000
0000
0000
,
0000
0000
0000
0000
,
0000
0000
0000
0000
,
0000
1000
0000
1000
,
0000
1000
0000
1000
,
0000
0001
0000
0001
,
0000
0001
0000
0001
,
0001
0000
1000
0000
,
0001
0000
1000
0000
,
0010
0000
0100
0000
,
0010
0000
0100
0000
,
0000
0001
0000
0010
,
0000
0100
0000
0010
,
0000
0001
0000
0100
,
0000
0010
0000
0100
,
0000
0001
0000
0001
,
0000
0001
0000
0001
,
0000
0010
0000
0100
,
0000
0010
0000
0100
,
0000
1000
0000
1000
,
0000
1000
0000
1000
,
0000
0010
0000
0100
,
0000
0010
0000
0100
,
0100
0000
0100
0000
,
0001
0000
1000
0000
,
0100
0000
0100
0000
,
1000
0000
0001
0000
,
0100
0000
0010
0000
,
0100
0000
0001
0000
,
1000
0000
0100
0000
,
0010
0000
0100
0000
,
1000
0000
0000
0000
,
0001
0000
0000
0000
,
1000
0000
0000
0000
,
0001
0000
0000
0000
,
0000
0100
0000
0100
,
0000
0010
0000
0010
,
0000
0100
0000
0100
,
0000
0010
0000
0010
,
0010
0000
0000
0000
,
0000
0000
0000
0000
,
1000
0000
0000
0000
,
0000
0000
0000
0000
,
0001
0000
0000
0000
,
1000
0000
0000
0000
,
0001
0000
0000
0000
,
1000
0000
0001
0000
,
1000
0000
0000
0000
,
0010
0000
0000
0000
,
0100
0000
0000
0000
,
0001
0000
0000
0000
,
1000
0000
0001
0000
,
1000
0000
0001
0000
,
1000
0000
0001
0000
,
0010
0000
0100
0000
,
0010
0000
0000
0000
,
0001
0000
0000
0000
,
1000
0000
0000
0000
,
0010
0000
0000
0000
,
0000
0100
0000
0100
,
0000
0010
0000
0010
,
0000
0100
0000
0100
,
0000
0010
0000
0010
,
0000
1000
0000
0001
,
1001
0000
0000
0000
;

//---------------dance-single - ----------------
#NOTES:
     dance-single:
     :
     Easy:
     5:
     :
0000
0000
0000
0000
,
0000
0000
0000
0000
,
0000
0000
0000
0000
,
0000
0000
0000
0000
,
0000
0000
0000
0000
,
0000
1000
0000
0001
,
0000
1000
0001
0100
,
0000
0010
0000
0100
,
0000
0010
1000
1001
,
0000
0001
0000
0010
,
0000
0100
0010
0100
,
1000
0000
1000
0000
,
0010
0010
0100
0100
,
0010
0000
1000
0000
,
0001
0001
0100
0100
,
0010
0000
1000
0000
,
0100
0100
0010
0010
,
0110
0000
0001
0000
,
1000
0000
0001
1000
,
0001
0000
1000
0000
,
0001
0000
0100
0100
,
0010
0100
0000
0001
,
0000
1000
0000
0001
,
1000
0001
0000
1000
,
0000
0001
1000
1001
,
0000
0001
0000
0001
,
0000
0010
0010
0100
,
1000
0000
1000
0000
,
0010
0010
0100
0001
,
0010
0000
0100
0000
,
0010
0100
1000
0000
,
0001
0000
1000
0000
,
0010
0100
0001
1000
,
0001
0000
0001
0000
,
1000
1000
0001
0001
,
0000
0100
0000
0010
,
0000
0100
0100
0010
,
0010
0000
1000
0000
,
0100
1000
0100
1000
,
0010
0000
0100
0000
,
0001
0100
0001
0100
,
0020
0000
0030
1000
,
0000
0000
0001
1000
,
0200
0000
0300
0010
,
0000
0000
0001
1000
,
0020
0000
0030
0100
,
0000
0000
1000
0100
,
0002
0000
0003
0010
,
0000
0100
0000
1000
,
0002
0000
0000
0003
,
0200
0000
0000
0300
,
0020
0000
0000
0030
,
2000
0000
0000
3000
,
0100
1000
0100
0000
,
0010
0001
0010
0000
,
0001
0000
1000
0000
,
0001
1000
0001
1000
,
0002
0003
0200
0300
,
0010
0010
1000
1000
,
0002
0003
2000
3000
,
0100
0100
0010
0010
,
0001
1000
0000
1000
,
0000
0010
0000
0010
,
0200
0300
0002
0003
,
1000
0001
1000
0000
,
1001
0000
0000
0000
,
0110
0000
0000
0000
;

//---------------dance-single - ----------------
#NOTES:
     dance-single:
     :
     Medium:
     8:
     :
0000
0000
0000
0000
,
0000
0000
0000
0000
,
0000
0000
0000
0000
,
0000
0000
0000
0000
,
0000
0000
0000
0000
,
2000
0100
0100
3100
,
0002
0010
0010
0013
,
0001
0001
0100
0100
,
1000
0001
0010
1001
,
0100
0001
1000
0000
0010
0000
0001
0000
,
0100
1000
0001
0000
0010
0000
1000
0000
,
0100
0011
1000
0101
,
0010
1010
0001
1100
,
0010
0001
1000
0000
0100
0000
0001
0000
,
0010
1000
0001
0000
0100
0000
1000
0000
,
0010
0101
1000
0011
,
0100
1100
0001
1010
,
0000
0100
0000
0100
0000
0001
0000
0001
,
0010
0010
0100
0100
,
1000
0001
0000
0001
0000
0100
0000
0100
,
0010
0000
0010
0000
1000
0001
1000
0100
,
1000
1100
0001
0101
,
1000
0000
1010
0000
0001
0000
0010
0100
,
0100
1100
0001
0101
,
1000
0010
0001
0010
1000
0000
1001
0000
,
0100
1000
0010
0000
0100
0001
0010
0000
,
0100
0100
0010
0010
,
0001
0100
1000
0000
0001
0010
1000
0000
,
0001
0001
1000
1000
,
0010
0101
1000
0101
,
0010
1100
0001
1100
,
0010
1000
0001
0100
,
0010
1000
0001
0100
0010
0000
1001
0000
,
0200
0010
0300
0101
,
0020
1000
0030
1001
,
0200
1000
0300
1100
,
0001
0010
0100
0000
1000
0100
0010
0000
,
1002
0100
0003
0011
,
2001
0100
3000
1010
,
0102
1000
0003
0011
,
0100
1000
0010
0000
0100
0001
0010
0000
,
2002
0000
0000
0000
,
3003
0000
0000
0000
0000
0001
0010
0100
,
2000
0000
0000
3000
,
0002
0203
2300
3200
,
0310
0100
0010
0100
,
0001
0010
1000
0100
,
0001
1000
0001
1000
,
0010
0000
0001
0000
0100
0000
1000
0001
,
2002
0000
0000
0000
,
0000
0000
0000
0000
3003
0000
0000
0100
,
0220
0000
0000
0000
,
0000
0000
0000
0000
0330
0000
0000
0001
,
2001
0010
0001
3010
,
0002
0100
1000
0103
,
0010
0001
0100
0000
1000
0100
0001
0000
,
0010
1000
0100
0000
0001
0100
1000
0001
,
0010
0001
0100
0000
0010
1000
0100
0000
,
0010
0010
0100
0100
,
1000
0010
0001
0000
1000
0100
0001
0000
,
1000
1000
0001
0001
,
0100
1010
0001
1010
,
0100
0011
1000
0011
,
0100
0001
1000
0010
,
0100
0001
1000
0010
0100
0000
1001
0000
,
0100
0001
1000
0100
1000
0001
0100
0010
,
0110
0000
0000
0000
;

//---------------dance-single - ----------------
#NOTES:
     dance-single:
     :
     Hard:
     13:
     :
0000
0000
0000
0000
,
0000
0000
0000
0000
,
0000
0000
0000
0000
,
0000
0000
0000
0000
,
0000
0000
0000
0000
,
1000
0100
0001
0100
0001
0100
1000
0010
,
0001
0100
1000
0100
1000
0100
0001
0010
,
1000
0100
0010
0100
1000
0001
0100
0010
,
0100
0000
0000
0000
1001
0000
0000
0000
0100
0010
0100
0010
0100
0000
0000
0000
,
1001
0100
0010
0000
1000
0010
0100
0000
,
0001
0010
1000
0010
1000
0010
0001
0000
,
1000
0100
0010
0000
0001
0010
0100
0000
,
1000
0010
0001
0010
0001
0010
1000
0001
,
1000
0100
0010
0000
0001
0100
0010
0000
,
1000
0100
0001
0100
0001
0100
1000
0000
,
0001
0010
0100
0000
1000
0010
0100
0000
,
0001
0100
1000
0100
1000
0100
1001
0000
,
0100
0000
0100
0000
1000
0010
0001
0000
,
0100
0000
0100
0000
1000
0100
0001
0000
,
0010
0001
0100
0000
0010
0001
0100
0000
,
1000
0001
1000
0100
0010
1000
0001
0100
,
0010
0000
0010
0000
1000
0100
0001
0000
,
0010
0000
0010
0000
1000
0010
0001
0000
,
0100
0001
0010
0000
0100
0001
0010
0000
,
0100
0000
0001
0000
0100
0000
1000
0000
0010
0100
0010
0100
0010
0000
0000
0000
,
1000
0000
0010
0000
0100
0001
0000
0100
0010
0000
0100
0001
0000
0000
0100
0000
,
0010
0000
1000
0000
0100
0010
0000
0100
1000
0000
0100
0000
0010
0000
0001
0000
,
1000
0000
0100
0000
0001
0100
0000
1000
0100
0000
0001
0100
0000
1000
0010
0000
,
0000
0000
0001
0000
0010
1000
0000
0010
0001
0000
0010
1000
0000
0010
0001
0000
,
0200
0000
0302
0000
0023
0000
1030
0010
,
0001
0010
0100
0001
0010
0100
1000
0001
,
1000
0010
0001
0000
1000
0100
0001
0000
,
0010
0000
0001
0000
0100
0000
0010
0000
1000
0000
0000
0001
0100
0000
0010
0000
,
1000
0000
0100
0000
0010
0000
0001
1000
0000
0100
0000
0001
1000
0000
0100
0000
,
0000
0000
0010
0000
0100
0000
0001
1000
0000
0010
0000
0001
1000
0000
0010
0000
,
0000
0000
0100
0000
0010
0000
1000
0001
0000
0100
0000
1000
0001
0000
0100
0000
,
0000
0000
0010
0000
0100
0000
0001
1000
0000
0100
0010
0000
0001
0000
0010
0000
,
1000
0000
0001
0000
0100
0000
0010
1000
0000
0001
0000
0010
1000
0000
0100
0000
,
0000
0000
1000
0000
0100
0000
0010
0001
0000
1000
0000
0010
0001
0000
0100
0000
,
0000
0000
0001
0000
0010
0000
0100
1000
0000
0001
0000
0100
1000
0000
0010
0000
,
0000
0000
1000
0000
0010
0000
0100
0001
0000
1000
0010
0000
0001
0000
0010
0000
,
2000
0001
0000
0100
,
0000
0000
0001
0000
0000
3010
0100
1000
,
0002
0100
0000
1003
,
0020
0032
0203
2300
,
3001
1000
0100
0010
0100
1000
0010
0001
,
0100
0001
1000
0010
0100
0001
0010
1000
,
0100
1000
0001
0010
0100
1000
0010
0001
,
0100
0000
0001
0000
1000
0000
0100
0000
1000
0000
0001
0000
0100
0010
0100
0010
,
2000
0100
0001
0100
,
0000
0000
0100
0000
0001
0000
3100
0001
,
1002
0010
1000
0010
,
0000
0000
0010
0000
1000
0000
0013
1000
,
0100
0001
0010
0001
0010
0001
0100
1000
,
0010
0001
0100
0001
0100
0001
0010
1000
,
0001
0100
1000
0100
0010
1000
0001
0010
,
0100
1000
0010
0001
0100
1000
0010
0001
,
0100
0000
0010
0000
1000
0000
0001
0100
0000
0010
0000
1000
0001
0000
0100
0000
,
0010
0001
0100
2000
0000
3002
0000
0013
,
0100
0000
1000
0000
0001
0000
0010
0100
0000
1000
0000
0001
0010
0000
0100
0000
,
0001
1000
0100
0010
2000
0000
3002
0000
,
0103
0000
0010
0000
0100
0000
0001
0010
0000
0100
0000
1000
0010
0000
0100
0000
,
1000
0000
0001
0000
0010
0000
1000
0001
0000
0100
0000
0010
1000
0000
0100
0000
,
0010
0000
1000
0000
0001
0000
0100
0010
0000
0001
0000
1000
0100
0000
0010
0000
,
0001
0000
0100
0000
0010
0000
1000
0001
0000
0100
0000
0010
1000
0000
0001
0000
,
0100
0000
0010
0000
1000
0000
0001
0010
0000
0100
0000
1000
0001
0000
1000
0000
,
2002
0000
0000
0000
,
3003
0000
0000
0000
;

//---------------dance-single - ----------------
#NOTES:
     dance-single:
     :
     Challenge:
     17:
     :
0000
0000
0000
0000
,
0000
0000
0000
0000
,
0000
0000
0000
0000
,
0000
0000
0000
0000
,
0000
0000
0000
0000
,
0010
0001
0000
0001
0100
0000
0010
1000
0000
1000
0100
0000
1000
0001
0100
0000
,
0010
1000
0000
1000
0001
0000
0010
0001
0000
0001
0100
0000
0010
1000
0100
0000
,
1000
0001
0000
0001
0010
0100
1000
0001
0000
0100
0010
0000
1000
0100
1000
0010
,
0100
0001
0010
0001
0100
0000
0010
1000
0001
0100
1000
0100
0001
0000
0000
0000
,
1001
0000
0010
0000
1000
0000
0100
0010
0000
0001
0000
1000
0001
0100
0010
0000
,
1000
0000
0100
0000
0010
0000
0001
0100
0000
0001
0000
1000
0010
0000
0100
0000
,
0001
0000
0010
0000
0100
0000
0010
0001
0000
1000
0000
0010
1000
0100
1000
0000
,
0010
1000
0001
0000
0100
0000
0001
0010
0000
0001
0100
0010
1000
0100
1000
0000
,
0110
0000
0001
0000
1000
0000
0010
0100
0000
0010
0000
1000
0100
0010
0001
0000
,
0100
0000
0001
0000
0010
0000
0001
1000
0000
0100
0000
0010
0001
0000
1000
0000
,
0010
0000
0100
0000
0010
0000
1000
0100
0000
0010
0000
0001
1000
0001
0100
0000
,
0010
0000
0100
0000
0001
0000
0010
0100
0000
1000
0002
0000
2003
0000
3200
0000
,
1300
0000
0001
0010
0000
0001
0100
0000
0010
1000
0001
1000
0100
0000
0010
0000
,
0001
0100
0010
1000
0100
0010
0000
0001
0100
0010
0100
0001
1000
0100
0000
0000
,
1000
0010
0100
0000
0001
0010
0001
1000
0000
0100
0010
0100
1000
0001
1000
0010
,
0100
0000
0001
1000
0100
0000
0010
0001
0010
0000
0100
1000
0100
0010
0001
1000
,
0010
0000
0100
0001
0010
0000
0100
1000
0010
0000
1000
0001
1000
0000
0010
0100
,
0001
0000
0010
0001
1000
0000
0100
0010
0100
0000
1000
0010
0001
0010
1000
0000
,
0100
1000
0001
1000
0001
0010
0100
0010
0000
0001
0100
0000
0001
1000
0010
0100
,
0010
0000
0110
0000
1001
0000
0110
0000
1000
0100
0001
0100
1000
0000
0000
0000
,
1001
0000
0010
0000
0100
0000
0001
0000
0010
0100
1000
0001
0000
1000
0020
0000
,
0230
0000
0302
0000
0023
0000
0230
0000
1300
0010
2000
0000
3001
0100
0010
1000
,
0010
0000
0100
0000
0001
0000
0010
0000
0001
1000
0100
1000
0000
0010
0200
0000
,
0302
0000
0023
0000
0230
0000
0320
0000
1030
0010
0001
0010
1000
0010
0100
0000
,
2000
0000
3100
1000
0002
0000
0013
0001
0100
0010
0100
0001
1000
0000
0010
1000
,
0001
0000
0100
0001
0000
1000
0100
0000
0000
0000
0010
0001
1000
0010
0100
0010
,
1000
0000
0001
0000
0010
0001
0100
0000
0001
1000
0010
0000
0100
0000
1000
0000
,
0100
0000
0001
0000
0010
0000
0100
0000
1000
0010
1000
0010
1000
0001
0100
0001
,
0010
0000
0100
0000
0010
0000
0001
1000
0000
0100
0000
0010
0100
1000
0001
0000
,
0100
0000
0010
0000
1000
0000
0001
0010
0000
0001
0000
1000
0100
1000
0001
0000
,
0010
0000
0001
0000
1000
0000
0001
0100
0000
0010
0000
1000
0001
0100
0010
0000
,
1000
0100
0010
0100
1000
0000
0001
0100
0000
0001
0010
0001
0010
0100
1000
0000
,
0010
0000
0100
0000
0010
0000
1000
0001
0000
0010
0001
0100
0001
1000
0010
0000
,
0100
0000
0010
0000
0100
0000
0001
0010
0000
0001
1000
0100
1000
0000
0010
0000
,
0100
0000
1000
0000
0100
0000
0001
0010
0000
0001
1000
0010
1000
0100
0001
0000
,
0010
0001
0010
0100
1000
0010
1000
0001
0000
0100
0010
0100
0001
1000
0001
0010
,
0200
0000
0000
0000
1300
0000
0010
0100
0000
0010
0100
0000
0001
2000
0000
0000
,
3000
0000
0010
1000
0001
1000
0100
0010
0000
0000
0002
0000
0203
0000
0320
0000
,
2030
0000
0000
0000
3100
0000
1000
0001
0000
0010
0000
0001
0100
0020
0000
0000
,
2030
3200
0320
0032
,
0103
0000
0010
0000
1000
0000
0001
0100
0000
0001
0000
0010
0001
1000
0100
0000
,
0010
0000
0001
0100
0010
1000
0100
0010
0001
0000
1000
0010
1000
0100
0010
0001
,
1000
0000
0010
0100
0001
0000
1000
0010
0000
1000
0000
0001
0100
0010
0100
0001
,
1000
0000
1000
0000
0001
0000
0001
0000
1000
0000
0001
0000
0100
0010
0100
0010
,
0100
0000
0001
0000
0010
0000
0100
0000
1000
0010
0000
1000
0000
0001
0200
0000
,
0320
0000
2030
0000
3002
0000
2003
0000
3000
0000
0200
0010
0300
0010
0001
0000
,
1000
0000
0001
0000
0100
0000
0010
0000
0001
0010
0000
1000
0000
0100
0020
0000
,
2030
0000
3020
0000
0230
0000
2300
0000
3001
0100
0000
0001
0010
0001
1000
0100
,
0010
0000
0001
0000
0100
0010
0100
0000
0001
0000
1000
0100
1000
0000
0001
0100
,
0010
0000
0001
1000
0000
1000
0100
0000
0010
0001
0100
0001
1000
0010
1000
0100
,
0010
0010
0100
0100
1000
1000
0001
0001
,
0100
0001
0100
0001
0010
0100
0010
0100
1000
0010
1000
0010
1000
0001
1000
0001
,
0100
0000
0010
0000
1000
0100
0001
0000
0010
0001
0010
0100
1000
0001
0200
0000
,
0320
0000
2030
0000
3002
0000
2003
0000
3100
0000
0020
0001
0030
0001
1000
0100
,
0010
0000
0001
0000
1000
0000
0001
0100
0010
1000
0001
0000
1000
0100
0020
0000
,
0230
0000
2300
0000
3002
0000
0203
0000
0301
0010
1000
0010
0002
0000
0103
0010
,
1000
0100
1000
0000
0001
0010
0001
0000
0100
0010
1000
0010
0100
0000
0001
1000
,
0100
0000
1000
0010
0000
0010
0200
0000
0000
0000
0301
0010
0001
1000
0100
0000
,
0010
0000
1000
0000
0010
0000
0100
0000
1000
0010
1000
0000
0001
0000
0100
0000
,
0010
0000
1000
0000
0100
0000
0010
0001
0000
1000
0010
1000
0000
0001
0100
0001
,
0010
0000
0100
0000
1000
0000
0010
1000
0000
0001
0010
0001
0100
0010
1000
0001
,
0200
0000
0000
0000
,
0300
0000
0000
0000
;

//---------------dance-double - ----------------
#NOTES:
     dance-double:
     :
     Easy:
     5:
     :
00000000
00000000
00000000
00000000
,
00000000
00000000
00000000
00000000
,
00000000
00000000
00000000
00000000
,
00000000
00000000
00000000
00000000
,
00000000
00000000
00000000
00000000
,
00000000
00001000
00000000
00010000
,
00000000
00001000
00000100
00000001
,
00000000
00001000
00000000
00000001
,
00000000
00000010
00000100
00000110
,
00000000
00001000
00000000
00001000
,
00000000
00010000
00001000
00100000
,
00010000
00000000
00010000
00000000
,
01000000
00100000
10000000
00100000
,
10000000
00000000
10000000
00000000
,
01000000
00010000
00001000
00010000
,
00000000
00001000
00000000
00001000
,
00000000
00000100
00000010
00000100
,
00000110
00000000
00000001
00000000
,
00001000
00000000
00000100
00000010
,
00000100
00000000
00001000
00000000
,
00000010
00000000
00000100
00001000
,
00010000
00001000
00000000
00010000
,
00000000
00001000
00000000
00100000
,
00010000
00100000
00000000
01000000
,
00000000
10000000
00010000
10010000
,
00000000
00100000
00000000
00100000
,
00000000
01000000
01000000
00010000
,
10000000
00000000
10000000
00000000
,
01000000
01000000
00100000
00001000
,
00010000
00000000
00001000
00000000
,
00010000
00000100
00001000
00000000
,
00000001
00000000
00001000
00000000
,
00000100
00000001
00000010
00000100
,
00000010
00000000
00000100
00000000
,
00010000
00010000
00001000
00001000
,
00000000
00010000
00000000
01000000
,
00000000
10000000
10000000
00010000
,
00010000
00000000
01000000
00000000
,
00100000
10000000
00100000
10000000
,
00010000
00000000
00100000
00000000
,
00001000
00010000
00001000
00010000
,
00000200
00000000
00000300
00001000
,
00000000
00000000
00000010
00000100
,
00000002
00000000
00000003
00000000
,
00000010
00000100
00001000
00000010
,
00000100
00000000
00000010
00000000
,
00000100
00000000
00001000
00010000
,
00001000
00000000
00010000
00000000
,
00001000
00010000
00100000
01000000
,
00200000
00000000
00000000
00300000
,
20000000
00000000
00000000
30000000
,
02000000
00000000
00000000
03000000
,
00020000
00000000
00000000
00030000
,
01000000
00100000
01000000
00000000
,
00100000
00010000
00100000
00000000
,
00001000
00000000
00010000
00000000
,
00000100
00001000
00000010
00000100
,
00000002
00000003
00000200
00000300
,
00000001
00000001
00001000
00001000
,
00000200
00000300
00002000
00003000
,
00000100
00000100
00010000
00010000
,
00001000
00010000
00000000
01000000
,
00000000
10000000
00000000
01000000
,
00200000
00300000
00020000
00030000
,
10000000
00010000
10000000
00000000
,
01100000
00000000
00000000
00000000
,
00011000
00000000
00000000
00000000
;

//---------------dance-double - ----------------
#NOTES:
     dance-double:
     :
     Medium:
     8:
     :
00000000
00000000
00000000
00000000
,
00000000
00000000
00000000
00000000
,
00000000
00000000
00000000
00000000
,
00000000
00000000
00000000
00000000
,
00000000
00000000
00000000
00000000
,
02000000
13000000
02000000
13000000
,
00020000
01030000
00020000
01030000
,
00001000
00001000
00010000
00010000
,
00000100
00001000
00000010
00001001
,
00000100
00000001
00000100
00000000
00000010
00000000
00001000
00000000
,
00000100
00001000
00000100
00000000
00010000
00000000
00001000
00000000
,
00010000
00101000
00001000
00010100
,
00010000
01001000
00001000
00010010
,
00001000
00010000
00001000
00000000
00100000
00000000
00010000
00000000
,
10000000
01000000
10000000
00000000
00100000
00000000
01000000
00000000
,
00010000
00110000
00001000
00011000
,
00000100
00001100
00000001
00000101
,
00000000
00001000
00000000
00001000
00000000
00000001
00000000
00000001
,
00001000
00001000
00000100
00000100
,
00010000
00001000
00000000
00001000
00000000
01000000
00000000
01000000
,
00010000
00000000
00010000
00000000
00100000
10000000
00100000
00010000
,
01000000
10010000
01000000
01100000
,
10000000
00000000
11000000
00000000
00100000
00000000
01000000
00010000
,
00010000
00011000
00000100
00001100
,
00001000
00000010
00000100
00000010
00001000
00000000
00000101
00000000
,
00001000
00000100
00001000
00000000
00000001
00000100
00000001
00000000
,
00000010
00000010
00000100
00000100
,
00010000
00001000
00100000
00000000
00010000
01000000
00100000
00000000
,
10000000
10000000
00010000
00010000
,
00100000
00101000
00001000
00011000
,
00010000
00010010
00000010
00001010
,
00000001
00000100
00000010
00001000
,
00000001
00000100
00000010
00001000
00000100
00000000
00011000
00000000
,
00002000
01000000
00003000
01001000
,
00020000
00100000
00030000
00110000
,
02000000
10000000
03000000
11000000
,
00010000
01000000
00001000
00000000
00010000
00000100
00001000
00000000
,
00001002
00000100
00000003
00000011
,
00002001
00000100
00003000
00011000
,
00102000
00010000
00003000
00110000
,
00010000
01000000
00100000
00000000
10000000
01000000
00100000
00000000
,
20020000
00000000
00000000
00000000
,
30030000
00000000
00000000
00000000
00000000
00001000
00000100
00000010
,
00000002
00000000
00000000
00000003
,
00000200
00002300
00003200
00000302
,
00001003
00000100
00010000
00001000
,
01000000
00010000
10000000
00100000
,
01000000
00010000
00100000
00001000
,
00010000
00000000
00000100
00000000
00001000
00000000
00000001
00001000
,
00002002
00000000
00000000
00000000
,
00000000
00000000
00000000
00000000
00003003
00000000
00000000
00000100
,
00000220
00000000
00000000
00000000
,
00000000
00000000
00000000
00000000
00000330
00000000
00000000
00001000
,
00012000
00100000
00010000
00103000
,
00020000
00000100
00001000
00030100
,
00001000
00010000
01000000
00000000
00010000
01000000
10000000
00000000
,
00100000
10000000
01000000
00000000
00100000
00010000
01000000
00001000
,
00010000
00000100
00010000
00000000
00000010
00001000
00000010
00000000
,
00000100
00000001
00000100
00000001
,
00000010
00000100
00000010
00000000
00000001
00001000
00000001
00000000
,
00000100
00000010
00000100
00000010
,
00010000
00011000
00100000
00110000
,
00001000
00011000
01000000
01010000
,
00100000
10000000
00010000
00100000
,
01000000
10000000
00010000
00100000
01000000
00000000
10010000
00000000
,
01000000
00010000
10000000
00100000
01000000
00010000
00100000
00001000
,
00011000
00000000
00000000
00000000
;

//---------------dance-double - ----------------
#NOTES:
     dance-double:
     :
     Hard:
     13:
     :
00000000
00000000
00000000
00000000
,
00000000
00000000
00000000
00000000
,
00000000
00000000
00000000
00000000
,
00000000
00000000
00000000
00000000
,
00000000
00000000
00000000
00000000
,
00010000
00000000
10000000
01000000
00100000
00000000
00001000
00020000
,
00000000
00000000
00000000
00000000
00000000
00000000
00030000
00001000
,
00010000
00001000
00000100
00000001
,
00000010
00000000
00000000
00000000
00000100
00000000
00010000
00000000
00001000
01000000
00001000
01000000
00001000
00000000
00000000
00000000
,
00100000
00010000
01000000
00000000
00100000
00010000
00001000
00000000
,
00010000
00001000
00000010
00000000
00000100
00001000
00000010
00000000
,
00010000
00001000
00000010
00000000
00001000
00010000
00100000
00000000
,
00010000
00001000
00000100
00000001
00000010
00000100
00001000
00000000
,
00000001
00000000
00000100
00000000
00000010
00000000
00001000
00000100
00000000
00000100
00000000
00001000
00000010
00000000
00000100
00000000
,
00000001
00000000
00000100
00000000
00000010
00000000
00010000
00001000
00000000
00001000
00000000
00010000
00000100
00000000
00001000
00000000
,
00000010
00000000
00010000
00000000
00001000
00000000
00100000
01000000
00000000
01000000
00000000
00100000
00010000
00000000
01000000
00000000
,
00100000
00000000
10000000
00000000
01000000
00000000
00100000
00001000
00000000
00001000
00100000
00000000
00010000
00000000
01000000
00000000
,
00100000
10000000
01000000
10000000
00100000
01000000
00100000
00000000
,
01000000
00001000
00010000
00100000
10000000
01000000
00100000
00001000
,
00010000
00001000
00010000
00000000
00000100
00000000
00001000
00000000
00000001
00001000
00000001
00000000
00000100
00000000
00000100
00000000
,
00000001
00000000
00000000
00001001
00000000
00000000
00000000
00000000
00001001
00000000
00000000
00000000
00000100
00000000
00000100
00000000
,
00000100
00000000
00000001
00000010
00000001
00000000
00001000
00000010
00000000
00000000
00010000
00001000
00010000
00000000
00001000
01000000
,
00000000
00100000
10000000
00100000
00000000
00000000
00000000
00000000
00000000
00000000
10000000
01000000
10000000
00010000
10000000
00000000
,
01000000
00000000
00100000
00000000
01000000
00000000
10000000
00000000
00010000
00000000
01000000
00000000
00100000
00000000
10000000
01000000
,
10000000
00000000
01000000
00000000
00010000
00000000
00001000
00000000
00010000
00001000
00010000
00001000
00010000
00000000
00000000
00000000
,
00000010
00000000
00001000
00000000
00000001
00000000
00000010
00000000
00000001
00000100
00000000
00000001
00000000
00000000
00000100
00000000
,
00001000
00001000
00010000
00002000
00000000
01003000
00000000
00000000
,
00100000
00000000
10000000
00000000
00010000
00000000
00100000
00000000
01000000
10000000
00000000
00100000
00000000
00000000
10000000
00000000
,
10000000
00100000
00100000
00010000
00012000
00000000
00003100
00000000
,
00010000
01000000
10000000
00000000
10000000
01000000
00010000
00000000
,
00001000
01000000
00100000
00010000
00000010
00001000
00000100
00000000
,
00000010
00000001
00000100
00000010
00010000
00000100
00000010
00000001
,
00000100
00000000
00001000
00000000
00010000
00000000
00000100
00000000
00010000
00000000
00000000
00001000
01000000
00000000
00100000
00000000
,
10000000
00000000
00010000
00000000
00100000
00000000
01000000
00100000
00000000
00001000
00000000
00010000
00000010
00000000
00000100
00000000
,
00000001
00000000
00001000
00000000
00000010
00000000
00000100
00000010
00000000
00010000
00000000
00001000
00100000
00000000
01000000
00000000
,
10000000
00000000
00010000
00000000
01000000
00000000
00100000
01000000
00000000
00001000
00000000
00010000
00000100
00000000
00000010
00000000
,
00000001
00000000
00001000
00000000
00000100
00000000
00000010
00000001
00000000
00000010
00000100
00000000
00010000
00000000
00001000
00000000
,
00000100
00000000
00000001
00000000
00000010
00000000
00000100
00010000
00000000
00001000
00000000
00010000
00100000
00000000
10000000
00000000
,
01000000
00000000
10000000
00000000
00100000
00000000
01000000
00001000
00000000
00010000
00000000
00001000
00000010
00000000
00000001
00000000
,
00000010
00000000
00000001
00000000
00000100
00000000
00000010
00010000
00000000
00001000
00000000
00010000
01000000
00000000
10000000
00000000
,
00100000
00000000
10000000
00000000
01000000
00000000
00100000
00001000
00000000
00100000
01000000
00000000
00100000
00000000
00001000
00000000
,
00010000
00000100
00000000
00000010
,
00000000
00000000
00000001
00000000
00000000
00000100
00000100
00000010
,
00020000
00000000
00000000
00130000
00000000
00000000
00000000
10000000
,
00100000
10000000
01000000
00010000
,
00001000
01000000
00010000
00000000
00100000
00010000
01000000
00000000
,
00100000
10000000
01000000
00100000
00001000
00010000
00001000
00000000
,
00010000
00000100
00001000
00000000
00000010
00001000
00000100
00000000
,
00000010
00000000
00000001
00000000
00001000
00000000
00000001
00000000
00001000
00000000
00000010
00000000
00010000
00001000
00010000
00001000
,
02000000
00000000
00000000
00000000
00000000
00000000
00000000
03010000
,
00010000
00010000
10000000
20000000
00000000
31000000
00010000
00001000
,
00000200
00000000
00000000
00000000
00000000
00000000
00000000
00000301
,
00000010
00000001
00001000
00000001
00000020
00000000
00000230
00000000
,
00000301
00000001
00000100
00000100
00001000
00001000
00000010
00000010
,
00010000
00010000
00001000
00001000
01000000
01000000
00100000
00100000
,
00010000
00001000
00000010
00000001
00000100
00000010
00010000
00001000
,
00100000
00010000
00100000
00000000
01000000
10000000
01000000
00000000
10000000
00100000
10000000
00000000
00010000
01000000
00010000
01000000
,
00100000
00000000
10000000
00000000
01000000
00000000
00010000
00000000
00001000
01000000
00000000
01000000
00000000
00000000
00010000
00000000
,
00100000
00100000
00001000
00021000
00000000
00130000
00000000
00000000
,
00000000
00000000
10000000
00000000
01000000
00000000
10000000
00100000
00000000
00000000
00010000
00000000
00000000
00000000
00001000
00000000
,
00000010
00000001
00000010
00000001
00001001
00000000
00000110
00000100
,
00000100
00000001
00000010
00000001
00001000
00000100
00010000
00000010
,
00000100
00001000
00000100
00000001
00000010
00001000
00010000
00000010
,
00010000
00001000
01000000
00100000
10000000
00010000
00100000
01000000
,
10000000
00100000
01000000
00001000
00010000
01000000
10000000
00100000
,
10000000
00000000
01000000
00000000
00100000
00000000
00001000
00010000
00000000
00011000
00000000
00001000
00000100
00000000
00000001
00000000
,
00000010
00000000
00000000
00000000
;
