#TITLE:CELEBRATE NIGHT;
#ARTIST:NAOKI;
#BANNER:CELEBRATE NIGHT.png;
#BACKGROUND:CELEBRATE NIGHT-bg.png;
#JACKET:CELEBRATE NIGHT-jacket.png;
#MUSIC:CELEBRATE NIGHT.ogg;
#SAMPLESTART:28.302;
#SAMPLELENGTH:20;
#DISPLAYBPM:144;
#BPMS:0=144;
#BGCHANGES:;

//---------------dance-single - ----------------
#NOTES:
     dance-single:
     :
     Beginner:
     3:
     :
0000
0000
0000
0000
,
0000
0000
0000
0000
,
0000
0000
0000
0000
,
0000
0000
0000
0000
,
0000
0000
0000
0000
,
0100
0000
1000
0000
,
0001
0000
0000
0000
,
0100
0000
0010
0000
,
0000
0000
0000
0000
,
1000
0000
0100
0000
,
1000
1000
1000
0000
,
0010
0000
0100
0000
,
0010
0000
0001
0001
,
0001
0000
0100
0000
,
0001
0001
0001
0000
,
0010
0000
0100
0000
,
0010
0000
0000
0000
,
1000
0000
0000
0000
,
1000
0000
0001
0000
,
1000
0000
0000
0000
,
0001
0000
1001
0000
,
1000
0000
0000
0000
,
0001
0000
1000
0000
,
0001
0000
0000
0000
,
1000
0000
1001
0000
,
0100
0000
0000
0000
,
0001
0000
0000
0000
,
0010
0000
0000
0000
,
1000
0000
0000
0000
,
0100
0000
0100
0000
,
0001
0000
0001
0000
,
0010
0000
0010
0000
,
1000
0000
1000
0000
,
0001
0000
0010
0000
,
0001
0001
0001
0000
,
0100
0000
0010
0000
,
0100
0000
1000
1000
,
1000
0000
0010
0000
,
1000
1000
1000
0000
,
0100
0000
0010
0000
,
0100
0000
0001
0001
,
0001
0000
0000
0000
,
0001
0000
1000
0000
,
0001
0000
0000
0000
,
1000
0000
1001
0000
,
0001
0000
0000
0000
,
1000
0000
0001
0000
,
1000
0000
0000
0000
,
0001
0000
1001
0000
,
1000
1000
0001
0001
,
1000
0000
0000
0000
;

//---------------dance-single - ----------------
#NOTES:
     dance-single:
     :
     Easy:
     5:
     :
0000
0000
0000
0000
,
0000
0000
0000
0000
,
0000
0000
0000
0000
,
0000
0000
0000
0000
,
0000
0000
0000
0000
,
0010
0100
1000
0001
,
1000
0100
0001
0000
,
0001
0010
1000
0001
,
0000
0000
0000
0000
,
0010
0000
1000
0000
,
0001
0000
0100
0000
,
0010
0000
0100
0000
,
1000
0000
1000
0001
,
0100
0100
0001
0000
,
1000
0000
0010
0010
,
0100
0001
0010
0000
,
1000
0000
0000
1001
,
1000
0000
0100
0000
,
0001
0000
1000
0100
,
0001
0000
0100
0000
,
1001
0110
1001
0000
,
0001
0000
0010
0000
,
1000
0000
0001
0100
,
1000
0000
0010
0000
,
1001
0110
1001
0000
,
1000
1000
0100
0100
,
0010
0000
0010
0000
,
0001
0001
0010
0010
,
0100
0000
0100
0000
,
1000
0000
0010
0000
,
0100
0100
0100
0000
,
0001
0000
0100
0000
,
0010
0010
0010
0000
,
0100
0000
0001
0000
,
1000
0000
0010
0000
,
0100
0000
0010
0000
,
0001
0000
0001
1000
,
0010
0010
1000
0000
,
0001
0000
0100
0100
,
0010
1000
0100
0000
,
0001
0000
0000
1001
,
0001
0000
0010
0000
,
1000
0000
0001
0010
,
1000
0000
0010
0000
,
1001
0110
1001
0000
,
1000
0000
0100
0000
,
0001
0000
1000
0010
,
0001
0000
0100
0000
,
1001
0110
1001
0000
,
1000
0100
0001
0010
,
1001
0000
0000
0000
;

//---------------dance-single - ----------------
#NOTES:
     dance-single:
     :
     Medium:
     8:
     :
0000
0000
0000
0000
,
0000
0000
0000
0000
,
0000
0000
0000
0000
,
0000
0000
0000
0000
,
0000
0000
0000
0000
,
0010
0100
1000
0001
,
1000
0100
0001
1000
,
0001
0010
1000
0001
,
1000
0000
0001
0000
,
0010
0011
1000
1000
,
1000
0100
0001
1000
,
1000
0000
1010
0000
0000
0100
0001
0000
,
1000
0000
0001
1001
,
0100
1100
0001
0001
,
0001
0010
1000
0001
,
0001
0000
0101
0000
0000
0010
1000
0000
,
0020
0000
0000
0000
0030
1000
0001
0000
,
0100
0000
1000
0000
0001
0000
0001
0100
,
1000
0000
0100
0000
0001
0000
0100
1000
,
0010
0000
0001
0000
1000
0000
1000
0010
,
0001
0011
1100
0000
,
0010
0000
0001
0000
1000
0000
1000
0010
,
0001
0000
0010
0000
1000
0000
0010
0001
,
0100
0000
1000
0000
0001
0000
0001
0100
,
1000
1100
0011
0000
,
1000
0100
0010
0001
,
0001
1000
0001
0000
0001
1000
0001
0000
,
0001
0010
0100
1000
,
1000
0001
1000
0000
1000
0001
1001
0000
,
1000
0010
0100
0001
,
0010
0000
0100
0000
,
0001
0100
0010
1000
,
0100
0000
0000
0000
,
0100
1100
0001
0001
,
0001
0010
1000
0001
,
0001
0000
0101
0000
0000
0010
1000
0000
,
0001
0000
1000
1001
,
0010
0011
1000
1000
,
1000
0100
0001
1000
,
1000
0000
1010
0000
0000
0100
0001
0000
,
0020
0000
0000
0000
0030
0001
1000
0000
,
0010
0000
0001
0000
1000
0000
1000
0010
,
0001
0000
0010
0000
1000
0000
0010
0001
,
0100
0000
1000
0000
0001
0000
0001
0100
,
1000
1100
0011
0000
,
0100
0000
1000
0000
0001
0000
0001
0100
,
1000
0000
0100
0000
0001
0000
0100
1000
,
0010
0000
0001
0000
1000
0000
1000
0010
,
0001
0011
1100
0000
,
1000
0001
0100
0000
0010
0001
0100
0010
,
1001
0000
0000
0000
;

//---------------dance-single - ----------------
#NOTES:
     dance-single:
     :
     Hard:
     10:
     :
0000
0000
0000
0000
,
0000
0000
0000
0000
,
0000
0000
0000
0000
,
0000
0000
0000
0000
,
0000
0000
0000
0000
,
1000
0000
0100
0000
0010
1000
0010
0000
,
0001
0001
0100
0010
0000
1000
0001
0000
,
0001
1000
0100
0000
0010
0001
0010
0000
,
1000
1000
0000
0001
0001
0100
0000
0000
,
1000
0000
1100
0000
0100
0110
0011
0000
,
0001
0001
0100
0000
0010
0010
1000
1000
,
0100
0000
0000
0000
1000
0000
0000
0010
0000
0000
0001
0000
1100
0000
0000
0000
,
0001
0000
0101
0000
1000
1000
0100
0010
,
0002
0000
1003
0000
1000
0101
1100
0000
,
0001
0001
0010
0000
0100
0100
1000
1000
,
0010
0000
0000
0000
0001
0000
0000
0100
0000
0000
1000
0000
0011
0000
0000
0000
,
1000
0100
1000
0010
1000
0002
0200
0303
,
1000
0100
0001
1000
0000
0100
0010
0000
,
0100
0001
0000
1000
0000
0001
0100
0000
,
0001
0010
1000
0001
0000
0010
0100
0000
,
1000
1000
1100
0000
0011
0011
1100
0000
,
0001
0100
1000
1000
0000
0100
0010
0010
,
0100
0001
0000
1000
0001
1000
0010
0001
,
1000
0100
0010
0001
0000
0100
0010
0010
,
0001
0001
0011
0000
1100
1100
0011
0000
,
1000
0100
0010
0001
1000
0000
0010
0001
,
0001
0010
1000
0010
0001
0000
1100
0000
,
0001
0100
0010
1000
0001
0000
0010
1000
,
1000
0010
0001
0010
1000
1000
0101
0000
,
1000
0010
1000
0010
,
0001
1000
0001
0100
,
0001
0010
0001
0010
,
1000
0000
0000
0000
,
0001
0000
0011
0000
0010
0110
1100
0000
,
1000
1000
0010
0000
0100
0100
0001
0001
,
0010
0000
0000
0000
0001
0000
0000
0100
0000
0000
1000
0000
0011
0000
0000
0000
,
1000
0000
1010
0000
0001
0001
0010
0100
,
2000
0000
3001
0000
0001
1010
0011
0000
,
1000
1000
0100
0000
0010
0010
0001
0001
,
0100
0000
0000
0000
1000
0000
0000
0010
0000
0000
0001
0000
1100
0000
0000
0000
,
0001
0010
0001
0100
0001
2000
0020
3030
,
0001
0010
1000
0001
0000
0010
0100
0000
,
0010
1000
0000
0001
0000
1000
0010
0000
,
1000
0100
0001
1000
0000
0100
0010
0000
,
0001
0001
0011
0000
1100
1100
0011
0000
,
1000
0010
0001
0001
0000
0010
0100
0100
,
0010
1000
0000
0001
1000
0001
0100
1000
,
0001
0010
0100
1000
0000
0010
0100
0100
,
1000
1000
1100
0000
0011
0011
1100
0000
,
0010
1000
0011
0001
0100
1010
0100
0001
,
1001
0000
0000
0000
;

//---------------dance-single - ----------------
#NOTES:
     dance-single:
     :
     Challenge:
     14:
     :
0000
0000
0000
0000
,
0000
0000
0000
0000
,
0000
0000
0000
0000
,
0000
0000
0000
0000
,
0000
0000
0000
0000
,
0010
0000
1000
0000
0100
0000
1000
0001
0000
0010
0000
0001
1000
0000
0100
0000
,
0010
0000
0001
0000
0100
0000
0010
1000
0000
0001
0000
1000
0100
0000
0010
0000
,
0001
0000
1000
0000
0010
0000
1000
0100
0000
0010
0000
0100
1000
0000
0001
0000
,
0100
0000
0010
0000
1000
0000
0100
1000
0000
0001
1000
0000
0001
0000
0010
0000
,
0001
0000
0100
0010
0000
0000
1000
0000
0100
0000
1000
0001
1000
0000
0000
0000
,
0010
0100
0010
0100
0000
0000
0001
0000
1000
0100
1000
0100
0000
0000
0010
0000
,
0001
0000
0100
0010
0000
0100
0010
0000
0000
0000
1000
0000
0001
0100
0001
0000
,
0011
0000
1100
0002
0000
0100
0203
0000
,
0310
1000
0010
1000
0010
0000
0000
0000
0000
0000
0100
0001
0100
0001
0100
0000
,
0001
0000
0010
0100
0010
0000
0000
0000
0000
0000
0001
1000
0001
0000
1000
0100
,
1000
0000
0010
0100
0000
0010
0100
0000
0000
0000
0000
0000
0001
1000
0001
0000
,
0101
0000
1000
0010
1000
0010
0000
0100
0000
0001
1000
0000
2010
0000
0000
0000
,
3001
0000
0010
0000
1000
0000
0100
0000
1000
0010
0000
0010
0100
0000
0001
0000
,
0010
0000
1000
0000
0010
0000
0100
0000
0010
0000
0001
1000
0001
1000
0001
0000
,
0100
0000
0001
0000
0010
0000
0100
0000
1000
0010
0000
0010
0100
0000
0001
0000
,
0011
0010
0110
0100
1100
1000
1001
0000
,
0010
0000
1000
0000
0010
0000
0001
0000
0010
0000
1000
0100
1000
0000
0001
0000
,
0010
0000
0100
1000
0000
0001
0200
0000
0000
0000
0310
1000
0010
1000
0010
0000
,
0100
1000
0100
0010
0100
1000
0100
0001
,
0100
0000
0010
0000
0100
0000
1000
0000
0100
0000
0001
0000
0100
0000
0010
1000
,
0010
0100
1000
0100
0001
0100
1000
0100
,
0010
0100
1000
0100
0010
0100
1000
0100
,
0001
0010
1000
0010
0001
0010
1000
0010
,
0100
0000
0010
0000
1000
0000
0010
0000
0001
0100
0001
0100
0002
0000
0000
0000
,
0013
0100
0001
0100
0010
0100
0001
0100
,
1000
0100
0001
0100
0010
0100
0001
0100
,
1000
0010
0100
0010
0001
0010
1000
0010
,
0001
0000
0010
0000
1000
0000
0100
0010
0001
0000
1000
0000
1020
0000
0000
0000
,
0130
0000
0001
1000
0100
0000
0010
0000
0001
0000
1000
0000
0101
0000
0000
0000
,
0011
0000
1000
0000
0100
0000
1000
0010
0100
0000
0001
1000
0100
0000
0010
0000
,
0001
0100
0010
0100
0001
0000
1000
0000
0100
0010
0100
0000
1000
0000
0001
1000
,
0010
0000
0110
0002
0000
1000
1003
0100
,
1001
0000
0010
1000
0100
0000
0000
0000
0010
0001
0010
0000
0100
0000
1000
0000
,
0001
0000
1000
0100
0010
0000
0000
0000
0000
0000
0001
0100
0001
0000
1000
0010
,
1000
0000
1100
0000
0000
0000
0001
0100
0002
0000
0000
0000
0013
0100
1000
0000
,
1010
0000
0001
0100
0001
0100
0000
0010
0000
1000
0001
0000
0021
0000
0000
0000
,
0031
0000
0100
0000
0010
0000
0001
0000
0010
1000
0000
1000
0100
0000
0010
0000
,
1000
0000
0010
0000
0100
0000
0010
0000
0001
0000
0100
0010
1000
0010
0100
0000
,
0001
0000
1000
0000
0100
0000
0001
0000
0100
0010
0000
0010
0001
0000
1000
0000
,
1100
0100
0110
0010
0011
0001
1001
0000
,
0010
0000
0100
0000
1000
0000
0100
0000
0001
0100
0010
0000
1000
0000
0001
0000
,
0010
0000
0001
1000
0000
1000
0020
0000
0000
0000
0130
0001
0100
0010
1000
0000
,
0100
0001
0100
0010
0100
1000
0100
0001
,
0100
1000
0100
0010
0100
0001
0100
0010
,
0001
0000
0001
0000
0001
0000
1000
0010
0000
1000
0010
0000
0100
0001
0010
0100
,
2000
0002
3003
0000
0000
0000
0000
0000
;
