#VERSION:0.83;
#TITLE:三毛猫ロック;
#SUBTITLE:;
#ARTIST:亜熱帯マジ-SKA爆弾;
#TITLETRANSLIT:CALICO CAT ROCK;
#SUBTITLETRANSLIT:;
#ARTISTTRANSLIT:ANETTAI MAJI-SKA BAKUDAN;
#GENRE:;
#ORIGIN:;
#TAGS:;
#CREDIT:;
#BANNER:CALICO CAT ROCK.png;
#BACKGROUND:CALICO CAT ROCK-bg.png;
#PREVIEWVID:;
#JACKET:CALICO CAT ROCK-jacket.png;
#CDIMAGE:;
#DISCIMAGE:;
#LYRICSPATH:;
#CDTITLE:;
#MUSIC:CALICO CAT ROCK.ogg;
#OFFSET:0.000000;
#SAMPLESTART:6.839000;
#SAMPLELENGTH:20.000000;
#SELECTABLE:YES;
#DISPLAYBPM:152.000000:250.000000;
#BPMS:0.000000=246.574997,
4.000000=245.992981,
328.000000=249.999985,
374.000000=183.673004,
376.000000=152.059006;
#STOPS:;
#DELAYS:;
#WARPS:;
#TIMESIGNATURES:0.000000=4=4;
#TICKCOUNTS:0.000000=4;
#COMBOS:0.000000=1;
#SPEEDS:0.000000=1.000000=0.000000=0;
#SCROLLS:0.000000=1.000000;
#FAKES:;
#LABELS:0.000000=Song Start;
#BGCHANGES:;
#KEYSOUNDS:;
#ATTACKS:
;

//---------------dance-single - ----------------
#NOTEDATA:;
#CHARTNAME:;
#CHARTHASH:2147483647:
#STEPSTYPE:dance-single;
#BANNER:;
#DESCRIPTION:;
#CHARTSTYLE:;
#DIFFICULTY:Beginner;
#METER:4;
#METERF:0.000000;
#RADARVALUES:0.169257,0.292183,0.070285,0.000000,0.000000,118.000000,111.000000,7.000000,0.000000,0.000000,0.000000,0.000000,0.000000,0.000000,0.169257,0.292183,0.070285,0.000000,0.000000,118.000000,111.000000,7.000000,0.000000,0.000000,0.000000,0.000000,0.000000,0.000000;
#CREDIT:;
#DISPLAYBPM:246.000000;
#NOTES:
0000
0000
0000
0000
,
0000
0000
0000
0000
,
0000
0000
0000
0000
,
1000
0000
0000
0000
,
1000
0000
0000
0000
,
1000
0000
1000
0000
,
1000
0000
1000
0000
,
0001
0000
0000
0000
,
0001
0000
0000
0000
,
0010
0000
0000
0000
,
0010
0000
0000
0000
,
1000
0000
0000
0000
,
1000
0000
0000
0000
,
0010
0000
0000
0000
,
0010
0000
0000
0000
,
0001
0000
0000
0000
,
0010
0000
0000
0000
,
1000
0000
0000
0000
,
0010
0000
0000
0000
,
0001
0000
0000
0000
,
0001
0000
0000
0000
,
0100
0000
0000
0000
,
0100
0000
0000
0000
,
1000
0000
0000
0000
,
1000
0000
0000
0000
,
0100
0000
0000
0000
,
0100
0000
0000
0000
,
0001
0000
0000
0000
,
0100
0000
0000
0000
,
1000
0000
0000
0000
,
0100
0000
0000
0000
,
0100
0000
0000
0100
,
0000
0000
0100
0000
,
0010
0000
0010
0000
,
0010
0000
0010
0000
,
1001
0000
0000
0000
,
0100
0000
0000
0000
,
1001
0000
0000
0000
,
0100
0000
0000
0000
,
1001
0000
0000
0000
,
1001
0000
0000
0000
,
0100
0000
0000
0000
,
0100
0000
0100
0000
,
1000
0000
0000
0000
,
1000
0000
0000
0000
,
1000
0000
1000
0000
,
1000
0000
1000
0000
,
0001
0000
0000
0000
,
0001
0000
0000
0000
,
0001
0000
0001
0000
,
0001
0000
0001
0000
,
0110
0000
0000
0000
,
0110
0000
0000
0000
,
0100
0000
0000
0000
,
0100
0000
0000
0000
,
0001
0000
0000
0000
,
0000
0000
0000
0000
,
0001
0000
0000
0000
,
0000
0000
0000
0000
,
1000
0000
0000
0000
,
0000
0000
0000
0000
,
1000
0000
0000
0000
,
0000
0000
0000
0000
,
0010
0000
0010
0000
,
0010
0000
0010
0000
,
0100
0000
0100
0000
,
0100
0000
0100
0000
,
1000
0000
1000
0000
,
1000
0000
1000
0000
,
0001
0000
0001
0000
,
0001
0000
0001
0000
,
0001
0000
0000
0000
,
0001
0000
0000
0000
,
0010
0000
0000
0000
,
0010
0000
0000
0000
,
1000
0000
0000
0000
,
1000
0000
0000
0000
,
0010
0000
0000
0000
,
0010
0000
0000
0000
,
0001
0000
0000
0000
,
0010
0000
0000
0000
,
1000
0000
0000
0000
,
0010
0000
0000
0000
,
0010
0000
0000
0000
,
0010
0000
0000
0000
,
0010
0000
0000
0000
,
0010
0000
0000
0000
,
0100
0000
0000
0000
,
0100
0000
0000
0000
,
0100
0000
0100
0000
,
0100
0000
0100
0000
,
0010
0000
0000
0000
,
0100
0000
0000
0000
,
1000
0000
0001
0000
,
0001
0000
0001
0000
,
0000
0000
0000
0000
,
0000
0000
0000
0000
,
0110
0000
0000
0000
,
0000
0000
0000
0000
;

//---------------dance-single - ----------------
#NOTEDATA:;
#CHARTNAME:;
#CHARTHASH:2147483647:
#STEPSTYPE:dance-single;
#BANNER:;
#DESCRIPTION:;
#CHARTSTYLE:;
#DIFFICULTY:Easy;
#METER:5;
#METERF:0.000000;
#RADARVALUES:0.205116,0.389578,0.150610,0.200813,0.050203,143.000000,128.000000,15.000000,20.000000,0.000000,0.000000,0.000000,0.000000,0.000000,0.205116,0.389578,0.150610,0.200813,0.050203,143.000000,128.000000,15.000000,20.000000,0.000000,0.000000,0.000000,0.000000,0.000000;
#CREDIT:;
#DISPLAYBPM:246.000000;
#NOTES:
0000
0000
0000
0000
,
0000
0000
0000
0000
,
0000
0000
0000
0000
,
0010
0000
0000
0000
,
0100
0000
0000
0000
,
0001
0000
0001
0000
,
1000
0000
1000
0000
,
0010
0000
0000
0000
0000
0000
0000
0000
0000
0000
0000
0100
,
0000
0000
0001
0000
,
0020
0000
0000
0030
,
0200
0000
0000
0300
,
0010
0000
0000
0000
0000
0000
0000
0000
0000
0000
0000
0100
,
0000
0000
1000
0000
,
0020
0000
0000
0030
,
0200
0000
0000
0300
,
0100
0000
0000
0000
0000
0000
0000
0000
0000
0000
0000
0100
,
0000
0000
0000
0000
,
0002
0000
0000
0000
,
2000
0000
0000
3003
,
0010
0000
0000
0000
0000
0000
0000
0000
0000
0000
0000
0100
,
0000
0000
0001
0000
,
0020
0000
0000
0030
,
0200
0000
0000
0300
,
0010
0000
0000
0000
0000
0000
0000
0000
0000
0000
0000
0100
,
0000
0000
1000
0000
,
0020
0000
0000
0030
,
0200
0000
0000
0300
,
0100
0000
0000
0000
0000
0000
0000
0000
0000
0000
0000
0100
,
0000
0000
0000
0000
,
0002
0000
0000
0000
,
2000
0000
0000
3003
,
0001
0000
0000
1000
,
0000
0000
0100
0000
,
0100
0000
0001
0000
,
0010
0000
1000
0000
,
1001
0000
0000
0000
,
1000
0000
0000
0000
,
1001
0000
0000
0000
,
1000
0000
0000
0000
,
1001
0000
0000
0000
,
0001
0000
0000
0000
,
1001
0000
0000
0000
,
0001
0000
0000
0000
,
0120
0000
0000
0000
,
0100
0000
0000
0000
,
0100
0000
0100
0000
,
0100
0000
0130
0000
,
0210
0000
0000
0000
,
0010
0000
0000
0000
,
0010
0000
0010
0000
,
0010
0000
0310
0000
,
1001
0000
0100
0000
,
1001
0000
0100
0000
,
1001
0000
0000
0000
,
1001
0000
0000
0000
,
0001
0000
0000
0000
0000
0000
0000
0000
0000
0000
0000
0001
,
0000
0000
0000
0000
,
0100
0000
0000
0000
,
0100
0000
0000
0000
,
1000
0000
0000
0000
,
1000
0000
0000
0000
,
0100
0000
0000
0000
,
0100
0000
0000
0000
,
1000
0000
1000
0000
,
1000
0000
1000
0000
,
0001
0000
0001
0000
,
0001
0000
0001
0000
,
1000
0000
0110
0000
,
0001
0000
0110
0000
,
0001
0000
0110
0000
,
1000
0000
0110
0000
,
0010
0000
0000
0000
0000
0000
0000
0000
0000
0000
0000
0100
,
0000
0000
0001
0000
,
0020
0000
0000
0030
,
0200
0000
0000
0300
,
0010
0000
0000
0000
0000
0000
0000
0000
0000
0000
0000
0100
,
0000
0000
1000
0000
,
0020
0000
0000
0030
,
0200
0000
0000
0300
,
0100
0000
0000
0000
0000
0000
0000
0000
0000
0000
0000
0100
,
0000
0000
0000
0000
,
0002
0000
0000
0000
,
2000
0000
0000
3003
,
0001
0000
0001
0000
,
0010
0000
0010
0000
,
0001
0000
0001
0000
,
0100
0000
0100
0000
,
0001
0000
0001
0000
,
0010
0000
0010
0000
,
0001
0000
0001
0000
,
0100
0000
0100
0000
,
0010
0000
0000
0000
,
0010
0000
0000
0000
,
1000
0000
1000
0000
,
1000
0000
0001
0000
,
0000
0000
0000
0000
,
0000
0000
0000
0000
,
1001
0000
0000
0000
,
0000
0000
0000
0000
;

//---------------dance-single - ----------------
#NOTEDATA:;
#CHARTNAME:;
#CHARTHASH:1716128474:
#STEPSTYPE:dance-single;
#BANNER:;
#DESCRIPTION:;
#CHARTSTYLE:;
#DIFFICULTY:Medium;
#METER:8;
#METERF:0.000000;
#RADARVALUES:0.325604,0.535669,0.030122,0.040163,0.150610,227.000000,224.000000,3.000000,4.000000,0.000000,0.000000,0.000000,0.000000,0.000000,0.325604,0.535669,0.030122,0.040163,0.150610,227.000000,224.000000,3.000000,4.000000,0.000000,0.000000,0.000000,0.000000,0.000000;
#CREDIT:;
#DISPLAYBPM:246.000000;
#NOTES:
0000
0000
0000
0000
,
0000
0000
0000
0000
,
0000
0000
0000
0000
,
1000
0000
1000
0000
,
0001
0000
0001
0000
,
1000
0000
1000
0000
,
0001
1000
0100
0000
,
0010
0000
0000
0000
0000
0100
0000
0000
0000
0000
0000
0010
,
0000
0100
0001
0000
,
0010
0001
0010
0000
,
0100
0001
0100
0000
,
0010
0000
0000
0000
0000
0100
0000
0000
0000
0000
0000
0010
,
0000
0100
1000
0000
,
0010
1000
0010
0000
,
0100
1000
0100
0000
,
0010
0000
0000
0000
0000
0100
0000
0000
0000
0000
0000
0010
,
0000
0000
0010
0000
,
0001
0100
1000
0000
,
1000
0100
0001
0000
,
0010
0000
0000
0000
0000
0100
0000
0000
0000
0000
0000
0010
,
0000
0100
0001
0000
,
0001
0100
1000
0000
,
1000
0100
0001
0000
,
0010
0000
0000
0000
0000
0100
0000
0000
0000
0000
0000
0010
,
0000
0100
1000
0000
,
1000
0100
0001
0000
,
0001
0100
1000
0000
,
0010
0000
0000
0000
0000
0100
0000
0000
0000
0000
0000
0010
,
0000
0000
0010
0000
,
0010
0001
0100
0000
,
0010
1000
0100
0000
,
0001
0000
0000
0000
0000
0100
0000
0000
0000
1000
0000
0000
,
0000
0000
0100
0000
0000
0000
0001
0000
0000
0100
0000
0000
,
0010
1000
0100
0010
,
0001
0100
0010
1000
,
2000
0000
0100
0000
,
0100
0000
3100
0000
,
0002
0000
0100
0000
,
0100
0000
0103
0000
,
0100
1000
0001
0100
,
0001
1000
0100
1000
,
0001
0000
0001
0000
,
1000
0000
1000
0000
,
0010
0000
0100
0000
,
0010
0000
0010
0000
,
0100
0000
0100
0000
,
0010
0000
0100
0000
,
0002
0000
0100
0000
,
0100
0000
0103
0000
,
2000
0000
0100
0000
,
0100
0000
3100
0000
,
0001
0000
0100
0000
,
0001
0000
0100
0000
,
1000
0000
0100
0000
,
1000
0000
0100
0000
,
0001
0000
0000
0101
,
0000
0000
0001
0000
,
1000
0000
0000
1100
,
0000
0000
1000
0000
,
0001
0000
1000
0000
,
0001
0000
1000
0000
,
0001
0100
1000
0100
0001
0100
,
1000
0100
0001
0100
0000
0000
,
0001
0000
0000
0000
0000
1000
0000
0000
0000
0000
0000
0000
,
0001
0000
0000
0000
0000
1000
0000
0000
0000
0000
0000
0000
,
0001
0000
0001
0000
,
0001
0000
0001
0000
,
0010
0000
1000
0000
,
0100
0000
0001
0000
,
0010
0000
1000
0000
,
0100
0000
0001
0000
,
0010
0000
0000
0000
0000
0100
0000
0000
0000
0000
0000
0010
,
0000
0100
0001
0000
,
0010
1000
0100
0000
,
0010
0001
0100
0000
,
0010
0000
0000
0000
0000
0100
0000
0000
0000
0000
0000
0010
,
0000
0100
1000
0000
,
0010
0001
0100
0000
,
0010
1000
0100
0000
,
1000
0000
0000
0000
0000
1000
0000
0000
0000
0000
0000
0001
,
0000
0000
0001
0000
,
0010
0000
1000
0000
,
0100
0000
0001
0000
,
0010
0000
0100
0000
,
0010
0000
0100
0000
,
1000
0000
0100
0000
,
0001
0000
0100
0000
,
0010
0000
0010
0000
,
0100
0000
0100
0000
,
1000
0100
0001
0000
,
0001
0100
1000
0000
,
0010
0000
0000
0000
0000
0000
1000
0000
0000
0000
0000
0100
,
0000
0000
0000
0000
0000
0000
0001
0000
0000
0000
0000
0010
,
0000
0000
1000
0000
,
0100
0000
0001
0000
,
0000
0000
0000
0000
,
0000
0000
0000
0000
,
1001
0000
0000
0000
,
0000
0000
0000
0000
;

//---------------dance-single - ----------------
#NOTEDATA:;
#CHARTNAME:;
#CHARTHASH:2147483647:
#STEPSTYPE:dance-single;
#BANNER:;
#DESCRIPTION:;
#CHARTSTYLE:;
#DIFFICULTY:Hard;
#METER:12;
#METERF:0.000000;
#RADARVALUES:0.479083,0.681761,0.200813,0.090366,0.497013,334.000000,314.000000,20.000000,9.000000,0.000000,0.000000,0.000000,0.000000,0.000000,0.479083,0.681761,0.200813,0.090366,0.497013,334.000000,314.000000,20.000000,9.000000,0.000000,0.000000,0.000000,0.000000,0.000000;
#CREDIT:;
#DISPLAYBPM:152.000000:250.000000;
#NOTES:
// measure 0
0000
0000
0000
0000
,  // measure 1
0000
0000
0000
0000
,  // measure 2
0000
0000
0000
0000
,  // measure 3
0001
0010
1000
1100
,  // measure 4
0001
0010
1000
1100
,  // measure 5
1000
0010
0001
0101
,  // measure 6
1000
0010
0001
0101
,  // measure 7
1000
0000
0000
0000
0000
0100
0000
0000
0000
0000
0000
0010
,  // measure 8
0000
0000
0000
0001
0000
0000
0100
0000
0001
0000
0000
1000
,  // measure 9
0000
0000
0100
0000
0000
0000
1000
0000
0000
0000
0000
0000
,  // measure 10
0001
0000
0000
0000
0000
0100
0000
0000
0001
0000
0000
0000
,  // measure 11
1000
0000
0000
0000
0000
0100
0000
0000
0000
0000
0000
0010
,  // measure 12
0000
0000
0000
0001
0000
0000
0100
0000
0001
0000
0000
1000
,  // measure 13
0000
0000
0100
0000
0000
0000
1000
0000
0000
0000
0000
0000
,  // measure 14
0001
0000
0000
0000
0000
0100
0000
0000
0001
0000
0000
0000
,  // measure 15
1000
0000
0000
0000
0000
0100
0000
0000
0000
0000
0000
0010
,  // measure 16
0000
0000
0000
0001
0000
0000
0100
0000
0001
0000
0000
1000
,  // measure 17
0000
0000
0000
0101
0000
0000
0001
0000
0100
0001
0000
0000
,  // measure 18
1000
0000
0000
1000
0000
0100
0000
0000
0000
0000
0000
0000
,  // measure 19
0010
0000
0000
0000
0000
0001
0000
0000
0000
0000
0000
0010
,  // measure 20
0000
0000
0000
0001
0000
0000
1000
0000
0001
0000
0000
0200
,  // measure 21
0000
0000
1000
0000
,  // measure 22
0001
0000
0001
0300
,  // measure 23
0010
0000
0000
0000
0000
0001
0000
0000
0000
0000
0000
0010
,  // measure 24
0000
0000
0000
0001
0000
0000
1000
0000
0001
0000
0000
0200
,  // measure 25
0000
0000
1000
0000
,  // measure 26
0001
0000
0001
0300
,  // measure 27
0010
0000
0000
0000
0000
0001
0000
0000
0000
0000
0000
0010
,  // measure 28
0000
0000
0000
0001
0000
0000
1000
0000
0001
0000
0000
0100
,  // measure 29
0000
0000
0000
0101
0000
0000
0001
0000
0100
0001
0000
0000
,  // measure 30
1000
0000
0000
1000
0000
0100
0000
0000
0000
0000
0000
0000
,  // measure 31
1000
0000
0000
0000
0000
0100
0000
0000
0000
0001
0000
0000
,  // measure 32
0000
0000
0100
0000
0000
0000
1000
0000
0000
0100
0000
0000
,  // measure 33
0001
0100
1000
0100
,  // measure 34
0001
0000
0100
0001
0000
0100
0001
0000
0100
0001
0000
0100
,  // measure 35
0000
1000
0000
0010
,  // measure 36
0000
0000
0000
0001
0000
0000
0000
0000
1000
0100
0000
1000
,  // measure 37
0000
1000
0000
0100
,  // measure 38
0000
0000
0001
0100
0000
0000
0000
0000
0000
1000
0000
0000
,  // measure 39
0000
0000
0000
0010
0000
0000
0000
0000
0001
0010
0000
0001
,  // measure 40
0000
0000
0000
1000
0000
0000
0000
0000
0100
1000
0000
0000
,  // measure 41
0000
0000
0000
0001
0000
0000
0000
0000
0100
0001
0000
0100
,  // measure 42
0001
0000
0100
0001
0000
0100
0001
0000
0000
0001
0000
0000
,  // measure 43
0000
0002
0000
0010
,  // measure 44
0000
0100
0000
1003
,  // measure 45
0000
0020
0000
1000
,  // measure 46
0000
0000
0000
0031
0000
0000
0000
0000
0010
0100
0000
0000
,  // measure 47
0000
2000
0000
0010
,  // measure 48
0000
0100
0000
3001
,  // measure 49
0000
0020
0000
0001
,  // measure 50
0000
0000
0000
1030
0000
0000
0000
0000
0010
0100
0000
0010
,  // measure 51
0000
1000
0000
1100
,  // measure 52
0000
0001
0000
0101
,  // measure 53
0000
0010
1000
0100
,  // measure 54
1000
0100
0010
0001
,  // measure 55
0001
0000
1000
0000
0000
1000
0001
0000
0000
0001
0000
1000
,  // measure 56
0000
0000
1000
0001
0000
0000
0001
0000
0100
0001
0000
0100
,  // measure 57
0001
0000
0100
0000
0000
0100
0001
0000
0000
0001
0000
0100
,  // measure 58
0000
0000
0100
0001
0000
0000
1000
0000
0100
1000
0000
0100
,  // measure 59
1000
0000
0000
1000
0000
0100
0000
0000
0100
1000
0000
0000
,  // measure 60
1000
0000
0001
1000
0000
0001
1000
0000
0001
1000
0000
0000
,  // measure 61
0100
0000
0001
0000
1000
0000
0100
0000
1000
0000
0001
0000
,  // measure 62
0100
0000
0001
0000
1000
0000
0100
0000
0000
0000
0000
0000
,  // measure 63
1100
0000
0000
1000
0000
0100
0000
0000
0100
0001
0000
0100
,  // measure 64
0001
0000
0000
0100
0000
1000
0000
0000
0100
0001
0000
0100
,  // measure 65
0001
0100
1000
0100
,  // measure 66
0001
0100
1000
0000
,  // measure 67
0210
0000
0001
0000
,  // measure 68
0010
0000
1000
0300
,  // measure 69
0210
0000
0001
0000
,  // measure 70
0010
0000
1000
0300
,  // measure 71
0110
0000
0000
0000
0000
1000
0000
0000
0000
0000
0000
0010
,  // measure 72
0000
0000
0000
0001
0000
0000
0001
0000
0010
0000
0000
1000
,  // measure 73
0000
0000
1001
0000
,  // measure 74
0100
0000
1001
0000
,  // measure 75
0110
0000
0000
0000
0000
1000
0000
0000
0000
0000
0000
0010
,  // measure 76
0000
0000
0000
0001
0000
0000
0001
0000
0010
0000
0000
1000
,  // measure 77
0000
0000
1001
0000
,  // measure 78
0100
0000
1001
0000
,  // measure 79
0110
0000
0000
0000
0000
1000
0000
0000
0000
0000
0000
0010
,  // measure 80
0000
0000
0000
0001
0000
0000
0001
0000
0010
0000
0000
1000
,  // measure 81
0000
0000
0000
0101
0000
0000
0001
0000
0100
0001
0000
0000
,  // measure 82
1000
0000
0000
1000
0000
0100
0000
0000
0000
0000
0000
0000
,  // measure 83
1000
0100
0001
0100
,  // measure 84
1000
0100
0001
0100
,  // measure 85
1000
0100
0010
0001
,  // measure 86
0100
0010
1000
0000
,  // measure 87
1000
0100
0001
0100
,  // measure 88
1000
0100
0001
0100
,  // measure 89
1000
0100
0010
0001
,  // measure 90
0100
0010
1000
0000
,  // measure 91
1000
0000
0000
0100
0000
0000
1000
0000
0100
0000
0000
1000
,  // measure 92
0000
0000
0000
0100
0000
0000
0001
0000
0000
0100
0000
0001
,  // measure 93
0000
0000
1000
0000
,  // measure 94
0010
0000
0200
0000
,  // measure 95
0000
0000
0000
0000
,  // measure 96
0000
0000
0000
0300
,  // measure 97
1001
0000
0000
0000
;

//---------------dance-double - ----------------
#NOTEDATA:;
#CHARTNAME:;
#CHARTHASH:2147483647:
#STEPSTYPE:dance-double;
#BANNER:;
#DESCRIPTION:;
#CHARTSTYLE:;
#DIFFICULTY:Easy;
#METER:5;
#METERF:0.000000;
#RADARVALUES:0.228067,0.486972,0.180732,0.110447,0.005020,159.000000,141.000000,18.000000,11.000000,0.000000,0.000000,0.000000,0.000000,0.000000,0.228067,0.486972,0.180732,0.110447,0.005020,159.000000,141.000000,18.000000,11.000000,0.000000,0.000000,0.000000,0.000000,0.000000;
#CREDIT:;
#DISPLAYBPM:246.000000;
#NOTES:
00000000
00000000
00000000
00000000
,
00000000
00000000
00000000
00000000
,
00000000
00000000
00000000
00000000
,
00000200
00000000
00000000
00000300
,
00001000
00000000
00010000
00000000
,
02000000
00000000
00000000
03000000
,
00010000
00000000
00001000
00000000
,
00000210
00000000
00000000
00000000
,
00001000
00000000
00000301
00000000
,
00001000
00000000
00000000
00000000
,
00010000
00000000
00000000
00000000
,
02100000
00000000
00000000
00000000
,
00010000
00000000
13000000
00000000
,
00010000
00000000
00000000
00000000
,
00001000
00000000
00000000
00000000
,
00000210
00000000
00000000
00000000
,
00001000
00000000
00000301
00000000
,
00001000
00000000
00000000
00000000
,
00010000
00000000
00000000
00000000
,
20010000
00000000
00000000
00000000
,
00100000
00000000
31000000
00000000
,
00010000
00000000
00000000
00000000
,
00001000
00000000
00000000
00000000
,
00000210
00000000
00000000
00000000
,
00000001
00000000
00001300
00000000
,
00010000
00000000
00000000
00000000
,
01000000
00000000
00000000
00000000
,
20010000
00000000
00000000
00000000
,
00100000
00000000
31000000
00000000
,
00010000
00000000
00000000
00000000
,
00001000
00000000
00000000
00000000
,
00001001
00000000
00000000
00000010
,
00000000
00000000
00000100
00000000
,
00001000
00000000
00000000
00000000
,
00010000
00000000
00000000
00000000
,
10000000
00000000
01000000
00000000
,
00100000
00000000
00010000
00000000
,
00001000
00000000
00000000
00000000
,
00000001
00000000
00000000
00000000
,
00000001
00000000
00000100
00000000
,
00000010
00000000
00001000
00000000
,
00010000
00000000
00000000
00000000
,
10000000
00000000
00000000
00000000
,
10010000
00000000
00100000
00000000
,
01000000
00000000
00100000
00000000
,
00101000
00000000
00011000
00000000
,
00010010
00000000
00001010
00000000
,
00001001
00000000
00000010
00000000
,
00000100
00000000
00000010
00000000
,
00000100
00000000
00001000
00000000
,
00010000
00000000
00001000
00000000
,
00000100
00000000
00010000
00000000
,
00000100
00000000
00010000
00000000
,
00000100
00000000
00000100
00000000
,
00010000
00000000
00000100
00000000
,
00000110
00000000
00000000
00000000
00000000
00000000
00000000
00000000
00000000
00000000
00000000
00000001
,
00000000
00000000
00000000
00000000
,
00000010
00000000
00000000
00000000
,
00001000
00000000
00000000
00000000
,
00010000
00000000
00000000
00000000
,
00000010
00000000
00000000
00000000
,
00000001
00000000
00000000
00000000
,
00000100
00000000
00000000
00000000
,
00001000
00000000
00000001
00000000
,
00001000
00000000
00010000
00000000
,
01000000
00000000
10000000
00000000
,
00010000
00000000
10000000
00000000
,
00100000
00000000
10000000
00000000
,
01000000
00000000
00010000
00000000
,
00001000
00000000
00000010
00000000
,
00000001
00000000
00000100
00000000
,
00000210
00000000
00000000
00000000
,
00001000
00000000
00000301
00000000
,
00001000
00000000
00000000
00000000
,
00010000
00000000
00000000
00000000
,
02100000
00000000
00000000
00000000
,
00010000
00000000
13000000
00000000
,
00010000
00000000
00000000
00000000
,
00001000
00000000
00000000
00000000
,
00000210
00000000
00000000
00000000
,
00001000
00000000
00000301
00000000
,
00001000
00000000
00000000
00000000
,
00010000
00000000
00000000
00000000
,
00100000
00000000
00100000
00000000
,
00010000
00000000
00010000
00000000
,
00001000
00000000
00001000
00000000
,
00000010
00000000
00000010
00000000
,
00000010
00000000
00000010
00000000
,
00001000
00000000
00001000
00000000
,
00010000
00000000
00010000
00000000
,
00100000
00000000
00100000
00000000
,
00100000
00000000
10000000
00000000
,
01000000
00000000
00010000
00000000
,
00001000
00000000
00000100
00000000
,
00000100
00000000
00000001
00000000
,
00000000
00000000
00000000
00000000
,
00000000
00000000
00000000
00000000
,
10010000
00000000
00000000
00000000
,
00000000
00000000
00000000
00000000
;

//---------------dance-double - ----------------
#NOTEDATA:;
#CHARTNAME:;
#CHARTHASH:2147483647:
#STEPSTYPE:dance-double;
#BANNER:;
#DESCRIPTION:;
#CHARTSTYLE:;
#DIFFICULTY:Medium;
#METER:9;
#METERF:0.000000;
#RADARVALUES:0.377242,0.535669,0.160651,0.060244,0.150610,263.000000,247.000000,16.000000,6.000000,0.000000,0.000000,0.000000,0.000000,0.000000,0.377242,0.535669,0.160651,0.060244,0.150610,263.000000,247.000000,16.000000,6.000000,0.000000,0.000000,0.000000,0.000000,0.000000;
#CREDIT:;
#DISPLAYBPM:246.000000;
#NOTES:
00000000
00000000
00000000
00000000
,
00000000
00000000
00000000
00000000
,
00000000
00000000
00000000
00000000
,
01000000
00000000
01000000
00000000
,
01000000
00000000
01000000
00000000
,
00010000
00000000
00001000
00000000
,
00000100
00000000
00000100
00000000
,
00000010
00000000
00000000
00000000
00000000
00000101
00000000
00000000
00000000
00000000
00000000
00001000
,
00000000
00010000
01000000
10000000
,
01000000
00000000
01100000
00000000
,
10000000
01000000
00010000
00000000
,
00100000
00000000
00000000
00000000
00000000
11000000
00000000
00000000
00000000
00000000
00000000
00010000
,
00000000
00001000
00000100
00000001
,
00000100
00000000
00000110
00000000
,
00000001
00000100
00001000
00000000
,
00010000
00000000
00000000
00000000
00000000
01000000
00000000
00000000
00000000
00000000
00000000
00010000
,
00000000
00001000
00000100
00000000
,
00001000
00000000
00010000
00000000
,
01000000
00000000
01000000
00000000
,
10000000
00000000
00000000
00000000
00000000
01100000
00000000
00000000
00000000
00000000
00000000
00100000
,
00000000
00001000
00010000
00000000
,
00001000
00000000
00000010
00000000
,
00000001
00000000
00000100
00000000
,
00000001
00000000
00000000
00000000
00000000
00000110
00000000
00000000
00000000
00000000
00000000
00000010
,
00000000
00010000
00001000
00000000
,
00010000
00000000
00100000
00000000
,
10000000
00000000
01000000
00000000
,
10000000
00000000
00000000
00000000
00000000
01100000
00000000
00000000
00000000
00000000
00000000
00100000
,
00000000
00001000
00010000
00000000
,
00010000
01000000
10000000
00000000
,
10000000
01000000
00010000
00000000
,
00010000
00000000
00000000
00000000
00000000
01000000
00000000
00000000
00000000
00010000
00000000
00000000
,
00000000
00000000
01000000
00000000
00000000
00000000
00010000
00000000
00000000
00001000
00000000
00000000
,
00000100
00001000
00010000
00001000
,
00000100
00000010
00001000
00000100
,
00002000
00000100
00000000
00000010
,
00000000
00000100
00003000
00000010
,
00010000
00001000
00000100
00000000
,
00001000
00000100
00001000
00000000
,
00001000
00010000
01000000
00000000
,
00010000
00001000
00000100
00000000
,
00000010
00010000
00001000
00000000
,
01000000
00010000
00100000
00000000
,
00101000
00000000
00110000
00000000
,
00100000
00010000
01000000
00010000
,
00100000
00000000
00101000
00000000
,
00100000
00010000
01000000
00010000
,
00200000
00000000
01000000
00000000
,
01000000
00000000
01300000
00000000
,
01000000
00010000
00001000
00010000
,
00001000
00000100
00000001
00000000
,
00001010
00000000
00010000
00000000
,
00001010
00000000
00010000
00000000
,
00001010
00000000
00000001
00000100
,
00001000
00010000
01000000
00000000
,
00010000
00000000
00000000
00001000
,
00000000
00000000
01000000
00000000
,
00001000
00000000
00000000
00010000
,
00000000
00000000
00000100
00000000
,
00010000
00000000
01000000
00000000
,
00001000
00000000
00000100
00000000
,
00000001
00000100
00000010
00000100
00001000
00010000
,
01000000
00100000
01000000
10000000
00000000
00000000
,
00020000
00000000
00000000
00000000
00000000
00001000
00000000
00000000
00000000
00000000
00000000
00000000
,
01000000
00000000
00000000
00000000
00000000
00001000
00000000
00000000
00000000
00030000
00000000
00000000
,
00000200
00000000
00000001
00000000
,
00001000
00000000
00000001
00000300
,
00000010
00000100
00001000
00000000
,
00010000
01000000
00100000
00000000
,
00100000
01000000
00010000
00000000
,
00001000
00000100
00000010
00000000
,
00000001
00000000
00000000
00000000
00000000
00000100
00000000
00000000
00000000
00000000
00000000
00000010
,
00000000
00001000
00010000
00000000
,
00100000
10000000
01000000
00000000
,
00100000
00010000
01000000
00000000
,
10000000
00000000
00000000
00000000
00000000
01000000
00000000
00000000
00000000
00000000
00000000
00100000
,
00000000
00010000
00001000
00000000
,
00000010
00000001
00000100
00000000
,
00000010
00001000
00000100
00000000
,
00000110
00000000
00000000
00000000
00000000
00001000
00000000
00000000
00000000
00000000
00000000
00010000
,
00000000
00000000
01100000
00000000
,
01000000
00000000
00010000
00000000
,
00001000
00000000
00000100
00000000
,
00001000
00000100
00001000
00000100
,
00001000
00010000
00001000
00010000
,
01000000
00010000
01000000
00010000
,
00001000
00010000
01000000
00000000
,
00010000
01000000
00010000
01000000
,
00010000
00001000
00010000
00001000
,
00000100
00001000
00000100
00001000
,
00010000
00001000
00000100
00000000
,
00001000
00000000
00000000
00000000
00000000
00000000
00002000
00000000
00000000
00000000
00000000
00010000
,
00000000
00000000
00000000
00000000
00000000
00000000
00000100
00000000
00000000
00003000
00000000
00020000
,
00000000
00000000
01000000
00000000
,
01030000
00000000
10000000
00000000
,
00000000
00000000
00000000
00000000
,
00000000
00000000
00000000
00000000
,
00001001
00000000
00000000
00000000
,
00000000
00000000
00000000
00000000
;

//---------------dance-double - ----------------
#NOTEDATA:;
#CHARTNAME:;
#CHARTHASH:2147483647:
#STEPSTYPE:dance-double;
#BANNER:;
#DESCRIPTION:;
#CHARTSTYLE:;
#DIFFICULTY:Hard;
#METER:13;
#METERF:0.000000;
#RADARVALUES:0.476214,0.681761,0.190773,0.150610,0.411667,332.000000,313.000000,19.000000,15.000000,0.000000,0.000000,0.000000,0.000000,0.000000,0.476214,0.681761,0.190773,0.150610,0.411667,332.000000,313.000000,19.000000,15.000000,0.000000,0.000000,0.000000,0.000000,0.000000;
#CREDIT:;
#DISPLAYBPM:246.000000;
#NOTES:
00000000
00000000
00000000
00000000
,
00000000
00000000
00000000
00000000
,
00000000
00000000
00000000
00000000
,
00100000
00010000
01000000
00001000
,
00010000
00000010
00001000
00000100
,
00000010
00000001
00000100
00001000
,
00010000
01000000
10000000
00100000
,
21000000
00000000
00000000
00000000
00000000
00000000
00000000
00000000
00000000
00000000
00100000
00000000
00000000
00000000
00000000
00000000
00000000
00000000
00000000
00000000
00000000
30000000
01000000
00000000
,
00000000
00000000
00000000
00001000
00000000
00000000
01000000
00000000
00010000
00000000
00000000
00001000
,
00000000
00000100
00000000
00010000
00000000
00000000
,
00000010
00000000
00000000
00000000
00000000
00001000
00000000
00000000
00000100
00000000
00000000
00000000
,
00000012
00000000
00000000
00000000
00000000
00000000
00000000
00000000
00000000
00000000
00000100
00000000
00000000
00000000
00000000
00000000
00000000
00000000
00000000
00000000
00000000
00000003
00000010
00000000
,
00000000
00000000
00000000
00010000
00000000
00000000
00000010
00000000
00001000
00000000
00000000
00010000
,
00000000
00100000
00000000
01000000
00000000
00000000
,
00001000
00000000
00000000
00000000
00000000
00100000
00000000
00000000
00010000
00000000
00000000
00000000
,
00102000
00000000
00000000
00000000
00000000
00010000
00000000
00000000
00000000
00000000
00000000
00000010
,
00000000
00000000
00000000
00013000
00000000
00000000
01000000
00000000
10000000
00000000
00000000
00100000
,
00000000
00000000
00000000
01000000
00000000
00000000
00010000
00000000
01000000
00010000
00000000
00000000
,
00001000
00000000
00000000
00001000
00000000
00000100
00000000
00000000
00000000
00000000
00000000
00000000
,
00000101
00000000
00000000
00000000
00000000
00001010
00000000
00000000
00000000
00000000
00000000
00000001
,
00000000
00000000
00000000
00000100
00000000
00000000
00001000
00000000
00000100
00000000
00000000
00000020
,
00000000
00000000
00010000
00000000
,
00001000
00000000
00000031
00000000
,
00001010
00000000
00000000
00000000
00000000
00000101
00000000
00000000
00000000
00000000
00000000
00000010
,
00000000
00000000
00000000
00001000
00000000
00000000
00010000
00000000
00001000
00000000
00000000
00200000
,
00000000
00000000
00010000
00000000
,
00001000
00000000
00310000
00000000
,
11000000
00000000
00000000
00000000
00000000
00110000
00000000
00000000
00000000
00000000
00000000
10000000
,
00000000
00000000
00000000
01000000
00000000
00000000
00010000
00000000
01000000
00000000
00000000
00010000
,
00000000
00000000
00000000
00001000
00000000
00000000
00010000
00000000
01000000
00010000
00000000
00000000
,
00001000
00000000
00000000
00001000
00000000
00000100
00000000
00000000
00000000
00000000
00000000
00000000
,
00001000
00000000
00000000
00000000
00000000
00000100
00000000
00000000
00000000
00010000
00000000
00000000
,
00000000
00000000
01000000
00000000
00000000
00000000
00001000
00000000
00000000
00000100
00000000
00000000
,
00001000
00010000
01000000
00010000
,
00001000
00000000
00000100
00001000
00000000
00000100
00001000
00000000
00000100
00001000
00000000
00000100
,
00001000
00000100
00000001
00000010
,
00001000
00100000
00001000
00020000
,
00000000
01000000
00000000
10000000
,
00000000
01000000
00000000
00031000
,
00010000
01000000
10000000
00100000
,
00010000
00000010
00010000
00002000
,
00000000
00000100
00000000
00000001
,
00000000
00000100
00000000
00013000
,
00100000
00010000
00001000
00000010
,
00001000
00100000
00010000
00000010
,
00001000
00010000
00100000
00010000
,
00000010
00001000
00100000
00010000
,
00002000
00000000
00000010
00000000
,
00000001
00000000
00003010
00000000
,
00020000
00000000
00100000
00000000
,
10000000
00000000
00130000
00000000
,
00001000
00000100
00001000
00010000
,
01000000
00001000
01000000
00010000
,
00002000
00000000
00000100
00000000
,
00000100
00000000
00013000
00000000
,
00001000
00000000
00000100
00000000
00000000
00000100
00000001
00000000
00000000
00000001
00000000
00000100
,
00000000
00000000
00000100
00001000
00000000
00000000
00010000
00000000
01000000
00010000
00000000
01000000
,
00010000
00000000
01000000
00000000
00000000
01000000
10000000
00000000
00000000
10000000
00000000
01000000
,
00000000
00000000
01000000
00010000
00000000
00000000
00010000
00000000
01000000
00010000
00000000
01000000
,
00010000
00000000
00000000
00001000
00000000
01000000
00000000
00000000
01000000
00001000
00000000
00000000
,
00010000
00000000
00001000
00010000
00000000
00001000
00010000
00000000
00001000
00010000
00000000
00000000
,
00001000
00100000
00010000
00100000
00001000
00010000
,
00001000
00000100
00001000
00000100
00000000
00000000
,
02000000
00000000
00000000
00000000
00000000
10000000
00000000
00000000
00000000
00000000
00000000
00000000
,
00010000
00000000
00000000
00000000
00000000
00001000
03000000
00000000
00000000
00000000
00000000
00000000
,
00000200
00000000
00000001
00000000
,
00001000
00000000
00010300
00000000
,
00001000
00000100
00000001
00000010
,
00001000
00000010
00000001
00000100
,
00001000
00010000
00001000
00100000
,
00001000
00010000
00001000
00100000
,
00110000
00000000
00000000
00000000
00000000
11000000
00000000
00000000
00000000
00000000
00000000
00010000
,
00000000
00000000
00000000
00001000
00000000
00000000
00001000
00000000
00010000
00000000
00000000
01200000
,
00000000
00000000
00001000
00000000
,
01000000
00000000
00310000
00000000
,
00110000
00000000
00000000
00000000
00000000
11000000
00000000
00000000
00000000
00000000
00000000
00010000
,
00000000
00000000
00000000
00001000
00000000
00000000
00001000
00000000
00010000
00000000
00000000
01200000
,
00000000
00000000
00001000
00000000
,
01000000
00000000
00310000
00000000
,
11000000
00000000
00000000
00000000
00000000
00110000
00000000
00000000
00000000
00000000
00000000
00100000
,
00000000
00000000
00000000
00001000
00000000
00000000
00001000
00000000
00100000
00000000
00000000
01000000
,
00000000
00000000
00000000
01010000
00000000
00000000
00010000
00000000
01000000
00010000
00000000
00000000
,
00001000
00000000
00000000
00001000
00000000
00000100
00000000
00000000
00000000
00000000
00000000
00000000
,
00000100
00000001
00000010
00000100
,
00010000
00000100
00001000
00000100
,
00000010
00000001
00000100
00000010
,
00010000
00001000
01000000
00000000
,
00100000
10000000
01000000
00100000
,
00001000
00100000
00010000
00100000
,
01000000
10000000
00100000
01000000
,
00001000
00010000
00000100
00000000
,
00000010
00000000
00000000
00001000
00000000
00000000
00010000
00000000
00100000
00000000
00000000
00010000
,
00000000
00000000
00000000
00001000
00000000
00000000
00000010
00000000
00000000
00001000
00000000
00020000
,
00000000
00000000
01000000
00000000
,
00001000
00000000
10030000
00000000
,
00000000
00000000
00000000
00000000
,
00000000
00000000
00000000
00000000
,
00001001
00000000
00000000
00000000
,
00000000
00000000
00000000
00000000
;

//---------------dance-single - ----------------
#NOTEDATA:;
#CHARTNAME:;
#CHARTHASH:0:
#STEPSTYPE:dance-single;
#BANNER:;
#DESCRIPTION:;
#CHARTSTYLE:;
#DIFFICULTY:Challenge;
#METER:17;
#METERF:0.000000;
#RADARVALUES:1.014107,1.177770,0.783172,0.642603,1.531201,707.000000,629.000000,78.000000,64.000000,0.000000,0.000000,0.000000,0.000000,0.000000,1.014107,1.177770,0.783172,0.642603,1.531201,707.000000,629.000000,78.000000,64.000000,0.000000,0.000000,0.000000,0.000000,0.000000;
#CREDIT:;
#DISPLAYBPM:152.000000:250.000000;
#NOTES:
0000
0000
0000
0000
,
0000
0000
0000
0000
,
0000
0000
0000
0110
,
1000
0000
0010
1000
0000
0010
1000
0000
0010
1000
0000
0010
,
0100
0000
0001
0100
0000
0001
0100
0000
0001
0100
0000
0001
,
1000
0000
0001
1000
0000
0001
0100
0000
0010
0100
0000
0010
,
1000
0000
0000
0001
0010
0100
1000
0100
0010
0001
0010
0100
,
2000
0000
0000
3001
0000
0101
0000
0000
0100
0010
0000
1020
,
0000
0000
1030
0002
0000
0000
1003
0000
0010
0000
0000
1001
,
0000
0000
0010
0100
0000
0000
0110
0000
0001
1000
0000
0000
,
1000
0000
1000
0100
0000
0100
0010
0000
0002
1000
0000
0000
,
0203
0000
0000
0310
0000
1010
0000
0000
1000
0100
0000
2100
,
0000
0000
3001
0020
0000
0000
0031
0000
1000
0000
0000
0101
,
0000
0000
1000
0001
0000
0000
0011
0000
0010
0100
0000
0000
,
1000
0000
1000
0001
0000
0001
0010
0000
0200
1000
0000
0000
,
0320
0000
0000
0031
0000
0011
0000
0000
0001
1000
0000
2100
,
0000
0000
3010
0200
0000
0000
0301
0000
1000
0000
0000
1010
,
0000
0000
0001
1000
0000
0000
1000
0000
0010
0100
0000
0010
,
2000
0000
0000
3001
0000
0010
1000
0100
0010
0001
0010
0100
,
2000
0000
0000
3010
0000
0110
0000
0000
0100
0001
0000
0021
,
0000
0000
0130
2000
0000
0000
3001
0000
0100
0000
0000
0101
,
0000
0000
0020
1000
0000
0000
0130
0000
0100
0001
0000
0002
,
0000
0000
1003
0010
1000
0010
0100
0001
0100
0002
0000
0000
,
0023
0000
0000
0130
0000
1100
0000
0000
1000
0001
0000
2001
,
0000
0000
3010
2000
0000
0000
3100
0000
0010
0000
0000
0011
,
0000
1000
0001
1000
0010
1000
0100
0010
0100
0010
0001
1000
,
0100
0000
0100
1000
0010
0100
0001
1000
0001
0100
0010
1000
,
0002
0000
0000
1003
0000
1010
0000
0000
0010
0100
0000
0210
,
0000
0000
0310
2000
0000
0000
3001
0000
0010
0000
0000
1001
,
0000
0000
0010
0100
0000
0000
0100
0000
0001
1000
0000
0001
,
1000
0000
0010
0100
0000
0001
1000
0100
0010
0001
0010
0100
,
2000
0000
0000
3010
0000
0110
0000
0000
0100
0002
0000
0000
,
0013
0000
0011
0000
0000
0000
1100
0000
0000
0101
0000
0000
,
0011
1010
1001
0110
,
1000
1000
0100
0100
0010
0010
0001
0001
,
0200
0010
1000
0310
,
2000
0000
0000
3001
0000
0000
0001
0100
0001
1000
0100
1000
,
0001
0010
0001
1000
0100
0010
0001
0000
1000
0010
0000
0200
,
0000
0000
0301
0100
0000
0100
0010
0000
0010
1000
0000
0000
,
0100
1000
0001
0100
0001
1000
0100
1000
0001
0100
0001
1000
,
0010
0100
0001
0010
0100
1000
0001
0000
2020
0030
0000
0000
,
3100
0000
1000
0001
0000
0001
0010
0100
0010
0001
1000
0100
,
1000
0000
1000
0010
0000
0010
0100
0000
0100
0001
0000
0001
,
0020
0001
1000
0001
,
0130
0000
2000
0000
3002
0000
0000
0000
0000
2003
0000
0000
,
3020
0000
0000
0230
0000
0000
0301
0000
0001
1000
0000
1000
,
0010
0000
2200
0300
0000
3001
1000
0000
1000
0002
0000
0000
,
0013
0100
1000
0010
1000
0001
1000
0100
,
0010
1000
0010
0100
0010
0001
0100
0010
,
1000
0000
0000
0001
0000
0000
1000
0000
0000
0200
0000
0000
0000
0000
0000
0000
0310
0000
0002
0000
0000
0000
0000
0000
,
0103
0000
0100
0010
0000
0010
1000
0000
0001
0200
0000
0000
,
0310
0000
0010
1000
0100
1000
0100
0010
0001
0100
0000
0001
,
1000
0010
0100
0002
0000
0000
0010
0000
0000
0103
1000
0001
,
1000
0100
1000
0001
0100
0001
1000
0010
1000
0001
0010
0001
,
0100
0000
0010
1000
0000
0010
1000
0000
0001
0100
0000
0000
,
1001
0000
1001
0000
0000
0100
0010
1000
0010
0100
0000
0101
,
0000
0000
1000
0001
0010
0100
1000
0010
1000
0001
0000
0100
,
0000
0000
0010
1000
0000
0010
1000
0000
0100
0010
0000
0001
,
0000
0000
1000
0010
0100
0010
0100
0000
0001
1000
0100
1000
,
0001
0000
0000
0010
0000
0010
0000
0000
0100
0100
0000
0000
,
1000
0000
0001
1000
0000
0001
0100
0000
0010
0100
0000
0010
,
1000
0100
1000
0001
0010
0001
0100
0000
0110
0000
0110
0000
,
1010
0000
1100
0000
0101
0000
0011
0000
0000
1001
0000
0000
,
0110
0000
0000
0000
0000
0000
1000
0010
1000
0000
0010
0000
0000
0000
0000
0000
0100
0000
0001
0010
0001
0000
0100
0000
,
0000
0000
0000
0010
0000
1001
0000
0000
1000
0001
0000
0001
,
0100
0000
0000
0010
0000
1000
0100
0000
1000
0100
0000
0010
,
0001
0000
0001
1000
0000
1000
0020
0000
1030
0200
0000
0000
,
1300
0000
0010
1000
0000
0010
1000
0000
0010
1000
0000
0010
,
0100
0000
0001
0100
0000
0001
0100
0000
0001
0100
0000
0001
,
1000
0000
0001
1000
0000
0001
0100
0000
0010
0100
0000
0010
,
1000
0000
0010
0100
0000
0001
1000
0100
0010
0001
0010
0100
,
2000
0000
0000
3010
0000
1010
0000
0000
0100
0001
0000
0021
,
0000
0000
0031
2000
0000
0000
3010
0000
0100
0000
0000
0110
,
0000
0000
0000
2000
0000
0000
0000
0000
0000
3002
0000
0000
0000
0000
0203
0000
0000
0000
0000
0000
0000
0000
0000
0000
,
0310
0000
1000
0010
0000
0100
0001
0000
1000
0100
0000
0000
,
1020
0000
0000
1030
0000
0101
0000
0000
0001
0010
0000
1200
,
0000
0000
0301
0200
0000
0000
1300
0000
0010
0000
0000
1000
,
0001
0000
0000
0000
0000
0000
0000
0000
0100
0000
0000
0000
0010
0000
0000
1000
0000
0000
0010
0000
0000
1000
0000
0000
0010
0000
0000
0000
0000
0000
0000
0000
0100
0000
0000
0000
0001
0000
0000
1000
0000
0000
0001
0000
0000
1000
0000
0000
,
0001
0010
0100
1000
0010
1000
0001
0100
0010
1000
0000
0000
,
2001
0000
0000
3010
0000
0101
0000
0000
0001
0010
0000
0210
,
0000
0000
0301
0200
0000
0000
1300
0000
0001
0000
0000
1010
,
0000
0000
0010
0100
0000
0000
0100
0000
0001
1000
0000
0001
,
0010
0000
0010
0001
0000
0100
0001
0010
0100
1000
0100
0010
,
0001
0011
0101
1001
,
1100
0101
1100
0101
,
1010
0011
1010
0011
,
1000
0000
0010
1000
0000
0010
1000
0000
0001
0100
0000
0000
,
0110
0000
0000
1001
0000
0000
1000
0000
1000
0100
0000
0100
,
0010
0000
0010
0001
0000
0001
1000
0000
1000
0010
0000
0000
,
0101
0000
0000
1010
0000
0000
1000
0000
1000
0001
0000
0001
,
0010
0000
0010
0100
0000
0100
0010
0000
0010
0001
0000
0000
,
0011
0000
0000
1100
0000
0000
1001
0000
1001
0000
0000
1020
,
0000
0000
1030
0010
0000
0010
0200
0000
0000
0301
0000
1001
,
0000
0000
1100
0000
,
0101
0000
2020
0000
,
0000
0000
0000
0000
,
0000
0000
0000
3030
,
0022
0000
0000
0033
;
